VERSION	0.00.00	1.04.00
FES_MODE	0
BPM_DEF	196.000	196.000	196.000	196.000
MET_DEF	4	4
RESOLUTION	384
CLK_DEF	384
COMPATIBLE_CODE	MA2

BPM	0	0	196.000
MET	0	0	4	4
MET	61	0	4	2
MET	61	192	4	4

EXTAP	4	96	3
EXTAP	4	96	4
EXTAP	4	192	3
EXTAP	4	192	4
EXTAP	4	288	3
EXTAP	4	288	4
EXTAP	5	0	5
EXTAP	5	96	5
EXTAP	5	192	4
EXTAP	5	192	5
NMTAP	6	0	3
NMTAP	6	96	3
NMTAP	6	192	2
NMTAP	6	192	3
NMTAP	7	0	1
NMTAP	7	96	1
NMTAP	7	192	0
NMTAP	7	192	1
NMTAP	8	0	7
NMTAP	8	96	7
NMTAP	8	192	0
NMTAP	8	192	7
NMTAP	9	0	6
NMTAP	9	96	6
NMTAP	9	192	6
NMTAP	9	192	7
NMTAP	10	0	0
NMTAP	10	96	0
NMTAP	10	192	0
NMTAP	10	192	1
NMTAP	11	0	2
NMTAP	11	96	2
NMTAP	11	192	2
NMTAP	11	192	3
NMTAP	12	0	3
NMTAP	12	0	4
NMTAP	12	192	3
NMTAP	12	192	4
NMTAP	13	0	2
NMTAP	13	96	2
NMTAP	13	192	2
NMHLD	14	0	2	192
NMHLD	14	0	3	192
NMTAP	15	0	4
NMTAP	15	96	4
NMTAP	15	192	4
NMHLD	16	0	4	192
NMHLD	16	0	5	192
NMTAP	17	0	6
NMTAP	17	96	6
NMTAP	17	192	6
NMHLD	18	0	4	192
NMHLD	18	0	5	192
NMTAP	19	0	3
NMTAP	19	96	3
NMTAP	19	192	3
NMHLD	20	0	3	192
NMHLD	20	0	4	192
NMTTP	21	96	2	E	0	L1
NMTTP	21	192	2	B	0	L1
NMTTP	21	288	3	B	0	L1
NMTTP	22	96	4	B	0	L1
NMTTP	22	96	5	B	0	L1
NMTTP	22	288	2	B	0	L1
NMTTP	22	288	3	B	0	L1
NMTTP	23	96	6	E	0	L1
NMTTP	23	192	5	B	0	L1
NMTTP	23	288	4	B	0	L1
NMTTP	24	96	2	B	0	L1
NMTTP	24	96	3	B	0	L1
NMTTP	24	288	4	B	0	L1
NMTTP	24	288	5	B	0	L1
NMTTP	25	96	1	B	0	L1
NMTTP	25	192	2	B	0	L1
NMTTP	25	288	3	E	0	L1
NMTTP	26	96	4	E	0	L1
NMTTP	26	96	5	E	0	L1
NMTTP	26	288	2	E	0	L1
NMTTP	26	288	3	E	0	L1
NMTTP	27	96	6	B	0	L1
NMTTP	27	192	5	B	0	L1
NMTTP	27	288	5	E	0	L1
EXTAP	28	96	3
EXTAP	28	96	4
EXTAP	28	192	3
EXTAP	28	192	4
NMHLD	29	0	2	192
NMHLD	29	192	3	192
NMHLD	30	0	4	192
NMTAP	30	192	5
NMHLD	31	0	5	192
NMHLD	31	192	4	192
NMHLD	32	0	3	192
NMTAP	32	192	2
NMHLD	33	0	1	192
NMHLD	33	192	2	192
NMHLD	34	0	3	192
NMTAP	34	192	4
NMTAP	35	0	5
NMTAP	35	96	5
NMTAP	35	192	6
NMTAP	35	288	6
NMTAP	36	0	0
NMTAP	36	0	7
NMTAP	37	0	6
NMTAP	37	96	6
NMTAP	37	192	6
NMTAP	37	192	7
NMTAP	37	288	6
NMTAP	37	288	7
NMTAP	38	0	1
NMTAP	38	96	1
NMTAP	38	192	0
NMTAP	38	192	1
NMTAP	38	288	0
NMTAP	38	288	1
NMTAP	39	0	2
NMTAP	39	96	2
NMTAP	39	192	1
NMTAP	39	288	1
NMTAP	40	0	0
NMTAP	40	96	0
NMTAP	40	192	6
NMTAP	40	192	7
NMTAP	41	0	5
NMTAP	41	96	5
NMTAP	41	192	6
NMTAP	41	288	6
NMTAP	42	0	7
NMTAP	42	96	7
NMTAP	42	192	0
NMTAP	42	192	1
NMTAP	43	0	2
NMTAP	43	96	1
NMTAP	43	192	0
NMTAP	43	288	7
NMTAP	44	0	6
NMTAP	44	96	5
EXTAP	44	192	3
EXTAP	44	192	4
NMTAP	45	0	2
NMTAP	45	96	2
NMTAP	45	192	2
NMTAP	45	192	3
NMTAP	45	288	2
NMTAP	45	288	3
NMTAP	46	0	5
NMTAP	46	96	5
NMTAP	46	192	4
NMTAP	46	192	5
NMTAP	46	288	4
NMTAP	46	288	5
NMTAP	47	0	6
NMTAP	47	96	6
NMTAP	47	192	5
NMTAP	47	288	5
NMTAP	48	0	4
NMTAP	48	96	4
NMTAP	48	192	2
NMTAP	48	192	3
NMTAP	49	0	1
NMTAP	49	96	1
NMTAP	49	192	2
NMTAP	49	288	2
NMTAP	50	0	3
NMTAP	50	96	3
NMTAP	50	192	4
NMTAP	50	192	5
NMTAP	51	0	5
NMTAP	51	96	6
NMTAP	51	192	7
NMTAP	51	288	0
NMTAP	52	0	1
NMTAP	52	96	2
EXTAP	52	192	3
EXTAP	52	192	4
NMTAP	53	0	2
NMTAP	53	96	2
NMTAP	53	192	3
NMTAP	53	288	3
NMTAP	54	0	2
NMTAP	54	0	4
NMTAP	54	96	2
NMTAP	54	96	4
NMTAP	54	192	2
NMTAP	54	192	4
NMTAP	55	0	5
NMTAP	55	96	5
NMTAP	55	192	4
NMTAP	55	288	4
NMTAP	56	0	3
NMTAP	56	0	5
NMTAP	56	96	3
NMTAP	56	96	5
NMTAP	56	192	3
NMTAP	56	192	5
NMTAP	57	0	6
NMTAP	57	96	6
NMTAP	57	192	7
NMTAP	57	288	7
NMTAP	58	0	0
NMTAP	58	0	6
NMTAP	58	96	0
NMTAP	58	96	6
NMTAP	58	192	0
NMTAP	58	192	6
NMTAP	59	0	0
NMTAP	59	96	0
NMTAP	59	192	7
NMTAP	59	288	7
NMTAP	60	0	0
NMTAP	60	0	7
NMTAP	60	96	0
NMTAP	60	96	7
NMTAP	60	192	1
NMTAP	60	192	6
NMHLD	61	192	0	192
NMTAP	62	0	7
NMTAP	62	192	0
NMTAP	62	192	7
NMTAP	63	0	0
NMTAP	63	0	7
NMHLD	63	192	6	192
NMTAP	64	0	7
NMTAP	64	192	6
NMTAP	64	192	7
NMTAP	65	0	6
NMTAP	65	0	7
NMHLD	65	192	5	192
NMTAP	66	0	4
NMTAP	66	192	4
NMTAP	66	192	5
NMTAP	67	0	4
NMTAP	67	0	5
NMHLD	67	192	2	192
NMTAP	68	0	3
NMTAP	68	192	2
NMTAP	68	192	3
NMTAP	69	0	2
NMTAP	69	0	3
NMTAP	69	192	4
NMTAP	69	192	5
NMTAP	70	0	4
NMTAP	70	0	5
EXTAP	70	192	3
EXTAP	70	192	4
EXTAP	70	288	3
EXTAP	70	288	4
EXTAP	71	0	3
EXTAP	71	0	4
NMTAP	71	192	2
NMTAP	71	288	2
NMTAP	72	0	3
NMTAP	72	96	3
NMTAP	72	192	4
NMTAP	72	288	4
NMTAP	73	0	4
NMTAP	73	0	5
NMTAP	73	192	6
NMTAP	73	288	6
NMTAP	74	0	5
NMTAP	74	96	5
NMTAP	74	192	4
NMTAP	74	288	4
NMTAP	75	0	2
NMTAP	75	0	3
NMTAP	75	192	2
NMTAP	75	288	2
NMTAP	76	0	1
NMTAP	76	96	1
NMTAP	76	192	0
NMTAP	76	288	0
NMTAP	77	0	7
NMTAP	77	96	7
NMTAP	77	192	6
NMTAP	77	288	6
NMTAP	78	0	5
NMTAP	78	96	5
NMTAP	78	192	3
NMTAP	78	192	4
NMSTR	79	192	2
NMSI_	79	192	2	96	288	7
NMTAP	81	0	6
NMSTR	81	192	6
NMSI_	81	192	6	96	288	3
NMTAP	83	0	2
NMSTR	83	192	1
NMSI_	83	192	1	96	288	4
NMTAP	85	0	5
NMSTR	85	192	5
NMSI_	85	192	5	96	288	0
NMTAP	87	192	1
NMTAP	87	288	0
NMTAP	87	288	1
NMTAP	88	0	6
NMTAP	88	96	6
NMTAP	88	96	7
NMTAP	88	192	1
NMTAP	88	288	0
NMTAP	88	288	1
NMTAP	89	0	6
NMTAP	89	96	6
NMTAP	89	96	7
NMTAP	89	192	5
NMTAP	89	288	5
NMTAP	90	0	6
NMTAP	90	96	6
NMTAP	90	192	7
NMTAP	90	288	7
NMTAP	91	0	0
NMTAP	91	0	1
NMTAP	91	192	2
NMTAP	91	288	2
NMTAP	92	0	1
NMTAP	92	96	1
NMTAP	92	192	0
NMTAP	92	288	0
NMTAP	93	0	6
NMTAP	93	0	7
NMTAP	93	192	6
NMTAP	93	288	5
NMTAP	94	0	4
NMTAP	94	96	3
NMTAP	94	192	2
NMTAP	94	288	1
EXTAP	95	0	0
EXTAP	95	0	7
NMTAP	95	192	6
NMTAP	95	288	6
NMTAP	95	288	7
NMTAP	96	0	1
NMTAP	96	96	0
NMTAP	96	96	1
NMTAP	96	192	6
NMTAP	96	288	6
NMTAP	96	288	7
NMTAP	97	0	1
NMTAP	97	96	0
NMTAP	97	96	1
NMTAP	97	192	2
NMTAP	97	288	2
NMTAP	98	0	1
NMTAP	98	96	1
NMTAP	98	192	0
NMTAP	98	288	0
NMTAP	99	0	6
NMTAP	99	0	7
EXTAP	99	192	5
EXTAP	99	288	5
EXTAP	100	0	6
EXTAP	100	96	6
EXTAP	100	192	7
EXTAP	100	288	7
NMTAP	101	0	0
NMTAP	101	0	1
NMTAP	101	192	7
NMTAP	101	288	7
NMTAP	102	0	0
NMTAP	102	96	0
NMTAP	102	192	0
NMTAP	102	192	7
BRTAP	102	288	1
BRTAP	102	288	6
BRTAP	103	0	1
BRTAP	103	0	6
BRTAP	103	96	1
BRTAP	103	96	6
EXTAP	103	288	0
EXTAP	104	96	0
NMTAP	104	288	0
NMTAP	104	288	7
NMTAP	105	0	0
NMTAP	105	0	7
NMTAP	105	96	0
NMTAP	105	96	7
NMTAP	105	288	1
NMTAP	106	96	1
NMTAP	106	288	0
NMTAP	106	288	1
NMTAP	107	0	0
NMTAP	107	0	1
NMTAP	107	96	0
NMTAP	107	96	1
NMTAP	107	288	7
NMTAP	108	96	7
NMTAP	108	288	6
NMTAP	108	288	7
NMTAP	109	0	6
NMTAP	109	0	7
NMTAP	109	96	6
NMTAP	109	96	7
NMHLD	109	288	0	192
EXTAP	110	96	7
EXTAP	110	144	7
EXTAP	110	240	0
EXTAP	110	240	7
EXTAP	110	336	0
EXTAP	110	336	7
EXTAP	111	48	1
EXTAP	111	48	6
BRTAP	111	144	2
BRTAP	111	144	5

T_REC_TAP	298
T_REC_BRK	8
T_REC_XTP	42
T_REC_BXX	0
T_REC_HLD	22
T_REC_XHO	0
T_REC_BHO	0
T_REC_BXH	0
T_REC_STR	4
T_REC_BST	0
T_REC_XST	0
T_REC_XBS	0
T_REC_TTP	24
T_REC_THO	0
T_REC_SLD	4
T_REC_BSL	0
T_REC_ALL	402
T_NUM_TAP	368
T_NUM_BRK	8
T_NUM_HLD	22
T_NUM_SLD	4
T_NUM_ALL	402
T_JUDGE_TAP	376
T_JUDGE_HLD	88
T_JUDGE_SLD	4
T_JUDGE_ALL	468
TTM_EACHPAIRS	91
TTM_SCR_TAP	184000
TTM_SCR_BRK	20800
TTM_SCR_HLD	22000
TTM_SCR_SLD	6000
TTM_SCR_ALL	232800
TTM_SCR_S	225050
TTM_SCR_SS	232000
TTM_RAT_ACV	10034

