VERSION	0.00.00	1.04.00
FES_MODE	0
BPM_DEF	150.000	150.000	150.000	150.000
MET_DEF	4	4
RESOLUTION	384
CLK_DEF	384
COMPATIBLE_CODE	MA2

BPM	0	0	150.000
MET	0	0	4	4

NMHLD	1	0	1	144
NMHLD	1	144	3	240
NMTAP	1	240	2
NMTAP	1	316	4
NMHLD	2	0	2	144
NMHLD	2	144	4	240
NMTAP	2	240	3
NMTAP	2	316	5
NMHLD	3	0	3	144
NMHLD	3	144	5	240
NMTAP	3	240	4
NMTAP	3	316	6
NMTAP	4	0	4
NMTAP	4	48	4
NMTAP	4	96	5
NMSTR	4	144	5
NMSUL	4	144	5	96	144	3
NMTAP	4	192	4
NMTAP	4	192	6
BRTAP	5	0	0
NMTAP	5	96	1
NMTAP	5	144	3
NMTAP	5	192	1
NMTAP	5	240	3
NMTAP	5	288	2
NMTAP	5	316	3
NMTAP	6	0	4
NMTAP	6	0	5
NMTAP	6	96	6
NMTAP	6	144	4
NMTAP	6	192	6
NMTAP	6	240	4
NMTAP	6	288	5
NMTAP	6	316	4
NMTAP	7	0	2
NMHLD	7	0	3	96
NMTAP	7	96	1
NMTAP	7	144	3
NMTAP	7	192	1
NMTAP	7	240	3
NMTAP	7	288	2
NMTAP	7	316	3
NMHLD	8	0	4	96
NMTAP	8	0	5
NMTAP	8	96	6
NMSTR	8	144	4
NMSUL	8	144	4	96	144	2
NMTAP	8	192	3
NMTAP	8	192	5
NMHLD	8	240	6	96
EXTAP	9	0	7
NMTAP	9	96	6
NMTAP	9	144	4
NMTAP	9	192	6
NMTAP	9	240	4
NMTAP	9	288	5
NMTAP	9	316	4
NMTAP	10	0	1
NMHLD	10	0	3	96
NMTAP	10	96	2
NMTAP	10	144	4
NMTAP	10	192	3
NMTAP	10	240	5
NMTAP	10	288	4
NMTAP	10	316	5
NMHLD	11	0	4	96
NMTAP	11	0	6
NMTAP	11	96	5
NMTAP	11	144	3
NMTAP	11	192	4
NMTAP	11	240	2
NMTAP	11	288	3
NMTAP	11	316	2
NMTAP	12	0	1
NMTAP	12	0	3
NMTAP	12	48	2
NMTAP	12	76	3
NMTAP	12	96	2
NMSTR	12	144	3
NMSCL	12	144	3	96	144	4
NMTAP	12	144	4
NMTAP	12	192	4
NMTAP	12	192	5
BRTAP	13	0	7
NMTAP	13	96	3
NMTAP	13	96	5
NMTAP	13	192	2
NMTAP	13	240	2
NMTAP	13	288	3
NMHLD	13	336	1	96
NMTAP	14	48	3
NMTAP	14	96	3
NMTAP	14	144	2
NMSTR	14	192	4
NMSCR	14	192	4	96	48	7
NMSTR	14	288	1
NMSCR	14	288	1	96	48	4
NMTAP	15	0	0
NMTAP	15	96	5
NMTAP	15	96	6
NMTAP	15	192	4
NMTAP	15	240	4
NMTAP	15	288	6
NMHLD	15	336	3	96
NMTAP	16	48	5
NMTAP	16	96	4
NMTAP	16	144	3
NMTAP	16	192	2
NMTAP	16	240	0
NMTAP	16	240	1
NMTAP	16	288	7
NMTAP	16	316	7
NMTAP	16	360	0
NMTAP	16	360	6
EXTAP	17	48	1
EXTAP	17	48	5
NMTAP	17	96	2
NMTAP	17	144	3
NMTAP	17	192	5
NMTAP	17	240	5
NMTAP	17	288	4
NMHLD	17	336	6	96
NMTAP	18	48	4
NMTAP	18	96	4
NMTAP	18	144	5
NMSTR	18	192	3
NMSCL	18	192	3	96	48	0
NMSTR	18	288	6
NMSCL	18	288	6	96	48	3
NMTAP	19	0	7
NMTAP	19	96	1
NMTAP	19	96	2
NMTAP	19	192	3
NMTAP	19	240	3
NMTAP	19	288	1
NMHLD	19	336	4	96
NMTAP	20	48	2
NMTAP	20	96	1
NMTAP	20	96	3
NMTAP	20	144	5
NMTAP	20	192	4
NMTAP	20	192	6
NMTAP	20	240	3
NMTAP	20	240	7
NMTAP	20	288	0
NMTAP	20	316	0
BRTAP	20	360	2
BRTAP	20	360	6
EXTAP	21	48	3
EXTAP	21	48	5
NMTAP	21	96	4
NMTAP	21	124	2
NMTAP	21	144	3
NMSTR	21	172	1
NMSUR	21	172	1	96	44	5
NMTAP	21	240	5
NMTAP	21	288	7
NMTAP	21	336	0
NMTAP	21	336	6
NMHLD	22	48	4	4
NMHLD	22	48	5	4
NMHLD	22	96	1	4
NMHLD	22	96	3	4
NMTAP	22	144	0
NMTAP	22	172	0
NMTAP	22	240	1
NMTAP	22	240	7
NMTAP	22	288	2
NMTAP	22	316	3
NMTAP	22	336	2
NMTAP	23	0	1
NMTAP	23	0	4
NMTAP	23	48	3
NMTAP	23	48	5
NMTAP	23	96	6
NMTAP	23	124	4
NMTAP	23	144	5
NMSTR	23	172	3
NMSCL	23	172	3	96	92	5
NMTAP	23	240	7
NMTAP	23	288	5
NMHLD	23	336	3	336
NMTAP	24	48	7
NMTAP	24	96	0
NMTAP	24	144	6
NMTAP	24	192	1
NMTAP	24	240	5
NMTAP	24	288	2
NMTAP	24	316	3
NMTAP	24	360	1
NMTAP	24	360	5
EXTAP	25	48	2
EXTAP	25	48	4
NMTAP	25	96	3
NMTAP	25	124	5
NMTAP	25	144	4
NMSTR	25	172	6
NMSUL	25	172	6	96	44	2
NMTAP	25	240	2
NMTAP	25	288	0
NMTAP	25	336	1
NMTAP	25	336	7
NMHLD	26	48	2	4
NMHLD	26	48	3	4
NMHLD	26	96	4	4
NMHLD	26	96	6	4
NMTAP	26	144	7
NMTAP	26	172	7
NMTAP	26	240	0
NMTAP	26	240	6
NMTAP	26	288	5
NMTAP	26	316	4
NMTAP	26	336	5
NMTAP	27	0	3
NMTAP	27	0	6
NMTAP	27	48	2
NMTAP	27	48	4
NMTAP	27	96	1
NMTAP	27	124	3
NMTAP	27	144	2
NMSTR	27	172	4
NMSCR	27	172	4	96	92	2
NMTAP	27	240	0
NMTAP	27	288	2
NMHLD	27	336	4	336
NMTAP	28	48	0
NMTAP	28	96	7
NMTAP	28	144	1
NMTAP	28	192	6
NMTAP	28	240	2
NMTAP	28	288	5
NMTAP	28	316	4
NMSTR	28	360	2
NMSXR	28	360	2	96	312	4
NMTAP	28	360	6
NMSTR	30	0	5
NMSUL	30	0	5	96	288	3
NMSTR	31	0	2
NMSCR	31	0	2	96	240	5
NMTAP	32	0	6
NMTAP	32	28	6
NMTAP	32	48	4
NMTAP	32	76	4
NMTAP	32	96	5
NMTAP	32	124	5
NMTAP	32	144	3
NMTAP	32	192	1
NMTAP	32	220	1
NMTAP	32	240	3
NMTAP	32	268	3
NMTAP	32	288	2
NMTAP	32	316	2
NMTAP	32	336	4
NMTAP	33	0	1
NMSTR	33	0	5
NMSXL	33	0	5	96	288	3
NMSTR	34	0	2
NMSUR	34	0	2	96	288	4
NMSTR	35	0	5
NMSCL	35	0	5	96	240	2
NMTAP	36	0	1
NMTAP	36	28	1
NMTAP	36	48	3
NMTAP	36	76	3
NMTAP	36	96	2
NMTAP	36	124	2
NMTAP	36	144	4
NMTAP	36	192	3
NMTAP	36	192	5
NMSTR	36	240	6
NMSI_	36	240	6	96	48	0
NMTAP	36	288	4
EXTAP	36	336	2
NMHLD	37	0	1	96
NMTAP	37	48	0
NMHLD	37	96	3	96
NMTAP	37	144	2
NMHLD	37	192	1	96
NMSTR	37	240	0
NMSI_	37	240	0	96	48	4
NMTAP	37	288	3
NMTAP	37	336	0
NMHLD	38	0	6	96
NMTAP	38	48	7
NMHLD	38	96	4	96
NMTAP	38	144	5
NMHLD	38	192	6	96
NMSTR	38	240	7
NMSI_	38	240	7	96	48	3
NMTAP	38	288	4
NMTAP	38	336	7
NMHLD	39	0	1	96
NMTAP	39	48	0
NMHLD	39	96	3	96
NMTAP	39	144	2
NMHLD	39	192	1	96
NMSTR	39	240	0
NMSI_	39	240	0	96	48	4
NMTAP	39	288	3
NMTAP	39	336	0
NMTAP	40	0	6
NMTAP	40	48	6
NMTAP	40	48	7
NMTAP	40	96	5
NMTAP	40	124	4
NMTAP	40	144	5
NMTAP	40	192	1
NMTAP	40	240	0
NMTAP	40	240	1
NMTAP	40	288	2
NMTAP	40	316	3
NMTAP	40	336	2
NMTAP	41	0	4
EXTAP	41	0	6
NMTAP	41	48	5
EXTAP	41	96	4
NMTAP	41	96	6
NMTAP	41	144	3
NMTAP	41	192	4
EXTAP	41	192	6
NMSTR	41	240	7
NMSI_	41	240	7	96	48	3
EXTAP	41	288	4
NMTAP	41	288	6
NMTAP	41	336	7
EXTAP	42	0	1
NMTAP	42	48	2
NMTAP	42	96	1
EXTAP	42	96	3
NMTAP	42	144	4
EXTAP	42	192	1
NMTAP	42	192	3
NMSTR	42	240	0
NMSI_	42	240	0	96	48	4
NMTAP	42	288	1
EXTAP	42	288	3
NMTAP	42	336	0
EXTAP	43	0	6
NMTAP	43	48	5
EXTAP	43	96	4
NMTAP	43	96	6
NMTAP	43	144	3
NMTAP	43	192	4
EXTAP	43	192	6
NMSTR	43	240	7
NMSI_	43	240	7	96	48	3
EXTAP	43	288	4
NMTAP	43	288	6
NMTAP	43	336	7
NMTTP	44	0	1	B	1	M1
NMTTP	44	0	1	E	0	M1
NMTTP	44	0	1	A	0	M1
NMTTP	44	72	4	B	0	M1
NMTTP	44	72	4	A	0	M1
NMTTP	44	72	5	E	1	M1
NMTTP	44	144	3	B	0	M1
NMTTP	44	144	3	E	1	M1
NMTTP	44	144	3	A	0	M1
NMTTP	44	216	6	B	1	M1
NMTTP	44	216	6	A	0	M1
NMTTP	44	216	7	E	0	M1
NMTTP	44	288	3	A	0	M1
NMTTP	44	288	4	E	1	M1
NMTTP	44	288	4	A	0	M1
NMTTP	44	288	4	D	0	M1
NMTAP	45	0	1
NMTAP	45	48	0
NMTAP	45	48	1
NMTAP	45	96	2
NMTAP	45	144	2
NMTAP	45	144	3
NMTAP	45	192	4
NMTAP	45	220	4
NMTAP	45	264	3
NMTAP	45	264	5
NMTAP	45	336	0
NMTAP	45	336	1
NMHLD	46	0	2	96
NMTAP	46	0	7
NMTAP	46	96	3
NMTAP	46	144	2
NMTAP	46	144	4
NMTAP	46	192	5
NMTAP	46	220	5
NMSTR	46	240	4
NMSI_	46	240	4	96	48	0
NMTAP	46	268	6
NMTAP	47	0	6
NMTAP	47	48	6
NMTAP	47	48	7
NMTAP	47	96	5
NMTAP	47	144	4
NMTAP	47	144	6
NMTAP	47	192	1
NMTAP	47	240	0
NMTAP	47	240	1
NMTAP	47	288	2
NMTAP	47	336	1
NMTAP	47	336	3
NMTAP	48	0	6
NMTAP	48	28	7
NMTAP	48	48	6
NMTAP	48	96	1
NMTAP	48	124	0
NMTAP	48	144	1
NMTAP	48	192	6
NMTAP	48	220	4
NMTAP	48	240	5
NMTAP	48	268	3
NMTAP	48	288	4
NMTAP	48	316	2
NMTAP	48	336	3
NMTAP	48	364	1
NMTAP	49	0	7
NMTAP	49	48	0
NMTAP	49	48	6
NMTAP	49	96	5
NMTAP	49	144	4
NMTAP	49	144	6
NMTAP	49	192	1
NMTAP	49	220	3
NMTAP	49	240	2
NMTAP	49	268	3
NMTAP	49	288	0
NMTAP	49	336	2
NMHLD	49	336	6	96
NMTAP	50	48	4
NMTAP	50	96	3
NMTAP	50	96	5
NMTAP	50	144	2
NMTAP	50	144	4
NMTAP	50	192	1
NMTAP	50	220	1
NMSTR	50	240	3
NMSI_	50	240	3	96	48	7
NMTAP	50	268	2
NMTAP	51	0	1
NMTAP	51	48	0
NMTAP	51	48	1
NMTAP	51	96	2
NMTAP	51	144	1
NMTAP	51	144	3
NMTAP	51	192	6
NMTAP	51	240	6
NMTAP	51	240	7
NMTAP	51	288	5
NMTAP	51	336	4
NMTAP	51	336	6
NMTAP	52	0	1
NMTAP	52	28	0
NMTAP	52	48	1
NMTAP	52	96	6
NMTAP	52	124	7
NMTAP	52	144	6
NMTAP	52	192	1
NMTAP	52	220	3
NMTAP	52	240	2
NMTAP	52	268	4
NMTAP	52	288	3
NMTAP	52	316	5
NMTAP	52	336	4
NMTAP	52	364	6
EXHLD	53	0	0	48
NMHLD	53	96	2	48
NMTAP	53	124	3
NMTAP	53	144	3
EXHLD	53	192	0	48
NMHLD	53	288	2	48
NMTAP	53	316	3
NMTAP	53	336	3
EXHLD	54	0	0	48
NMHLD	54	96	2	48
NMTAP	54	124	3
NMTAP	54	144	3
EXHLD	54	192	0	48
NMHLD	54	288	2	48
NMTAP	54	316	3
NMTAP	54	336	3
EXHLD	55	0	7	48
NMHLD	55	96	5	48
NMTAP	55	124	4
NMTAP	55	144	4
EXHLD	55	192	7	48
NMHLD	55	288	5	48
NMTAP	55	316	4
NMTAP	55	336	4
EXHLD	56	0	7	48
NMHLD	56	96	5	48
NMTAP	56	124	4
NMTAP	56	144	4
EXHLD	56	192	7	48
NMHLD	56	288	5	48
NMTAP	56	316	4
NMTAP	56	336	4
EXHLD	57	0	2	48
NMTAP	57	48	3
NMHLD	57	96	0	48
NMTAP	57	124	3
NMTAP	57	144	3
EXHLD	57	192	5	48
NMTAP	57	240	4
NMHLD	57	288	7	48
NMTAP	57	316	4
NMTAP	57	336	4
EXHLD	58	0	1	48
NMTAP	58	48	2
NMHLD	58	96	0	48
NMTAP	58	124	3
NMTAP	58	144	3
EXHLD	58	192	6	48
NMTAP	58	240	5
NMHLD	58	288	7	48
NMTAP	58	316	4
NMTAP	58	336	4
NMTAP	59	0	1
NMTAP	59	28	1
NMTAP	59	48	3
NMTAP	59	76	3
NMTAP	59	96	2
NMTAP	59	124	2
NMTAP	59	144	5
NMTAP	59	172	5
NMTAP	59	192	4
NMTAP	59	220	4
NMTAP	59	240	6
NMTAP	59	268	6
NMTAP	59	288	0
NMTAP	59	316	0
NMTAP	59	336	7
NMTAP	59	364	7
NMTAP	60	0	1
NMTAP	60	16	2
NMTAP	60	32	3
NMTAP	60	48	6
NMTAP	60	64	5
NMTAP	60	80	4
EXTAP	60	96	2
EXTAP	60	96	3
EXTAP	60	144	0
EXTAP	60	144	1
EXTAP	60	192	4
EXTAP	60	192	5
EXTAP	60	240	6
EXSTR	60	240	7
NMSF_	60	240	7	96	48	3
EXTAP	60	288	2
EXTAP	60	288	4
BRTAP	60	336	7
NMTHO	62	0	0	768	C	1	M1
NMTAP	64	192	0
NMTAP	64	192	1
NMTAP	64	240	6
NMTAP	64	240	7
NMTAP	64	288	3
NMTAP	64	288	4
NMTAP	64	316	3
NMTAP	64	316	4
BRTAP	64	360	1
BRTAP	64	360	6
NMHLD	65	48	2	4
NMHLD	65	48	4	4
NMTAP	65	96	3
NMTAP	65	124	5
NMTAP	65	144	4
NMHLD	65	172	6	68
NMSTR	65	240	0
NMSCR	65	240	0	96	48	3
NMTAP	65	268	6
NMTAP	65	288	0
NMTAP	65	316	7
NMTAP	65	336	0
NMHLD	66	48	4	4
NMHLD	66	48	5	4
NMTAP	66	96	6
NMTAP	66	124	4
NMTAP	66	144	5
NMHLD	66	172	3	68
NMTAP	66	240	7
NMTAP	66	256	6
NMTAP	66	272	5
NMTAP	66	288	2
NMTAP	66	288	4
NMTAP	66	336	0
NMTAP	67	0	1
NMTAP	67	0	7
NMHLD	67	48	3	4
NMHLD	67	48	5	4
NMTAP	67	96	4
NMTAP	67	124	2
NMTAP	67	144	3
NMHLD	67	172	1	68
NMSTR	67	240	7
NMSCL	67	240	7	96	48	4
NMTAP	67	268	1
NMTAP	67	288	7
NMTAP	67	316	0
NMTAP	67	336	7
NMHLD	68	48	2	4
NMHLD	68	48	3	4
NMTAP	68	96	0
NMTAP	68	124	4
NMTAP	68	144	2
NMTAP	68	172	5
NMHLD	68	192	4	48
NMTAP	68	240	6
NMTAP	68	288	0
NMTAP	68	288	1
NMTAP	68	316	0
NMTAP	68	316	1
BRTAP	68	360	2
BRTAP	68	360	7
NMHLD	69	48	3	4
NMHLD	69	48	5	4
NMTAP	69	96	4
NMTAP	69	124	2
NMTAP	69	144	3
NMHLD	69	172	1	68
NMSTR	69	240	7
NMSCL	69	240	7	96	48	4
NMTAP	69	268	1
NMTAP	69	288	7
NMTAP	69	316	0
NMTAP	69	336	7
NMHLD	70	48	2	4
NMHLD	70	48	3	4
NMTAP	70	96	1
NMTAP	70	124	3
NMTAP	70	144	2
NMHLD	70	172	4	68
NMTAP	70	240	0
NMTAP	70	256	1
NMTAP	70	272	2
NMTAP	70	288	3
NMTAP	70	288	5
NMTAP	70	336	7
NMTAP	71	0	0
NMTAP	71	0	6
NMHLD	71	48	2	4
NMHLD	71	48	4	4
NMTAP	71	96	3
NMTAP	71	124	5
NMTAP	71	144	4
NMHLD	71	172	6	68
NMSTR	71	240	0
NMSCR	71	240	0	96	48	3
NMTAP	71	268	6
NMTAP	71	288	0
NMTAP	71	316	7
NMTAP	71	336	0
NMHLD	72	48	4	4
NMHLD	72	48	5	4
NMTAP	72	96	7
NMTAP	72	124	3
NMTAP	72	144	5
NMTAP	72	172	2
NMHLD	72	192	3	48
NMTAP	72	240	1
NMTAP	72	288	6
NMTAP	72	288	7
NMTAP	72	316	6
NMTAP	72	316	7
BRTAP	72	360	0
BRTAP	72	360	5
NMHLD	73	48	2	4
NMHLD	73	48	4	4
NMTAP	73	96	3
NMTAP	73	124	5
NMTAP	73	144	4
NMHLD	73	172	6	68
NMSTR	73	240	7
NMSCR	73	240	7	96	48	2
NMTAP	73	268	6
NMTAP	73	288	7
NMTAP	73	316	5
NMTAP	73	336	7
NMHLD	74	48	3	4
NMHLD	74	48	4	4
NMTAP	74	96	7
NMTAP	74	124	4
NMTAP	74	144	5
NMHLD	74	172	2	68
EXTAP	74	240	0
NMTAP	74	256	7
NMTAP	74	272	6
EXTAP	74	288	2
NMTAP	74	304	1
NMTAP	74	320	0
NMTAP	74	336	6
NMTAP	74	352	5
NMTAP	74	368	4
BRTAP	75	0	0
NMHLD	75	48	1	4
NMHLD	75	48	3	4
NMTAP	75	96	4
NMTAP	75	124	2
NMTAP	75	144	3
NMHLD	75	172	1	68
NMSTR	75	240	0
NMSCL	75	240	0	96	48	5
NMTAP	75	268	1
NMTAP	75	288	0
NMTAP	75	316	2
NMTAP	75	336	0
NMHLD	76	48	2	4
NMHLD	76	48	4	4
NMTAP	76	96	5
NMTAP	76	124	3
NMTAP	76	144	6
NMTAP	76	172	4
NMHLD	76	192	7	48
NMTAP	76	240	0
NMTAP	76	288	2
NMTAP	76	288	3
NMTAP	76	316	2
NMTAP	76	316	3
BRTAP	76	360	0
BRTAP	76	360	6
NMHLD	77	48	3	4
NMHLD	77	48	5	4
NMTAP	77	96	4
NMTAP	77	124	2
NMTAP	77	144	3
NMHLD	77	172	1	68
NMSTR	77	240	0
NMSCL	77	240	0	96	48	5
NMTAP	77	268	1
NMTAP	77	288	0
NMTAP	77	316	2
NMTAP	77	336	0
NMHLD	78	48	3	4
NMHLD	78	48	4	4
NMTAP	78	96	2
NMTAP	78	124	4
NMTAP	78	144	3
NMHLD	78	172	5	68
EXTAP	78	240	7
NMTAP	78	256	0
NMTAP	78	272	1
EXTAP	78	288	5
NMTAP	78	304	6
NMTAP	78	320	7
NMTAP	78	336	1
NMTAP	78	352	2
NMTAP	78	368	3
BRTAP	79	0	7
NMHLD	79	48	4	4
NMHLD	79	48	6	4
NMTAP	79	96	3
NMTAP	79	124	5
NMTAP	79	144	4
NMHLD	79	172	6	68
NMSTR	79	240	7
NMSCR	79	240	7	96	48	2
NMTAP	79	268	6
NMTAP	79	288	7
NMTAP	79	316	5
NMTAP	79	336	7
NMHLD	80	48	3	4
NMHLD	80	48	5	4
NMTAP	80	96	2
NMTAP	80	124	4
NMTAP	80	144	1
NMTAP	80	172	3
NMHLD	80	192	0	48
NMTAP	80	240	7
NMTAP	80	288	4
NMTAP	80	288	5
NMTAP	80	316	4
NMTAP	80	316	5
BRTAP	80	360	1
BRTAP	80	360	7
NMTAP	81	48	2
NMTAP	81	48	4
NMTAP	81	96	3
NMTAP	81	124	5
NMTAP	81	144	4
NMHLD	81	172	6	116
EXTAP	81	288	7
EXTAP	81	304	0
EXTAP	81	320	1
EXTAP	81	336	2
EXTAP	81	352	3
EXTAP	81	368	4
EXTAP	82	0	6
EXTAP	82	16	7
EXTAP	82	32	0
EXTAP	82	48	1
EXTAP	82	64	2
EXTAP	82	80	3
EXTAP	82	96	5
EXTAP	82	112	6
EXTAP	82	128	7
EXTAP	82	144	0
EXTAP	82	160	1
EXTAP	82	176	2
EXSTR	82	192	3
NMSI_	82	192	3	96	48	0
EXSTR	82	192	4
NMSI_	82	192	4	96	48	7
NMTAP	83	0	1
NMHLD	83	28	1	48
NMTAP	83	76	3
NMTAP	83	124	2
NMTAP	83	124	4
NMTAP	83	172	3
NMTAP	83	192	6
NMHLD	83	220	6	48
NMTAP	83	268	4
NMTAP	83	316	3
NMTAP	83	316	5
NMTAP	83	364	2
NMTAP	83	364	4
NMTAP	84	48	0
NMTAP	84	48	1
NMTAP	84	96	2
NMTAP	84	96	3
NMSTR	84	144	4
NMSSL	84	144	4	96	96	0
NMTAP	84	144	5
NMTAP	84	192	6
NMTAP	84	192	7
EXTAP	85	0	2
EXTAP	85	0	6
EXHLD	85	48	5	48
NMTAP	85	96	4
NMTAP	85	124	4
NMTAP	85	144	6
NMTAP	85	172	6
NMTAP	85	192	3
NMTAP	85	220	3
NMTAP	85	240	4
NMTAP	85	268	4
NMTAP	85	288	1
NMTAP	85	316	1
NMTAP	85	336	3
NMTAP	85	364	3
BRTAP	86	0	0
EXHLD	86	48	5	48
NMTAP	86	96	4
NMTAP	86	124	4
NMTAP	86	144	7
NMTAP	86	172	7
NMTAP	86	192	3
NMTAP	86	220	3
NMTAP	86	240	5
NMTAP	86	268	5
NMTAP	86	288	2
NMTAP	86	316	2
NMTAP	86	336	3
NMTAP	86	364	3
BRTAP	87	0	0
EXHLD	87	48	7	48
NMTAP	87	96	4
NMTAP	87	124	4
NMTAP	87	144	5
NMTAP	87	172	5
NMTAP	87	192	2
NMTAP	87	220	2
NMTAP	87	240	3
NMTAP	87	268	3
NMTAP	87	288	0
NMTAP	87	304	1
NMTAP	87	320	2
NMTAP	87	336	4
NMTAP	87	352	5
NMTAP	87	368	6
BRTAP	88	0	0
NMHLD	88	48	1	4
NMHLD	88	48	7	4
NMSTR	88	96	6
BRSI_	88	96	6	96	48	3
NMTAP	88	96	7
NMTAP	88	144	0
NMSTR	88	144	1
BRSI_	88	144	1	96	48	4
EXTAP	88	192	6
EXTAP	88	240	1
NMTAP	88	288	7
NMTAP	88	316	7
BRTAP	88	360	1
BRTAP	88	360	5
NMHLD	89	144	2	96
NMHLD	89	144	4	172
NMTAP	89	316	3
NMHLD	90	0	4	96
NMHLD	90	0	5	96
NMHLD	90	144	4	172
NMHLD	90	144	6	96
NMTAP	90	316	5
NMHLD	91	0	2	96
NMHLD	91	0	3	96
NMHLD	91	144	1	96
NMHLD	91	144	3	172
NMTAP	91	316	2
NMHLD	92	0	4	96
NMHLD	92	0	6	96
NMHLD	92	144	4	96
NMSTR	92	144	5
NMSUL	92	144	5	96	144	3
EXTAP	93	0	0
NMTAP	93	96	1
NMTAP	93	144	3
NMTAP	93	192	2
NMTAP	93	240	4
NMTAP	93	288	3
NMTAP	93	316	4
NMHLD	94	0	4	96
NMTAP	94	0	6
NMTAP	94	96	5
NMTAP	94	144	3
NMTAP	94	192	4
NMTAP	94	240	2
NMTAP	94	288	3
NMTAP	94	316	2
NMTAP	95	0	1
NMHLD	95	0	3	96
NMTAP	95	96	2
NMTAP	95	144	4
NMTAP	95	192	3
NMTAP	95	240	5
NMTAP	95	288	4
NMTAP	95	316	5
NMTAP	96	0	4
NMTAP	96	0	6
NMTAP	96	48	1
NMTAP	96	48	3
NMTAP	96	96	5
NMTAP	96	124	5
NMTAP	96	144	3
NMTAP	96	172	3
NMTAP	96	192	4
NMSTR	96	240	0
NMSI_	96	240	0	96	48	4
NMSTR	96	240	7
NMSI_	96	240	7	96	48	3
NMTAP	96	288	1
NMTAP	96	288	6
NMTAP	96	316	1
NMTAP	96	316	6
NMTTP	96	360	0	C	1	M1

T_REC_TAP	627
T_REC_BRK	22
T_REC_XTP	56
T_REC_BXX	0
T_REC_HLD	116
T_REC_XHO	15
T_REC_BHO	0
T_REC_BXH	0
T_REC_STR	40
T_REC_BST	0
T_REC_XST	3
T_REC_XBS	0
T_REC_TTP	17
T_REC_THO	1
T_REC_SLD	41
T_REC_BSL	2
T_REC_ALL	940
T_NUM_TAP	743
T_NUM_BRK	24
T_NUM_HLD	132
T_NUM_SLD	41
T_NUM_ALL	940
T_JUDGE_TAP	765
T_JUDGE_HLD	232
T_JUDGE_SLD	43
T_JUDGE_ALL	1040
TTM_EACHPAIRS	139
TTM_SCR_TAP	371500
TTM_SCR_BRK	62400
TTM_SCR_HLD	132000
TTM_SCR_SLD	61500
TTM_SCR_ALL	627400
TTM_SCR_S	606250
TTM_SCR_SS	625000
TTM_RAT_ACV	10038

