VERSION	0.00.00	1.04.00
FES_MODE	0
BPM_DEF	150.000	150.000	150.000	150.000
MET_DEF	4	4
RESOLUTION	384
CLK_DEF	384
COMPATIBLE_CODE	MA2

BPM	0	0	150.000
MET	0	0	4	4

NMHLD	1	0	2	288
NMHLD	1	144	4	144
NMHLD	2	0	5	288
NMHLD	2	144	3	144
NMHLD	3	0	3	288
NMHLD	3	144	4	144
EXSTR	4	0	3
NMSI_	4	0	3	96	120	0
EXSTR	4	0	4
NMSI_	4	0	4	96	120	7
EXTAP	4	288	1
EXTAP	4	288	6
NMTAP	5	0	2
NMTAP	5	48	2
NMTAP	5	96	4
NMTAP	5	192	3
NMTAP	5	192	5
NMTAP	5	288	3
NMTAP	5	288	5
NMTAP	6	0	6
NMTAP	6	48	6
NMTAP	6	96	4
NMTAP	6	192	3
NMTAP	6	192	5
NMTAP	6	288	2
NMTAP	6	288	4
NMTAP	7	0	1
NMTAP	7	48	1
NMTAP	7	96	3
NMTAP	7	192	2
NMTAP	7	192	4
NMTAP	7	288	2
NMTAP	7	288	4
NMTAP	8	0	5
NMTAP	8	48	5
NMTAP	8	96	4
EXTAP	8	192	2
EXTAP	8	192	3
NMTAP	8	288	1
NMTAP	8	288	4
EXTAP	9	0	5
NMTAP	9	48	5
NMTAP	9	96	4
NMTAP	9	192	6
NMTAP	9	192	7
NMTAP	9	288	6
NMTAP	9	288	7
NMTAP	10	0	1
NMTAP	10	48	1
NMTAP	10	96	0
NMTAP	10	192	1
NMTAP	10	192	7
NMTAP	10	288	0
NMTAP	10	288	6
NMTAP	11	0	5
NMTAP	11	48	5
NMTAP	11	96	4
NMTAP	11	192	3
NMTAP	11	192	4
NMTAP	11	288	1
NMTAP	11	288	3
NMTAP	12	0	2
NMTAP	12	48	2
NMTAP	12	96	4
NMTAP	12	144	4
NMTAP	12	192	3
BRTAP	12	288	1
BRTAP	12	288	6
NMSTR	13	0	2
NMSCR	13	0	2	96	96	5
NMHLD	13	0	7	192
NMSTR	14	0	6
NMSUL	14	0	6	96	96	2
NMHLD	14	0	7	192
NMHLD	15	0	0	192
NMSTR	15	0	1
NMSUR	15	0	1	96	96	5
NMHLD	16	0	4	96
NMHLD	16	0	6	96
NMTAP	16	192	3
NMTAP	16	240	3
NMTAP	16	288	4
NMTAP	16	336	4
NMSTR	17	0	2
NMSCL	17	0	2	96	96	7
NMTAP	17	192	6
NMTAP	17	240	6
NMTAP	17	288	6
NMSTR	18	0	5
NMSCR	18	0	5	96	96	0
NMTAP	18	192	2
NMTAP	18	240	2
NMTAP	18	288	2
NMSTR	19	0	1
NMSI_	19	0	1	96	96	5
NMTAP	19	192	7
NMTAP	19	240	7
NMTAP	19	288	7
NMTHO	20	0	0	192	C	0	M1
EXTAP	20	288	0
EXTAP	20	288	7
NMSTR	21	0	6
NMSI_	21	0	6	96	48	4
NMSTR	21	96	7
NMSI_	21	96	7	96	48	3
NMTAP	21	192	6
NMTAP	21	288	2
NMTAP	21	288	4
NMTAP	22	0	1
NMTAP	22	48	1
NMTAP	22	96	0
NMTAP	22	96	1
NMTAP	22	192	6
NMTAP	22	192	7
NMTAP	22	288	0
NMTAP	22	288	5
NMSTR	23	0	1
NMSI_	23	0	1	96	48	3
NMSTR	23	96	0
NMSI_	23	96	0	96	48	4
NMTAP	23	192	1
NMTAP	23	288	3
NMTAP	23	288	5
NMTAP	24	0	6
NMTAP	24	48	6
NMTAP	24	96	6
NMTAP	24	96	7
NMTAP	24	192	3
NMTAP	24	192	4
BRTAP	24	288	1
BRTAP	24	288	5
BRSTR	25	0	2
NMSI_	25	0	2	96	48	0
NMSTR	25	96	3
NMSI_	25	96	3	96	48	7
NMTAP	25	192	2
NMTAP	25	288	0
NMTAP	25	288	6
NMTAP	26	0	5
NMTAP	26	48	5
NMTAP	26	96	4
NMTAP	26	96	5
NMTAP	26	192	2
NMTAP	26	192	3
NMTAP	26	288	1
NMTAP	26	288	4
BRSTR	27	0	5
NMSI_	27	0	5	96	48	7
NMSTR	27	96	4
NMSI_	27	96	4	96	48	0
NMTAP	27	192	5
NMTAP	27	288	1
NMTAP	27	288	7
NMTAP	28	0	0
NMTAP	28	48	0
NMTAP	28	96	6
NMTAP	28	144	6
BXTAP	28	192	0
BXTAP	28	192	5
NMTAP	28	288	3
NMTAP	28	288	4
EXTAP	29	0	2
EXHLD	29	0	6	1152
NMTTP	30	0	4	B	0	M1
NMTTP	30	0	5	B	0	M1
NMTTP	31	0	2	B	0	M1
NMTTP	31	0	3	B	0	M1
NMTHO	32	0	0	192	C	0	M1
NMHLD	33	0	1	1152
NMTAP	33	0	6
NMTTP	34	0	4	B	0	M1
NMTTP	34	0	5	B	0	M1
NMTTP	34	0	5	E	0	M1
NMTTP	35	0	2	B	0	M1
NMTTP	35	0	3	B	0	M1
NMTTP	35	0	3	E	0	M1
BRTAP	36	0	0
NMTAP	36	96	1
NMTAP	36	96	7
NMTAP	36	192	2
NMTAP	36	192	6
NMTAP	36	288	3
NMTAP	36	288	5
NMTAP	37	0	4
NMTAP	37	48	4
NMTAP	37	96	2
NMSTR	37	192	1
NMSI_	37	192	1	96	48	3
NMHLD	37	192	3	96
NMTAP	38	0	5
NMTAP	38	48	5
NMTAP	38	96	4
NMHLD	38	192	3	96
NMSTR	38	192	6
NMSI_	38	192	6	96	48	4
NMTAP	39	0	2
NMTAP	39	48	2
NMTAP	39	96	1
NMTAP	39	96	3
NMTAP	39	192	5
NMTAP	39	240	5
NMTAP	39	288	4
NMTAP	39	288	6
NMTAP	40	0	0
NMTAP	40	0	7
NMTAP	40	96	1
NMTAP	40	96	3
NMTAP	40	192	3
NMTAP	40	192	4
NMTAP	40	288	4
NMTAP	40	288	5
NMHLD	41	0	3	48
NMHLD	41	0	6	48
NMHLD	41	96	4	48
NMHLD	41	96	5	48
NMHLD	41	192	1	48
NMHLD	41	192	2	48
NMHLD	41	288	6	48
NMHLD	41	288	7	48
NMHLD	42	0	0	48
NMHLD	42	0	5	48
NMHLD	42	96	1	48
NMHLD	42	96	3	48
NMHLD	42	192	4	48
NMHLD	42	192	5	48
NMHLD	42	288	3	48
NMHLD	42	288	6	48
NMHLD	43	0	2	48
NMHLD	43	0	7	48
NMHLD	43	96	3	48
NMHLD	43	96	5	48
NMHLD	43	192	1	48
NMHLD	43	192	4	48
NMTAP	43	288	6
NMSTR	43	288	7
NMSXL	43	288	7	96	240	3
NMTAP	45	0	4
NMTAP	45	48	4
NMTAP	45	96	2
NMTAP	45	144	2
NMTAP	45	192	5
NMTAP	45	240	5
NMTAP	45	288	3
NMTAP	45	336	3
NMTAP	46	0	6
NMTAP	46	48	6
NMTAP	46	96	4
NMTAP	46	144	4
NMTAP	46	192	4
NMTAP	46	192	7
NMTAP	46	288	3
NMHLD	46	288	6	576
NMTAP	47	0	4
NMTAP	47	48	4
NMTAP	47	96	4
NMTAP	47	192	7
NMTAP	47	240	7
NMTAP	47	288	7
NMTAP	48	0	5
NMTAP	48	48	5
NMTAP	48	96	5
NMTAP	48	192	4
NMTAP	48	192	6
NMTAP	48	288	4
NMTAP	48	288	5
NMTAP	49	0	3
NMTAP	49	48	3
NMTAP	49	96	4
NMTAP	49	144	4
NMTAP	49	192	2
NMTAP	49	240	2
NMTAP	49	288	3
NMTAP	49	336	3
NMTAP	50	0	1
NMTAP	50	48	1
NMTAP	50	96	3
NMTAP	50	144	3
NMTAP	50	192	0
NMTAP	50	192	3
NMHLD	50	288	1	480
NMTAP	50	288	4
NMTAP	51	0	2
NMTAP	51	48	2
NMTAP	51	96	2
NMTAP	51	192	0
NMTAP	51	240	0
NMTAP	51	288	0
NMTAP	52	0	3
NMTAP	52	48	3
NMTAP	52	96	2
NMTAP	52	96	3
EXTAP	52	192	0
EXTAP	52	192	1
NMTAP	52	288	2
NMTAP	52	288	6
NMHLD	53	0	5	96
NMTAP	53	96	4
NMHLD	53	192	3	96
NMTAP	53	288	4
NMHLD	54	0	5	96
NMTAP	54	96	4
NMTAP	54	192	3
NMTAP	54	240	3
NMTAP	54	288	2
NMTAP	54	288	4
NMHLD	55	0	6	96
NMTAP	55	96	4
NMHLD	55	192	2	96
NMTAP	55	288	4
NMHLD	56	0	6	96
NMTAP	56	96	4
NMTAP	56	192	3
NMTAP	56	240	3
NMTAP	56	288	2
NMTAP	56	288	4
NMHLD	57	0	5	96
NMHLD	57	96	6	96
NMHLD	57	192	7	96
NMHLD	57	288	0	96
NMHLD	58	0	1	96
NMHLD	58	96	2	96
NMTAP	58	192	3
NMTAP	58	288	3
NMTAP	58	288	4
NMTAP	59	0	2
NMTAP	59	48	2
NMTAP	59	96	3
NMTAP	59	144	1
NMTAP	59	192	5
NMTAP	59	240	5
NMTAP	59	288	4
NMHLD	59	336	6	240
NMSTR	60	192	0
NMSI_	60	192	0	96	48	4
EXTAP	61	0	3
EXHLD	61	0	5	144
NMHLD	62	0	2	144
NMHLD	62	0	4	240
NMHLD	63	0	3	240
NMHLD	63	0	4	144
EXTAP	64	0	4
EXTAP	64	48	4
EXTAP	64	96	3
NMTAP	64	192	4
NMTAP	64	192	5
NMTAP	64	288	3
NMTAP	64	288	6
BRSTR	65	0	1
NMSI_	65	0	1	96	48	4
NMSTR	65	96	0
NMSI_	65	96	0	96	48	5
NMSTR	65	192	1
NMSI_	65	192	1	96	48	4
NMTAP	65	288	0
NMTAP	66	0	5
NMTAP	66	48	5
NMTAP	66	96	6
NMTAP	66	96	7
NMTAP	66	192	0
NMTAP	66	192	1
NMTAP	66	288	2
NMTAP	66	288	7
NMSTR	67	0	6
NMSI_	67	0	6	96	48	3
NMSTR	67	96	7
NMSI_	67	96	7	96	48	2
NMSTR	67	192	6
NMSI_	67	192	6	96	48	3
NMTAP	67	288	7
NMTAP	68	0	2
NMTAP	68	48	2
NMTAP	68	96	0
NMTAP	68	96	1
NMTAP	68	192	6
NMTAP	68	192	7
NMTAP	68	288	0
NMTAP	68	288	5
BRSTR	69	0	2
NMSI_	69	0	2	96	48	7
NMSTR	69	96	3
NMSI_	69	96	3	96	48	6
NMSTR	69	192	2
NMSI_	69	192	2	96	48	7
EXTAP	69	288	4
NMTAP	70	0	6
NMTAP	70	48	6
NMTAP	70	96	4
NMTAP	70	96	5
NMTAP	70	192	2
NMTAP	70	192	3
NMTAP	70	288	0
NMTAP	70	288	7
NMSTR	71	0	5
NMSI_	71	0	5	96	48	2
NMSTR	71	96	1
NMSI_	71	96	1	96	48	6
NMSTR	71	192	5
NMSI_	71	192	5	96	48	2
EXSTR	71	288	1
NMSCL	71	288	1	96	192	3
EXTAP	72	0	3
BRTAP	72	192	7
NMTAP	72	288	1
NMTAP	72	288	5
NMTAP	73	0	2
NMTAP	73	48	2
NMTAP	73	96	4
NMTAP	73	144	4
NMTAP	73	192	6
NMTAP	73	240	6
NMTAP	73	288	0
NMTAP	73	336	0
NMSTR	74	0	1
NMSI_	74	0	1	96	48	4
NMSTR	74	0	7
NMSI_	74	0	7	96	48	3
NMSTR	74	192	0
NMSI_	74	192	0	96	48	4
NMSTR	74	192	6
NMSI_	74	192	6	96	48	3
NMTAP	75	0	5
NMTAP	75	48	5
NMTAP	75	96	3
NMTAP	75	144	3
NMTAP	75	192	1
NMTAP	75	240	1
BRTAP	75	288	7
NMSTR	76	0	2
NMSI_	76	0	2	96	48	7
NMSTR	76	0	6
NMSI_	76	0	6	96	48	3
NMTAP	76	192	0
NMTAP	76	192	4
BRTAP	76	288	2
BRTAP	76	288	6
NMTAP	77	0	5
NMTAP	77	48	5
NMTAP	77	96	3
NMTAP	77	144	3
NMTAP	77	192	1
NMTAP	77	240	1
NMTAP	77	288	7
NMTAP	77	336	7
NMSTR	78	0	0
NMSI_	78	0	0	96	48	4
NMSTR	78	0	6
NMSI_	78	0	6	96	48	3
NMSTR	78	192	1
NMSI_	78	192	1	96	48	4
NMSTR	78	192	7
NMSI_	78	192	7	96	48	3
NMTAP	79	0	2
NMTAP	79	48	2
NMTAP	79	96	4
NMTAP	79	144	4
NMTAP	79	192	6
NMTAP	79	240	6
BRTAP	79	288	0
NMSTR	80	0	1
NMSXL	80	0	1	96	120	0
NMSTR	80	0	5
NMSXL	80	0	5	96	120	4
BXTAP	80	288	1
BXTAP	80	288	5
NMTAP	81	0	6
NMSTR	81	0	7
BRSI_	81	0	7	96	48	2
NMSTR	81	96	5
BRSI_	81	96	5	96	48	0
NMSTR	81	192	1
BRSI_	81	192	1	96	48	4
NMSTR	81	288	6
BRSI_	81	288	6	96	48	3
NMSTR	82	0	2
BRSI_	82	0	2	96	48	7
NMSTR	82	96	4
NMSUL	82	96	4	96	144	3
EXTAP	82	192	0
NMTAP	83	0	1
NMTAP	83	48	1
NMTAP	83	96	3
NMTAP	83	144	2
NMTAP	83	192	5
NMTAP	83	240	5
NMTAP	83	288	4
NMTAP	83	336	6
NMTAP	84	0	0
NMTAP	84	0	7
NMTAP	84	48	1
NMTAP	84	96	2
NMTAP	84	96	3
NMTAP	84	144	1
NMTAP	84	192	0
NMTAP	84	192	7
NMTAP	84	240	6
BRTAP	84	288	1
BRTAP	84	288	5
NMTAP	85	0	2
NMSTR	85	0	3
BRSI_	85	0	3	96	48	6
NMSTR	85	96	1
BRSI_	85	96	1	96	48	4
NMSTR	85	192	5
BRSI_	85	192	5	96	48	0
NMSTR	85	288	2
BRSI_	85	288	2	96	48	7
NMSTR	86	0	6
BRSI_	86	0	6	96	48	3
NMSTR	86	96	0
NMSUL	86	96	0	96	144	7
EXTAP	86	192	4
NMTAP	87	0	6
NMTAP	87	48	6
NMTAP	87	96	4
NMTAP	87	144	5
NMTAP	87	192	2
NMTAP	87	240	2
NMTAP	87	288	3
NMTAP	87	336	1
NMSTR	88	0	6
NMSCL	88	0	6	96	48	3
NMSTR	88	96	0
NMSCR	88	96	0	96	48	3
EXTAP	88	192	4
BRTAP	88	288	1
BRTAP	88	288	6
NMHLD	89	0	5	240
NMTAP	89	96	4
NMHLD	89	144	4	96
NMTAP	89	288	4
NMTAP	89	288	5
NMHLD	90	0	6	96
NMTAP	90	96	7
NMTAP	90	144	6
NMTAP	90	144	7
NMTAP	90	240	5
NMTAP	90	288	4
NMTAP	90	288	5
NMHLD	91	0	2	240
NMTAP	91	96	4
NMHLD	91	144	4	96
NMTAP	91	288	2
NMTAP	91	288	4
NMTAP	92	0	5
NMTAP	92	48	5
NMSTR	92	96	4
NMSCL	92	96	4	96	96	1
NMSTR	92	96	5
NMSCR	92	96	5	96	96	0
EXTAP	93	0	0
EXHLD	93	0	1	240
NMTAP	93	96	3
NMHLD	93	144	3	96
NMTAP	93	288	1
NMTAP	93	288	3
NMHLD	94	0	6	240
NMTAP	94	96	4
NMHLD	94	144	4	96
NMTAP	94	288	4
NMTAP	94	288	6
NMTAP	95	0	3
NMHLD	95	0	5	240
NMTAP	95	96	2
NMHLD	95	144	2	96
NMTAP	95	288	2
NMSTR	95	288	5
NMSI_	95	288	5	96	48	0
NMSTR	96	0	1
NMSI_	96	0	1	96	48	4
NMTAP	96	96	7
EXTAP	96	192	6
EXTAP	96	192	7
EXTAP	96	240	6
EXTAP	96	240	7
EXTAP	96	288	0
EXTAP	96	288	5
BXTAP	96	368	3
BXTAP	96	368	7

T_REC_TAP	326
T_REC_BRK	14
T_REC_XTP	26
T_REC_BXX	6
T_REC_HLD	65
T_REC_XHO	3
T_REC_BHO	0
T_REC_BXH	0
T_REC_STR	56
T_REC_BST	4
T_REC_XST	3
T_REC_XBS	0
T_REC_TTP	10
T_REC_THO	2
T_REC_SLD	53
T_REC_BSL	10
T_REC_ALL	578
T_NUM_TAP	421
T_NUM_BRK	34
T_NUM_HLD	70
T_NUM_SLD	53
T_NUM_ALL	578
T_JUDGE_TAP	445
T_JUDGE_HLD	232
T_JUDGE_SLD	63
T_JUDGE_ALL	740
TTM_EACHPAIRS	119
TTM_SCR_TAP	210500
TTM_SCR_BRK	88400
TTM_SCR_HLD	70000
TTM_SCR_SLD	79500
TTM_SCR_ALL	448400
TTM_SCR_S	431650
TTM_SCR_SS	445000
TTM_RAT_ACV	10076

