VERSION	0.00.00	1.04.00
FES_MODE	0
BPM_DEF	180.000	180.000	180.000	180.000
MET_DEF	4	4
RESOLUTION	384
CLK_DEF	384
COMPATIBLE_CODE	MA2

BPM	0	0	180.000
MET	0	0	4	4

NMTTP	1	0	4	E	0	M1
NMHLD	1	96	3	96
NMSTR	1	96	4
NMSI_	1	96	4	96	48	7
BRTAP	1	288	0
NMHLD	2	0	1	96
NMHLD	2	0	5	96
NMTAP	2	192	0
NMTAP	2	192	6
NMTAP	2	240	1
NMTAP	2	240	5
NMHLD	2	288	2	96
NMTAP	2	288	4
NMTAP	3	0	3
NMSTR	3	96	4
NMSLL	3	96	4	96	96	0
NMTAP	3	96	5
NMTAP	3	192	6
NMTAP	3	240	5
NMTAP	3	288	4
NMTAP	4	0	1
NMTAP	4	0	3
NMTAP	4	96	2
NMSTR	4	96	3
NMSI_	4	96	3	96	48	7
NMTAP	4	192	2
NMTAP	4	240	1
NMTAP	4	288	0
NMSTR	5	0	0
NMSCR	5	0	0	96	48	3
NMSTR	5	0	7
NMSCL	5	0	7	96	48	4
NMTTP	5	192	0	B	0	M1
NMTTP	5	192	0	E	1	M1
NMTTP	5	192	1	E	0	M1
NMTTP	5	192	1	D	0	M1
NMTTP	5	192	7	B	0	M1
NMTTP	5	192	7	E	0	M1
NMTTP	5	192	7	D	0	M1
EXHLD	6	0	2	96
NMHLD	6	96	4	96
NMHLD	6	192	6	96
NMHLD	6	288	0	96
NMHLD	7	0	2	96
NMTAP	7	96	4
BXTAP	7	192	3
BXTAP	7	192	6
BXTAP	7	288	1
BXTAP	7	288	4
NMHLD	8	0	0	48
NMHLD	8	0	6	48
NMHLD	8	96	1	48
NMHLD	8	96	7	48
NMHLD	8	192	0	48
NMHLD	8	192	5	48
NMHLD	8	288	3	48
NMHLD	8	288	6	48
NMHLD	9	0	2	48
NMHLD	9	0	4	48
NMTAP	9	96	3
NMTAP	9	96	4
NMTAP	9	144	5
BXHLD	9	192	5	48
BXHLD	9	192	6	48
BXHLD	9	288	1	48
BXHLD	9	288	2	48
NMHLD	10	0	1	48
NMHLD	10	0	7	48
NMHLD	10	96	0	48
NMHLD	10	96	6	48
NMHLD	10	192	2	48
NMHLD	10	192	7	48
NMHLD	10	288	1	48
NMHLD	10	288	4	48
NMHLD	11	0	3	48
NMHLD	11	0	5	48
NMTAP	11	96	3
NMTAP	11	96	4
BXTAP	11	192	3
BXTAP	11	192	7
BXSTR	11	288	3
NMSXR	11	288	3	96	192	0
BXSTR	11	288	7
NMSXR	11	288	7	96	192	4
NMSTR	12	288	5
NMSCL	12	288	5	96	48	4
NMTTP	13	0	4	E	1	M1
CNSUL	13	48	4	0	96	3
CNSCL	13	144	3	0	48	2
EXTAP	13	288	0
EXTAP	13	288	7
NMTAP	14	0	2
NMTAP	14	0	5
BRTAP	14	96	0
NMTAP	14	192	1
NMTAP	14	216	3
NMTAP	14	240	1
NMTAP	14	264	3
NMHLD	14	288	1	96
NMSTR	15	0	4
NMSXL	15	0	4	96	192	7
NMTAP	15	96	3
NMTAP	15	192	2
NMTAP	15	288	1
NMTAP	15	336	1
NMTAP	16	0	7
NMTAP	16	48	7
NMSTR	16	96	0
NMSCR	16	96	0	96	48	3
NMTAP	16	144	0
NMTAP	16	192	4
NMTTP	16	288	5	B	0	M1
NMTTP	16	288	5	A	0	M1
NMTTP	16	288	6	B	0	M1
NMTTP	16	288	6	E	0	M1
NMTTP	16	288	6	A	0	M1
NMTTP	16	288	6	D	0	M1
EXSTR	17	0	0
NMSI_	17	0	0	96	48	4
EXTAP	17	48	0
NMSTR	17	96	6
NMSI_	17	96	6	96	48	2
NMTAP	17	144	6
NMSTR	17	192	1
NMSI_	17	192	1	96	48	5
NMTAP	17	240	1
BRTAP	17	288	7
NMHLD	18	0	3	48
NMHLD	18	0	6	48
NMHLD	18	96	1	48
NMHLD	18	96	4	48
NMHLD	18	192	3	48
NMHLD	18	192	5	48
NMTAP	18	288	2
NMTAP	18	288	4
NMTAP	19	0	3
NMSTR	19	0	5
NMSI_	19	0	5	96	48	7
NMTAP	19	96	4
NMSTR	19	192	2
NMSI_	19	192	2	96	48	0
NMTAP	19	192	4
NMTAP	19	288	3
NMTAP	20	0	1
NMTAP	20	0	3
NMTAP	20	96	2
NMTAP	20	96	4
NMTAP	20	144	1
NMTAP	20	144	5
NMSTR	20	192	1
NMSI_	20	192	1	96	48	5
NMTAP	20	192	5
NMTAP	20	288	6
BRTAP	20	336	7
NMSTR	21	0	0
NMSI_	21	0	0	96	48	4
BRSTR	21	0	7
NMSCL	21	0	7	96	48	4
BXTAP	21	192	3
BXTAP	21	192	5
BXHLD	21	240	3	48
BXHLD	21	240	5	48
NMTAP	22	0	6
NMTAP	22	0	7
NMTAP	22	96	3
NMSTR	22	96	4
NMSI_	22	96	4	96	48	7
NMTAP	22	144	3
NMTAP	22	144	4
NMHLD	22	192	2	96
BXTAP	22	288	7
NMSTR	23	0	4
NMSI_	23	0	4	96	48	0
NMSI_	23	0	4	96	72	0
NMTAP	23	0	5
CNSCR	23	144	0	0	48	3
CNSCL	23	168	0	0	24	5
NMTAP	23	288	2
NMTAP	23	288	6
NMTAP	23	336	1
EXTAP	24	0	1
EXTAP	24	0	5
NMTAP	24	96	7
NMTAP	24	120	3
NMTAP	24	144	7
NMTAP	24	168	3
NMHLD	24	192	7	96
EXSTR	24	288	5
NMSUL	24	288	5	96	96	1
NMTAP	25	0	6
NMTAP	25	96	4
NMTAP	25	192	2
NMSTR	25	192	3
BRSI_	25	192	3	96	48	7
BRTAP	25	288	1
BRTAP	25	288	3
NMHLD	26	0	0	96
NMHLD	26	0	1	96
NMSTR	26	192	2
NMSI_	26	192	2	96	48	7
NMSTR	26	192	3
NMSI_	26	192	3	96	48	6
NMHLD	27	0	1	192
NMSTR	27	0	5
NMSCL	27	0	5	96	48	2
NMTAP	27	96	5
NMTAP	27	192	0
NMSTR	27	288	0
NMSI_	27	288	0	96	48	4
NMSTR	27	288	7
NMSI_	27	288	7	96	48	3
BRTAP	28	0	0
BRTAP	28	0	7
NMTTP	28	96	5	A	0	M1
NMTTP	28	96	6	E	0	M1
NMTTP	28	96	6	D	0	M1
NMTTP	28	192	3	B	0	M1
NMTTP	28	192	4	B	0	M1
NMTTP	28	192	4	E	0	M1
NMTTP	28	288	2	E	0	M1
NMTTP	28	288	2	A	0	M1
NMTTP	28	288	2	D	0	M1
NMHLD	29	0	1	288
BRTAP	29	0	7
BRTAP	29	48	7
BRSTR	29	96	7
BRSCL	29	96	7	96	96	2
NMTAP	30	48	1
NMTAP	30	48	3
NMTAP	30	96	1
NMTAP	30	96	3
NMTAP	30	192	4
NMTAP	30	192	6
NMTAP	30	240	4
NMTAP	30	240	6
NMTAP	30	336	0
NMTAP	30	336	5
NMHLD	31	0	0	48
NMHLD	31	0	5	48
NMHLD	31	96	0	48
NMHLD	31	96	5	48
NMHLD	31	192	0	48
NMHLD	31	192	5	48
NMTAP	31	288	4
NMTAP	31	288	7
NMSTR	32	0	1
NMSCR	32	0	1	96	48	4
NMTAP	32	96	4
BRTAP	32	192	2
BRTAP	32	192	6
BRTAP	32	288	0
NMHLD	33	0	1	48
NMHLD	33	0	7	48
NMHLD	33	96	2	48
NMHLD	33	96	6	48
NMHLD	33	192	1	48
NMHLD	33	192	7	48
NMTAP	33	288	2
NMTAP	33	288	6
NMSTR	34	0	0
NMSCL	34	0	0	96	96	5
NMSUL	34	0	0	96	96	4
NMTAP	34	48	0
BRTAP	34	288	2
BRTAP	34	288	6
NMHLD	35	0	1	48
NMHLD	35	0	5	48
NMHLD	35	96	2	48
NMHLD	35	96	6	48
NMHLD	35	192	1	48
NMHLD	35	192	5	48
NMHLD	35	288	2	48
NMHLD	35	288	6	48
NMSTR	36	0	3
NMSXR	36	0	3	96	96	2
NMSTR	36	0	5
NMSXL	36	0	5	96	96	6
NMTAP	36	48	3
NMTAP	36	48	5
BRTAP	36	288	2
BRTAP	36	288	6
NMTAP	37	0	3
NMHLD	37	0	5	96
NMSTR	37	96	7
NMSUL	37	96	7	96	96	2
EXTAP	37	192	1
EXTAP	37	288	0
NMTAP	38	0	1
NMTAP	38	0	3
NMSTR	38	96	3
BRSCL	38	96	3	96	48	0
NMSTR	38	96	4
BRSCR	38	96	4	96	48	7
BXTAP	38	192	3
BXTAP	38	192	4
BXTAP	38	288	0
BXTAP	38	288	7
NMTAP	39	0	2
NMTAP	39	0	3
NMTAP	39	96	2
NMTAP	39	96	3
NMHLD	39	192	1	96
NMHLD	39	192	7	96
NMTAP	40	0	4
NMTAP	40	0	5
NMSTR	40	96	4
NMSCL	40	96	4	96	96	1
NMSTR	40	96	5
NMSCR	40	96	5	96	96	0
NMTAP	41	0	2
NMTAP	41	0	3
NMTAP	41	96	4
NMTAP	41	96	5
NMTAP	41	192	3
NMTAP	41	192	4
NMSTR	41	240	3
NMSCL	41	240	3	96	48	1
NMSTR	41	240	4
NMSCR	41	240	4	96	48	6
EXTAP	42	48	6
EXSTR	42	96	6
NMSCR	42	96	6	96	96	1
NMTAP	42	192	3
CNSV_	42	288	1	0	48	3
NMTAP	42	288	4
EXSTR	43	0	4
NMSI_	43	0	4	96	48	0
NMTAP	43	96	5
NMTAP	43	192	5
NMSTR	43	288	0
NMSI_	43	288	0	96	48	4
NMSTR	43	288	6
NMSI_	43	288	6	96	48	2
NMSTR	44	96	0
NMSCL	44	96	0	96	48	5
NMSTR	44	96	1
NMSCR	44	96	1	96	48	4
NMTAP	44	288	3
NMTAP	44	288	6
NMTAP	44	336	3
NMHLD	44	336	6	96
NMTAP	45	48	7
NMHLD	45	144	1	96
NMTAP	45	144	4
NMTAP	45	240	0
NMTTP	45	336	2	B	0	M1
NMTTP	45	336	3	B	0	M1
NMTTP	45	336	4	B	0	M1
NMTTP	45	336	5	B	0	M1
NMTTP	46	48	1	E	0	M1
NMTTP	46	48	1	A	0	M1
NMTTP	46	48	1	D	0	M1
NMTTP	46	48	6	A	0	M1
NMTTP	46	48	7	E	0	M1
NMTTP	46	48	7	D	0	M1
BRTAP	46	144	0
BRTAP	46	144	7
BRTAP	46	192	0
BRTAP	46	192	7
EXSTR	46	288	6
NMSCL	46	288	6	96	48	3
EXSTR	46	288	7
NMSCR	46	288	7	96	48	2
NMTAP	47	0	6
NMTAP	47	0	7
EXSTR	47	96	0
NMSCL	47	96	0	96	48	5
EXSTR	47	96	1
NMSCR	47	96	1	96	48	4
NMTAP	47	192	0
NMTAP	47	192	1
NMSTR	47	288	1
NMSXL	47	288	1	96	144	4
NMTAP	47	288	7
NMTAP	48	0	7
NMTAP	48	96	5
BXHLD	48	192	3	96
BXHLD	48	192	7	96
NMSTR	49	0	4
NMSI_	49	0	4	96	48	0
NMTAP	49	0	6
NMTAP	49	96	4
NMTAP	49	96	5
NMTAP	49	192	1
NMSTR	49	192	3
NMSI_	49	192	3	96	48	7
NMTAP	49	288	2
NMTAP	49	288	3
NMHLD	50	0	3	48
NMHLD	50	0	5	48
BRTAP	50	96	1
BRTAP	50	96	7
NMHLD	50	192	3	48
NMHLD	50	192	5	48
BRTAP	50	288	1
BRTAP	50	288	7
NMTAP	51	0	2
NMSTR	51	0	4
NMSCR	51	0	4	96	48	6
NMTAP	51	96	3
NMHLD	51	192	2	96
EXTAP	51	192	6
NMSTR	51	288	3
NMSV_	51	288	3	96	48	1
NMTAP	52	0	2
CNSI_	52	48	1	0	48	7
NMTAP	52	96	2
CNSI_	52	96	7	0	48	5
NMTAP	52	192	3
NMTAP	52	288	4
NMTAP	52	288	5
NMSTR	52	336	4
NMSUR	52	336	4	96	144	3
NMSTR	52	336	5
NMSCR	52	336	5	96	144	2
EXHLD	53	288	0	48
EXHLD	53	288	1	48
EXHLD	54	0	6	48
EXHLD	54	0	7	48
NMTAP	54	96	3
NMTAP	54	96	4
NMTAP	54	192	2
NMTAP	54	192	5
NMSTR	54	240	3
NMSI_	54	240	3	96	48	1
NMSTR	54	240	4
NMSI_	54	240	4	96	48	7
EXTAP	54	336	3
EXTAP	54	336	4
NMTAP	55	48	0
NMTAP	55	96	0
NMTAP	55	192	1
NMHLD	55	192	4	96
NMSTR	55	288	7
NMSI_	55	288	7	96	48	1
NMTAP	56	0	5
NMTAP	56	96	6
NMSTR	56	96	7
NMSCR	56	96	7	96	48	2
NMTAP	56	192	5
NMTAP	56	240	5
NMSTR	56	336	3
NMSCL	56	336	3	96	48	0
NMTAP	56	336	4
NMTAP	57	48	5
NMSTR	57	96	5
NMSLL	57	96	5	96	96	1
NMTAP	57	192	0
NMSTR	57	288	0
NMSI_	57	288	0	96	48	3
EXTAP	58	0	0
EXSTR	58	96	4
BRSV_	58	96	4	96	48	1
EXSTR	58	96	5
BRSCR	58	96	5	96	48	0
NMTTP	58	192	4	A	0	M1
NMTTP	58	192	5	E	1	M1
NMTTP	58	192	5	A	0	M1
EXTAP	58	336	1
NMSTR	59	0	2
NMSI_	59	0	2	96	48	0
NMSTR	59	0	3
NMSI_	59	0	3	96	48	7
NMTAP	59	96	2
NMTAP	59	96	3
NMSTR	59	192	2
NMSI_	59	192	2	96	48	0
NMSTR	59	192	3
NMSI_	59	192	3	96	48	7
NMTAP	59	288	2
NMTAP	59	288	3
NMSTR	60	0	4
NMSI_	60	0	4	96	48	0
NMSTR	60	0	5
NMSI_	60	0	5	96	48	7
NMTAP	60	96	4
NMTAP	60	96	5
NMSTR	60	192	4
NMSI_	60	192	4	96	48	0
NMSTR	60	192	5
NMSI_	60	192	5	96	48	7
NMTAP	60	288	4
NMTAP	60	288	5
NMHLD	61	0	3	48
NMHLD	61	0	5	48
NMHLD	61	96	1	48
NMHLD	61	96	7	48
NMHLD	61	192	3	48
NMHLD	61	192	5	48
NMHLD	61	288	1	48
NMHLD	61	288	7	48
NMTAP	62	0	2
NMTAP	62	0	6
NMTAP	62	96	4
NMHLD	62	96	5	96
NMTTP	62	192	1	A	0	M1
NMTTP	62	192	2	E	1	M1
NMTTP	62	192	2	A	0	M1
NMTTP	62	192	2	D	0	M1
BRTAP	62	288	7
NMHLD	63	0	0	96
NMHLD	63	0	7	96
EXTAP	63	144	2
EXTAP	63	144	6
EXSTR	63	240	1
NMSXL	63	240	1	96	144	4
EXTAP	63	240	5
NMTAP	63	336	4
NMTAP	64	48	6
NMHLD	64	144	7	96
NMTAP	64	240	4
NMSTR	64	288	4
NMSCL	64	288	4	96	192	5
NMTTP	65	0	0	C	1	M1
EXTAP	65	288	0
EXTAP	65	288	7
EXTAP	65	336	0
EXTAP	65	336	7
NMTAP	66	48	3
NMTAP	66	48	5
BRTAP	66	144	2
BRTAP	66	144	6
BRTAP	66	192	2
BRTAP	66	192	6
BRTAP	66	288	7
NMSTR	67	0	0
NMSXL	67	0	0	96	96	0
NMSTR	67	192	7
NMSXR	67	192	7	96	96	7
NMTTP	68	0	1	E	0	M1
NMTTP	68	0	1	A	0	M1
NMTTP	68	0	1	D	0	M1
NMTTP	68	96	6	A	0	M1
NMTTP	68	96	7	E	0	M1
NMTTP	68	96	7	D	0	M1
NMTTP	68	192	2	B	0	M1
NMTTP	68	192	3	B	0	M1
NMTTP	68	192	4	B	0	M1
NMTTP	68	192	5	B	0	M1
EXTAP	68	288	0
EXTAP	68	288	7
NMHLD	69	0	1	96
NMHLD	69	96	3	96
NMHLD	69	192	4	96
NMSTR	69	288	6
NMSXR	69	288	6	96	144	3
NMTAP	70	0	3
NMTAP	70	96	2
NMTAP	70	192	1
BRTAP	70	288	0
NMSTR	70	288	5
NMSCR	70	288	5	96	48	7
NMSTR	71	0	4
NMSI_	71	0	4	96	48	0
NMSTR	71	96	5
NMSI_	71	96	5	96	48	7
NMTAP	71	192	2
NMSTR	71	288	1
NMSCR	71	288	1	96	48	3
NMSTR	72	0	0
NMSI_	72	0	0	96	48	4
NMSTR	72	96	1
NMSI_	72	96	1	96	48	3
NMTAP	72	192	5
NMSTR	72	288	5
NMSCR	72	288	5	96	96	0
NMSTR	73	0	0
NMSCR	73	0	0	96	96	3
NMSTR	73	96	3
NMSCR	73	96	3	96	96	6
NMTAP	73	192	6
NMTAP	73	288	1
NMTAP	74	0	1
NMSTR	74	96	0
NMSF_	74	96	0	96	96	4
NMTTP	75	0	5	B	0	M1
NMTTP	75	0	5	E	0	M1
NMTTP	75	0	5	A	0	M1
NMTTP	75	0	6	E	0	M1
NMTTP	75	0	6	A	0	M1
NMTTP	75	0	6	D	0	M1
NMTTP	75	192	1	E	0	M1
NMTTP	75	192	1	A	0	M1
NMTTP	75	192	1	D	0	M1
NMTTP	75	192	2	E	0	M1
NMTTP	75	192	3	E	0	M1
EXSTR	75	288	6
NMSCL	75	288	6	96	48	3
EXSTR	75	288	7
NMSUL	75	288	7	96	48	2
NMTAP	76	0	6
NMTAP	76	0	7
EXSTR	76	96	0
NMSUR	76	96	0	96	48	5
EXSTR	76	96	1
NMSCR	76	96	1	96	48	4
NMTAP	76	192	0
NMTAP	76	192	1
NMSTR	76	288	1
BRSXL	76	288	1	96	144	4
NMTAP	76	288	7
NMTAP	77	0	7
NMTAP	77	96	5
BXHLD	77	192	3	96
BXHLD	77	192	7	96
NMSTR	78	0	4
NMSCL	78	0	4	96	48	0
NMTAP	78	0	6
NMTAP	78	96	5
NMTAP	78	192	1
NMSTR	78	192	3
NMSCR	78	192	3	96	48	7
NMTAP	78	288	2
NMHLD	79	0	3	48
NMHLD	79	0	5	48
BRTAP	79	96	1
BRTAP	79	96	7
NMHLD	79	192	3	48
NMHLD	79	192	5	48
BXSTR	79	288	1
NMSXL	79	288	1	96	144	4
BRSTR	79	288	7
NMSXR	79	288	7	96	144	4
EXTAP	80	192	2
EXTAP	80	192	6
NMSTR	80	288	4
NMSI_	80	288	4	96	48	1
NMTAP	80	288	5
NMTAP	81	0	6
NMSTR	81	96	3
NMSI_	81	96	3	96	48	0
NMTAP	81	96	5
NMTAP	81	192	6
NMTAP	81	288	4
NMTAP	81	288	5
NMSTR	81	336	4
NMSUR	81	336	4	96	96	3
NMSTR	81	336	5
NMSCR	81	336	5	96	96	2
EXTAP	82	240	1
EXTAP	82	288	1
NMHLD	82	336	3	96
NMTAP	83	48	5
NMHLD	83	96	5	96
EXTAP	83	192	3
EXTAP	83	240	3
BRTAP	83	336	1
BRSTR	84	0	2
NMSI_	84	0	2	96	48	0
BRSTR	84	0	3
NMSI_	84	0	3	96	48	7
NMTAP	84	96	2
NMTAP	84	96	3
NMSTR	84	192	3
NMSI_	84	192	3	96	48	0
NMSTR	84	192	4
NMSI_	84	192	4	96	48	7
NMTAP	84	288	3
NMTAP	84	288	4
NMSTR	85	0	4
NMSI_	85	0	4	96	48	0
NMSTR	85	0	5
NMSI_	85	0	5	96	48	7
NMTAP	85	96	4
NMTAP	85	96	5
NMSTR	85	192	3
NMSI_	85	192	3	96	48	0
NMSTR	85	192	4
NMSI_	85	192	4	96	48	7
NMTAP	85	288	3
NMTAP	85	288	4
NMHLD	86	0	3	48
NMHLD	86	0	5	48
NMHLD	86	96	1	48
NMHLD	86	96	7	48
NMHLD	86	192	3	48
NMHLD	86	192	5	48
NMHLD	86	288	1	48
NMHLD	86	288	7	48
NMHLD	87	0	2	96
NMTAP	87	0	6
NMTAP	87	96	4
NMTTP	87	192	6	A	0	M1
NMTTP	87	192	7	E	1	M1
NMTTP	87	192	7	A	0	M1
NMTTP	87	192	7	D	0	M1
BRTAP	87	288	0
NMHLD	88	0	0	96
NMHLD	88	0	7	96
EXTAP	88	144	2
EXTAP	88	144	6
EXSTR	88	240	1
NMSXL	88	240	1	96	144	4
EXTAP	88	240	5
NMTAP	88	336	4
NMTAP	89	48	6
NMHLD	89	144	7	96
NMTAP	89	240	4
NMSTR	89	288	4
NMSCL	89	288	4	96	96	0
NMSTR	90	0	0
NMSCL	90	0	0	96	96	4
NMTAP	90	96	4
NMTAP	90	192	0
EXTAP	90	288	2
EXTAP	90	288	6
NMSTR	90	336	2
NMSI_	90	336	2	96	48	4
NMSTR	90	336	6
NMSI_	90	336	6	96	48	4
NMTAP	91	48	2
NMTAP	91	48	6
BRTAP	91	144	2
BRTAP	91	144	7
BRTAP	91	192	2
BRTAP	91	192	7

T_REC_TAP	206
T_REC_BRK	40
T_REC_XTP	33
T_REC_BXX	13
T_REC_HLD	105
T_REC_XHO	5
T_REC_BHO	0
T_REC_BXH	10
T_REC_STR	90
T_REC_BST	5
T_REC_XST	16
T_REC_XBS	3
T_REC_TTP	67
T_REC_THO	0
T_REC_SLD	109
T_REC_BSL	7
T_REC_ALL	709
T_NUM_TAP	412
T_NUM_BRK	78
T_NUM_HLD	110
T_NUM_SLD	109
T_NUM_ALL	709
T_JUDGE_TAP	473
T_JUDGE_HLD	166
T_JUDGE_SLD	116
T_JUDGE_ALL	755
TTM_EACHPAIRS	189
TTM_SCR_TAP	206000
TTM_SCR_BRK	202800
TTM_SCR_HLD	110000
TTM_SCR_SLD	163500
TTM_SCR_ALL	682300
TTM_SCR_S	654300
TTM_SCR_SS	674500
TTM_RAT_ACV	10115

