VERSION	0.00.00	1.04.00
FES_MODE	0
BPM_DEF	180.000	180.000	180.000	180.000
MET_DEF	4	4
RESOLUTION	384
CLK_DEF	384
COMPATIBLE_CODE	MA2

BPM	0	0	180.000
MET	0	0	4	4

NMHLD	2	0	2	96
NMHLD	2	0	5	96
NMTAP	2	192	2
NMTAP	2	192	4
NMTAP	2	288	3
NMTAP	2	288	5
NMTAP	3	0	2
NMTAP	3	96	2
EXTAP	3	192	1
EXTAP	3	192	3
EXTAP	3	288	1
EXTAP	3	288	3
NMTAP	4	0	4
NMTAP	4	96	3
NMTAP	4	96	5
EXTAP	4	192	6
EXTAP	4	288	6
NMHLD	5	0	3	96
NMHLD	5	0	5	96
BXTAP	5	192	1
BXTAP	5	192	7
NMTAP	6	0	2
NMTAP	6	96	1
NMTAP	6	96	3
NMTAP	6	192	4
NMTAP	6	288	3
NMTAP	6	288	5
NMTAP	7	0	2
NMTAP	7	96	1
NMTAP	7	96	4
BXTAP	7	192	0
BXTAP	7	288	0
NMTAP	8	0	5
NMTAP	8	96	4
NMTAP	8	96	6
NMTAP	8	192	3
NMTAP	8	288	2
NMTAP	8	288	4
NMHLD	9	0	5	96
EXTAP	9	96	3
EXTAP	9	144	3
EXTAP	9	192	4
BXTAP	9	288	2
BXTAP	9	288	6
NMTAP	10	0	5
NMTAP	10	96	4
NMTAP	10	96	6
NMTAP	10	192	3
NMTAP	10	288	2
NMTAP	10	288	4
NMTAP	11	0	5
NMTAP	11	96	4
NMTAP	11	96	6
BXTAP	11	192	7
BXTAP	11	288	7
NMTAP	12	0	1
NMTAP	12	96	0
NMTAP	12	96	1
NMTAP	12	192	6
NMTAP	12	288	6
NMSTR	12	288	7
NMSF_	12	288	7	96	144	3
EXTAP	13	288	1
EXTAP	13	288	5
NMHLD	14	0	2	384
EXTAP	14	0	4
EXTAP	14	96	4
NMTAP	14	192	3
NMTAP	14	288	3
NMSTR	15	0	4
NMSI_	15	0	4	96	96	7
EXTAP	15	288	0
EXTAP	16	0	7
NMTAP	16	96	6
NMTAP	16	192	4
NMTAP	16	192	5
BRTAP	16	288	3
BRTAP	16	288	6
NMTAP	17	0	5
NMTAP	17	96	4
NMTAP	17	96	5
EXTAP	17	192	3
EXTAP	17	192	6
EXHLD	18	0	2	480
EXTAP	18	0	4
NMTAP	18	96	3
NMTAP	18	192	3
EXTAP	18	288	1
NMTAP	19	0	3
NMTAP	19	96	3
NMTAP	19	192	2
NMTAP	19	192	3
EXTAP	19	288	3
EXTAP	19	288	4
NMHLD	20	0	5	96
NMTAP	20	96	4
NMTAP	20	192	2
NMTAP	20	192	3
EXTAP	20	288	1
EXTAP	20	288	4
NMSTR	21	0	0
NMSI_	21	0	0	96	144	4
NMSCL	21	0	0	96	144	5
NMHLD	22	0	5	96
EXTAP	22	96	4
NMTAP	22	192	3
NMTAP	22	192	4
NMTAP	22	288	2
NMTAP	22	288	3
NMHLD	23	0	2	96
NMHLD	23	0	3	96
NMTAP	23	192	1
NMTAP	23	192	4
NMHLD	23	288	2	96
NMTAP	24	0	3
NMTAP	24	96	3
NMTAP	24	96	4
NMHLD	24	192	5	96
NMTAP	24	288	4
NMTAP	25	0	4
NMTAP	25	0	5
NMTAP	25	96	3
NMSTR	25	96	4
NMSI_	25	96	4	96	96	7
NMTAP	26	0	0
NMTAP	26	96	1
NMSTR	26	192	2
NMSI_	26	192	2	96	96	7
NMTAP	26	192	3
NMTAP	27	0	6
NMTAP	27	96	6
NMTAP	27	192	6
NMTAP	27	192	7
NMSTR	27	288	0
BRSI_	27	288	0	96	96	3
NMSTR	27	288	7
BRSI_	27	288	7	96	96	4
EXTAP	28	288	3
EXTAP	28	288	4
NMTAP	29	0	5
NMTAP	29	48	5
NMTAP	29	96	4
NMTAP	29	192	3
NMTAP	29	192	4
EXTAP	29	288	2
EXTAP	29	288	5
EXHLD	29	336	2	240
EXHLD	29	336	5	240
BXHLD	31	0	0	96
BXHLD	31	0	5	96
NMTAP	31	192	0
NMTAP	31	192	5
NMTAP	31	288	0
NMTAP	31	288	5
NMTAP	32	0	1
NMTAP	32	0	5
NMTAP	32	96	3
NMTAP	32	96	4
EXHLD	32	192	2	96
EXHLD	32	192	6	96
BXHLD	33	0	1	96
BXHLD	33	0	7	96
NMTAP	33	192	1
NMTAP	33	192	7
NMSTR	33	288	1
NMSLL	33	288	1	96	144	4
NMTAP	33	288	7
EXTAP	34	288	2
EXTAP	34	288	5
BXHLD	35	0	3	96
BXHLD	35	0	4	96
NMTAP	35	192	3
NMTAP	35	192	4
NMTAP	35	288	3
NMTAP	35	288	4
NMTAP	36	0	3
NMTAP	36	0	5
NMTAP	36	96	2
NMSTR	36	96	4
NMSI_	36	96	4	96	96	7
BXHLD	37	0	1	96
BXHLD	37	0	7	96
NMTAP	37	192	2
NMTAP	37	192	6
NMTAP	37	288	3
NMTAP	37	288	5
NMTAP	38	0	2
NMTAP	38	0	4
NMTAP	38	96	2
NMTAP	38	96	4
BRTAP	38	192	0
BRTAP	38	192	6
NMSTR	39	0	6
NMSCL	39	0	6	96	96	3
NMHLD	39	0	7	192
NMHLD	40	0	0	192
NMSTR	40	0	1
NMSCR	40	0	1	96	96	4
NMTTP	41	0	7	E	0	M1
NMTTP	41	96	0	C	0	M1
NMTTP	41	192	3	E	0	M1
NMTTP	41	288	2	E	0	M1
NMTTP	42	0	1	E	0	M1
NMTTP	42	96	0	C	0	M1
NMTTP	42	192	4	B	0	M1
NMTTP	42	192	5	B	0	M1
NMTTP	42	192	5	E	0	M1
EXTAP	43	0	7
EXHLD	43	96	7	384
EXHLD	44	0	0	96
NMTAP	44	192	0
NMTAP	44	192	7
NMTAP	44	240	0
NMTAP	44	240	7
NMHLD	44	336	1	96
NMTAP	45	48	3
NMHLD	45	144	5	96
NMTAP	45	240	4
NMTAP	45	336	4
NMTAP	45	336	5
NMTAP	46	48	3
NMTAP	46	48	4
NMTAP	46	144	2
NMTAP	46	144	5
NMTAP	46	192	2
NMTAP	46	192	5
EXTAP	47	0	0
EXTAP	47	0	7
EXTAP	47	96	1
EXTAP	47	96	6
NMTAP	47	192	4
NMTAP	47	192	5
NMTAP	47	288	2
NMTAP	47	288	3
NMTAP	48	0	4
NMTAP	48	0	5
NMTAP	48	96	4
NMTAP	48	96	5
BRTAP	48	192	2
BRTAP	48	192	7
EXTAP	49	0	0
EXTAP	49	0	1
NMTAP	49	96	0
NMTAP	49	96	1
NMTAP	49	192	6
NMTAP	49	192	7
NMTAP	49	288	6
NMTAP	49	288	7
NMTAP	50	0	4
NMTAP	50	0	5
EXTAP	50	96	1
EXTAP	50	96	7
NMTAP	50	192	4
NMTAP	50	192	5
EXTAP	50	288	1
EXTAP	50	288	7
NMTAP	51	0	2
NMTAP	51	0	6
NMTAP	51	96	2
NMTAP	51	96	6
NMTAP	51	192	3
NMTAP	51	192	5
NMTAP	51	288	2
NMTAP	51	288	4
NMHLD	52	0	1	96
NMTAP	52	96	0
NMTAP	52	192	6
NMTAP	52	192	7
NMTAP	52	288	5
NMSTR	52	336	5
NMSCR	52	336	5	96	192	2
EXTAP	54	0	3
EXTAP	54	0	4
EXTAP	54	96	4
EXTAP	54	96	5
NMTAP	54	192	2
NMTAP	54	192	6
EXTAP	54	288	0
EXTAP	54	288	7
BRTAP	54	336	0
BRTAP	54	336	7
EXTAP	55	96	2
EXHLD	55	96	6	192
NMTAP	55	192	4
NMHLD	55	288	2	96
NMTAP	56	0	4
NMTAP	56	96	1
NMTAP	56	96	3
NMHLD	56	192	0	96
NMHLD	56	192	4	96
EXHLD	57	0	1	96
NMHLD	57	96	3	96
NMHLD	57	192	4	96
NMTAP	57	288	5
NMTAP	58	0	3
NMTAP	58	0	4
NMTAP	58	96	3
NMTAP	58	96	4
BRTAP	58	192	0
BRTAP	58	192	6
EXSTR	59	0	3
NMSI_	59	0	3	96	96	1
EXSTR	59	0	4
NMSI_	59	0	4	96	96	0
EXTAP	59	288	0
EXTAP	59	288	1
NMSTR	60	0	3
NMSI_	60	0	3	96	96	7
NMSTR	60	0	4
NMSI_	60	0	4	96	96	6
NMTAP	60	288	6
NMTAP	60	288	7
NMTAP	61	0	6
NMTAP	61	0	7
NMTAP	61	96	4
NMTAP	61	96	5
NMTAP	61	192	2
NMTAP	61	192	3
NMTAP	61	288	1
NMHLD	61	336	1	96
NMTAP	62	48	0
NMTAP	62	96	0
BRTAP	62	192	2
BRTAP	62	192	7
NMTAP	63	0	2
NMTAP	63	0	5
NMTAP	63	96	6
NMTAP	63	96	7
NMTAP	63	192	2
NMTAP	63	192	5
NMTAP	63	288	0
NMTAP	63	288	1
NMTAP	64	0	2
NMTAP	64	0	7
NMTAP	64	96	0
NMTAP	64	96	5
NMTAP	64	192	2
NMTAP	64	192	7
NMTAP	64	288	3
NMTAP	64	288	4
NMHLD	65	0	2	96
NMHLD	65	96	0	96
NMHLD	65	192	7	96
NMTAP	65	288	5
BXTAP	65	336	5
BXTAP	66	48	3
BXTAP	66	48	7
BXTAP	66	144	1
BXTAP	66	144	5
BXTAP	66	192	1
BXTAP	66	192	5
NMHLD	67	0	0	192
NMSTR	67	0	5
NMSV_	67	0	5	96	96	2
NMSTR	68	0	2
NMSCR	68	0	2	96	96	5
NMHLD	68	0	7	192
NMHLD	69	0	0	192
NMSTR	69	0	6
NMSI_	69	0	6	96	96	3
NMSTR	70	0	1
NMSI_	70	0	1	96	96	4
NMHLD	70	0	7	192
EXTAP	70	288	3
EXTAP	70	288	6
NMSTR	71	0	4
NMSI_	71	0	4	96	96	0
NMSTR	71	0	5
NMSI_	71	0	5	96	96	7
EXTAP	71	288	0
EXTAP	71	288	7
NMSTR	72	0	0
NMSI_	72	0	0	96	96	2
NMSTR	72	0	7
NMSI_	72	0	7	96	96	3
EXTAP	72	288	2
EXTAP	72	288	3
NMSTR	73	0	4
NMSCR	73	0	4	96	192	2
EXTAP	74	0	3
EXTAP	74	96	2
EXTAP	74	96	4
EXTAP	74	144	2
EXTAP	74	144	4
BXHLD	74	240	1	336
BXHLD	74	240	5	144
EXTAP	76	0	0
EXTAP	76	0	7
EXTAP	76	96	1
EXTAP	76	96	6
NMTAP	76	192	4
NMTAP	76	192	5
NMTAP	76	288	2
NMTAP	76	288	3
NMTAP	77	0	1
NMTAP	77	0	7
NMTAP	77	96	4
NMTAP	77	96	5
BRTAP	77	192	2
BRTAP	77	192	7
NMTAP	78	0	0
NMTAP	78	0	1
NMTAP	78	96	0
NMTAP	78	96	1
NMTAP	78	192	6
NMTAP	78	192	7
NMTAP	78	288	6
NMTAP	78	288	7
NMTAP	79	0	4
NMTAP	79	0	5
EXTAP	79	96	1
EXTAP	79	96	7
NMTAP	79	192	4
NMTAP	79	192	5
EXTAP	79	288	1
EXTAP	79	288	7
NMHLD	80	0	6	96
NMHLD	80	96	4	96
NMHLD	80	192	3	96
NMTAP	80	288	2
NMTAP	81	0	2
NMTAP	81	0	3
NMTAP	81	96	2
NMTAP	81	96	3
NMTAP	81	192	3
NMTAP	81	192	4
NMTAP	81	288	5
NMSTR	81	336	5
NMSCR	81	336	5	96	192	2
EXTAP	83	0	3
EXTAP	83	96	3
NMTAP	83	192	1
NMTAP	83	192	5
NMTAP	83	240	1
NMTAP	83	240	5
EXTAP	83	336	3
EXTAP	83	336	4
EXSTR	84	0	3
NMSI_	84	0	3	96	96	7
EXSTR	84	0	4
NMSI_	84	0	4	96	96	6
EXTAP	84	288	6
EXTAP	84	288	7
EXSTR	85	0	3
NMSI_	85	0	3	96	96	1
EXSTR	85	0	4
NMSI_	85	0	4	96	96	0
EXTAP	85	288	0
EXTAP	85	288	1
NMTAP	86	0	0
NMTAP	86	0	1
NMTAP	86	96	2
NMTAP	86	96	3
NMTAP	86	192	4
NMTAP	86	192	5
NMTAP	86	288	6
NMHLD	86	336	6	96
NMTAP	87	48	7
NMTAP	87	96	7
BRTAP	87	192	0
BRTAP	87	192	5
NMTAP	88	0	2
NMTAP	88	0	5
NMTAP	88	96	0
NMTAP	88	96	1
NMTAP	88	192	3
NMTAP	88	192	4
NMTAP	88	288	6
NMTAP	88	288	7
NMTAP	89	0	0
NMTAP	89	0	5
NMTAP	89	96	2
NMTAP	89	96	7
NMTAP	89	192	0
NMTAP	89	192	5
NMTAP	89	288	3
NMTAP	89	288	4
NMHLD	90	0	5	96
NMHLD	90	96	7	96
NMHLD	90	192	0	96
NMTAP	90	288	2
BXTAP	90	336	2
BXTAP	91	48	0
BXTAP	91	48	4
BXTAP	91	144	2
BXTAP	91	144	6
BXTAP	91	192	2
BXTAP	91	192	6

T_REC_TAP	247
T_REC_BRK	16
T_REC_XTP	77
T_REC_BXX	22
T_REC_HLD	37
T_REC_XHO	9
T_REC_BHO	0
T_REC_BXH	10
T_REC_STR	24
T_REC_BST	0
T_REC_XST	6
T_REC_XBS	0
T_REC_TTP	9
T_REC_THO	0
T_REC_SLD	29
T_REC_BSL	2
T_REC_ALL	488
T_NUM_TAP	363
T_NUM_BRK	50
T_NUM_HLD	46
T_NUM_SLD	29
T_NUM_ALL	488
T_JUDGE_TAP	401
T_JUDGE_HLD	158
T_JUDGE_SLD	31
T_JUDGE_ALL	590
TTM_EACHPAIRS	175
TTM_SCR_TAP	181500
TTM_SCR_BRK	130000
TTM_SCR_HLD	46000
TTM_SCR_SLD	43500
TTM_SCR_ALL	401000
TTM_SCR_S	384150
TTM_SCR_SS	396000
TTM_RAT_ACV	10126

