VERSION	0.00.00	1.04.00
FES_MODE	0
BPM_DEF	171.000	171.000	171.000	171.000
MET_DEF	4	4
RESOLUTION	384
CLK_DEF	384
COMPATIBLE_CODE	MA2

BPM	0	0	171.000
MET	0	0	4	4
MET	11	0	4	6
MET	12	192	4	4
MET	21	192	4	6
MET	26	0	4	2
MET	26	192	4	4
MET	44	192	4	6
MET	67	0	4	3
MET	67	288	4	4
MET	92	288	4	6

NMHLD	1	0	5	336
NMTAP	1	240	4
NMSTR	1	336	3
NMSUR	1	336	3	96	240	4
NMHLD	3	0	2	336
NMTAP	3	240	3
NMSTR	3	336	4
NMSUL	3	336	4	96	240	3
NMHLD	5	0	5	624
NMSTR	5	144	3
NMSI_	5	144	3	96	96	7
CNSI_	5	336	7	0	96	2
CNSI_	6	48	2	0	96	4
NMTAP	6	240	4
NMTAP	6	288	3
NMTAP	6	336	2
NMHLD	7	0	1	336
NMTAP	7	240	2
NMTAP	7	336	3
NMHLD	8	48	4	96
NMTAP	8	144	1
NMTAP	8	192	2
NMTAP	8	240	3
NMTAP	8	288	4
NMTAP	8	336	5
NMHLD	9	0	6	336
NMTAP	9	240	5
NMTAP	9	336	4
NMHLD	10	48	3	96
NMTAP	10	144	4
NMTAP	10	336	4
NMTAP	11	0	3
NMHLD	11	0	5	96
NMTAP	11	96	3
NMHLD	11	144	2	96
NMTAP	11	144	4
NMTAP	11	240	4
NMTAP	11	336	1
NMTAP	11	336	5
NMTAP	12	48	0
NMTAP	12	48	6
NMHLD	12	96	0	336
NMHLD	12	96	6	336
NMTAP	13	192	4
NMHLD	13	192	6	48
NMTTP	13	240	4	D	0	M1
NMTTP	13	256	3	A	0	M1
NMTTP	13	272	3	D	0	M1
NMTTP	13	288	2	A	0	M1
NMHLD	13	336	5	96
NMSTR	14	48	2
NMSXR	14	48	2	96	192	7
NMTAP	14	144	6
NMTAP	14	240	5
NMTAP	14	336	4
NMTAP	15	0	4
NMTAP	15	96	3
NMTAP	15	96	5
NMHLD	15	192	1	48
NMTAP	15	192	3
NMTTP	15	240	4	D	0	M1
NMTTP	15	256	4	A	0	M1
NMTTP	15	272	5	D	0	M1
NMTTP	15	288	5	A	0	M1
NMHLD	15	336	2	96
NMSTR	16	48	5
NMSXL	16	48	5	96	192	0
NMTAP	16	144	1
NMTAP	16	240	2
NMTAP	16	336	3
NMTAP	17	0	3
NMTAP	17	96	2
NMTAP	17	96	4
NMTAP	17	192	4
NMHLD	17	192	6	48
NMTTP	17	240	4	D	0	M1
NMTTP	17	256	3	A	0	M1
NMTTP	17	272	3	D	0	M1
NMTTP	17	288	2	A	0	M1
NMHLD	17	336	5	96
NMSTR	18	48	3
NMSV_	18	48	3	96	96	1
NMTAP	18	144	6
CNSCL	18	240	1	0	96	7
NMTAP	18	240	5
NMTAP	18	336	4
NMTAP	19	0	4
NMTAP	19	96	3
NMTAP	19	96	5
NMHLD	19	192	2	48
NMTAP	19	192	3
NMTTP	19	240	4	D	0	M1
NMTTP	19	256	4	A	0	M1
NMTTP	19	272	5	D	0	M1
NMTTP	19	288	5	A	0	M1
NMHLD	19	336	1	96
NMTAP	20	48	5
NMTAP	20	144	0
NMTAP	20	144	4
NMSTR	20	192	0
NMSCL	20	192	0	96	96	6
NMSTR	20	192	4
NMSCL	20	192	4	96	96	2
CNSI_	21	0	2	0	96	5
CNSI_	21	0	6	0	96	1
NMHLD	21	192	5	288
NMTTP	21	288	5	E	0	M1
NMTTP	21	336	5	B	0	M1
NMTTP	22	48	7	E	0	M1
NMTTP	22	96	7	B	0	M1
NMTTP	22	192	1	E	0	M1
NMTTP	22	288	2	B	0	M1
NMSTR	23	0	6
NMSCR	23	0	6	96	96	1
NMTAP	23	96	2
NMSTR	23	144	2
NMSCR	23	144	2	96	96	5
NMTAP	23	240	6
NMHLD	23	288	6	96
NMTTP	24	0	7	E	0	M1
NMTTP	24	96	1	E	0	M1
NMHLD	24	192	5	144
NMTAP	24	288	4
NMHLD	24	336	4	144
NMTAP	25	48	3
NMHLD	25	96	3	96
NMSTR	25	192	2
NMSXR	25	192	2	96	192	3
NMTAP	25	288	3
NMTAP	26	0	4
NMTAP	26	96	5
NMHLD	26	192	2	144
NMHLD	26	192	4	144
NMSTR	27	0	1
NMSCL	27	0	1	96	192	5
NMSTR	27	0	3
NMSXL	27	0	3	96	192	5
NMTAP	28	48	0
NMTAP	28	48	5
NMSTR	28	96	6
NMSI_	28	96	6	96	48	3
NMSTR	28	96	7
NMSI_	28	96	7	96	48	2
BRTAP	28	192	6
BRTAP	28	192	7
NMTAP	28	288	0
NMTAP	28	288	5
NMTAP	28	336	0
NMTAP	28	336	5
NMTAP	29	48	1
NMTAP	29	48	6
NMTAP	29	144	2
NMTAP	29	144	7
EXHLD	29	192	2	96
NMSTR	29	192	7
NMSI_	29	192	7	96	48	4
NMTAP	29	288	7
EXHLD	30	0	3	96
NMSTR	30	0	7
NMSI_	30	0	7	96	48	2
NMTAP	30	96	7
EXHLD	30	192	2	96
NMSTR	30	192	7
NMSCL	30	192	7	96	48	4
NMTAP	30	288	7
EXHLD	31	0	3	96
NMSTR	31	0	7
NMSCR	31	0	7	96	48	2
NMTAP	31	96	7
EXHLD	31	192	2	288
NMSTR	31	192	7
NMSCL	31	192	7	96	96	5
CNSUL	32	0	5	0	96	4
NMTAP	32	192	5
NMTAP	32	240	4
NMTAP	32	288	3
NMTAP	32	336	2
NMTAP	33	0	1
NMTAP	33	0	4
NMTAP	33	96	4
NMTAP	33	144	5
NMTAP	33	192	3
NMSTR	33	192	6
NMSI_	33	192	6	96	48	3
NMSTR	33	288	1
NMSI_	33	288	1	96	48	4
NMSTR	34	0	5
NMSI_	34	0	5	96	48	0
NMSTR	34	96	2
NMSI_	34	96	2	96	48	7
NMHLD	34	192	6	144
NMSTR	34	336	5
NMSCR	34	336	5	96	96	1
NMTAP	35	0	5
CNSV_	35	144	1	0	96	3
NMTAP	35	144	4
NMTAP	35	240	6
NMTAP	35	336	0
NMTAP	36	48	2
NMTAP	36	48	3
NMTAP	36	96	2
NMTAP	36	96	3
NMTAP	36	144	6
NMTAP	36	144	7
NMTAP	36	192	6
NMHLD	36	192	7	144
NMTAP	36	288	0
NMHLD	36	336	0	96
NMTAP	37	48	1
NMHLD	37	144	0	96
NMHLD	37	144	2	96
NMSTR	37	288	1
NMSI_	37	288	1	96	48	4
NMSTR	37	288	3
NMSI_	37	288	3	96	48	6
BRTAP	38	0	1
BRTAP	38	0	3
NMTAP	38	144	0
NMTAP	38	144	1
NMHLD	38	192	0	144
NMTAP	38	192	1
NMTAP	38	288	7
NMHLD	38	336	7	96
NMTAP	39	48	6
NMTAP	39	144	5
NMTAP	39	144	7
NMTAP	39	240	4
NMTAP	39	240	6
NMSTR	39	288	4
NMSI_	39	288	4	96	48	1
NMSTR	39	288	6
NMSI_	39	288	6	96	48	3
BRTAP	40	0	4
BRTAP	40	0	6
NMTAP	40	192	1
NMSTR	40	192	7
NMSI_	40	192	7	96	48	4
NMSTR	40	288	7
NMSI_	40	288	7	96	48	2
NMTAP	41	0	7
NMTAP	41	96	3
NMSTR	41	144	3
NMSI_	41	144	3	96	48	0
NMSI_	41	144	3	96	48	6
BRTAP	41	240	3
EXTAP	41	336	7
EXTAP	42	0	7
NMTAP	42	96	2
NMTAP	42	96	7
NMSTR	42	192	0
NMSXR	42	192	0	96	192	5
NMSTR	42	192	1
NMSXL	42	192	1	96	192	4
NMHLD	43	192	7	192
NMHLD	44	0	2	192
NMTAP	44	192	1
NMSTR	44	288	1
NMSCL	44	288	1	96	384	4
NMTAP	45	96	2
NMTAP	45	192	2
NMTAP	46	0	3
NMHLD	46	96	3	192
NMTAP	46	288	5
NMHLD	47	0	5	192
NMTAP	47	192	6
NMSTR	47	288	6
NMSCR	47	288	6	96	384	3
NMTAP	48	96	5
NMTAP	48	192	5
NMTAP	49	0	4
NMHLD	49	96	4	192
NMTAP	49	288	1
NMHLD	50	0	1	96
NMTAP	50	96	3
NMSTR	50	192	2
NMSI_	50	192	2	96	48	4
NMHLD	50	192	3	144
NMTAP	51	48	2
NMTAP	51	96	2
NMTAP	51	192	3
NMTAP	51	288	4
NMSTR	52	0	4
NMSI_	52	0	4	96	48	2
NMSI_	52	0	4	96	48	6
NMTAP	52	0	5
NMTAP	52	240	7
NMTAP	52	288	7
NMTAP	53	0	6
NMSTR	53	96	5
NMSCL	53	96	5	96	288	2
NMTAP	54	288	0
NMTAP	55	0	1
NMTAP	55	96	2
NMSTR	55	144	2
NMSI_	55	144	2	96	240	5
NMSCR	55	144	2	96	240	5
NMHLD	56	192	4	144
NMHLD	56	336	5	144
NMHLD	57	96	6	144
NMHLD	57	240	7	144
NMHLD	58	0	0	144
NMHLD	58	144	1	144
NMHLD	58	288	2	144
NMHLD	59	48	3	144
NMHLD	59	192	4	144
NMTAP	59	288	5
NMHLD	59	336	5	144
NMTAP	60	48	6
NMHLD	60	96	6	144
NMTAP	60	192	7
NMHLD	60	240	7	144
NMTAP	60	336	0
NMHLD	61	0	0	144
NMTAP	61	96	1
NMHLD	61	144	1	144
NMTAP	61	240	2
NMTAP	61	288	2
NMTAP	62	0	2
NMTAP	62	0	3
NMTAP	62	96	3
NMTAP	62	96	4
NMTAP	62	192	4
NMHLD	62	192	5	144
NMTTP	62	336	4	D	0	M1
NMTTP	62	352	3	A	0	M1
NMTTP	62	368	3	D	0	M1
NMTTP	63	0	2	A	0	M1
NMTTP	63	16	2	D	0	M1
NMTTP	63	32	1	A	0	M1
NMTTP	63	48	1	D	0	M1
NMTTP	63	64	0	A	0	M1
NMTTP	63	80	0	D	0	M1
NMTTP	63	96	7	A	0	M1
NMTTP	63	112	7	D	0	M1
NMTTP	63	128	6	A	0	M1
NMTTP	63	144	6	D	0	M1
NMTTP	63	160	5	A	0	M1
NMTTP	63	176	5	D	0	M1
NMTTP	63	192	4	A	0	M1
NMTAP	63	288	4
NMTAP	63	288	5
NMTAP	64	0	3
NMTAP	64	0	4
NMHLD	64	144	2	144
NMTAP	64	144	3
NMTTP	64	288	5	A	0	M1
NMTTP	64	304	6	D	0	M1
NMTTP	64	320	6	A	0	M1
NMTTP	64	336	7	D	0	M1
NMTTP	64	352	7	A	0	M1
NMTTP	64	368	0	D	0	M1
NMTTP	65	0	0	A	0	M1
NMTTP	65	16	1	D	0	M1
NMTTP	65	32	1	A	0	M1
NMTTP	65	48	2	D	0	M1
NMTTP	65	64	2	A	0	M1
NMTTP	65	80	3	D	0	M1
NMTTP	65	96	3	A	0	M1
EXHLD	65	192	1	144
NMTAP	65	336	2
EXHLD	66	96	6	144
NMTAP	66	240	5
EXHLD	67	0	1	144
NMTAP	67	144	2
EXHLD	67	288	5	288
NMTAP	68	0	4
NMTAP	68	96	3
NMTAP	68	192	2
NMTTP	68	288	4	E	0	M1
NMHLD	69	288	4	1344
NMTTP	70	96	3	B	0	M1
NMTTP	70	108	4	E	0	M1
NMTTP	71	96	4	B	0	M1
NMTTP	71	108	4	E	0	M1
NMTTP	72	96	3	B	0	M1
NMTTP	72	108	4	E	0	M1
NMTTP	73	96	4	B	0	M1
NMTTP	73	108	4	E	0	M1
NMHLD	73	288	2	384
NMTTP	74	96	4	B	0	M1
NMTTP	74	108	4	E	0	M1
NMTTP	74	288	4	B	0	M1
NMTTP	74	300	4	E	0	M1
NMTAP	75	144	2
NMTAP	75	144	7
NMSTR	75	192	0
NMSI_	75	192	0	96	48	4
NMSTR	75	192	1
NMSI_	75	192	1	96	48	5
BRTAP	75	288	0
BRTAP	75	288	1
NMTTP	75	312	0	C	1	M1
NMTAP	76	0	2
NMTAP	76	0	7
NMHLD	76	48	2	96
NMTAP	76	48	7
NMHLD	76	144	5	144
NMTAP	76	240	7
NMSTR	76	288	7
NMSCR	76	288	7	96	48	2
NMTAP	77	0	5
NMTAP	77	0	7
NMTAP	77	48	6
NMSTR	77	96	7
NMSCL	77	96	7	96	48	4
NMTAP	77	192	2
NMTAP	77	192	7
NMTAP	77	240	1
NMSTR	77	288	0
NMSLR	77	288	0	96	48	4
NMTAP	78	0	0
NMTAP	78	0	6
NMTAP	78	48	7
NMSTR	78	96	0
NMSLL	78	96	0	96	48	4
NMTAP	78	192	0
NMTAP	78	192	2
NMTAP	78	240	1
NMSTR	78	288	0
NMSCR	78	288	0	96	96	2
NMHLD	79	0	5	192
CNSUR	79	96	2	0	96	3
NMTAP	79	288	5
NMTAP	79	336	6
NMTAP	80	0	7
NMTAP	80	48	0
NMSTR	80	96	1
NMSI_	80	96	1	96	48	3
NMTAP	80	192	0
NMTAP	80	240	7
NMSTR	80	288	6
NMSI_	80	288	6	96	48	3
NMSTR	81	0	1
NMSI_	81	0	1	96	48	4
NMSTR	81	96	5
NMSI_	81	96	5	96	48	0
NMSTR	81	192	2
NMSI_	81	192	2	96	48	7
NMHLD	81	288	6	144
NMSTR	82	48	5
NMSCR	82	48	5	96	96	1
NMTAP	82	96	5
CNSV_	82	240	1	0	96	3
NMTAP	82	240	4
NMTAP	82	336	6
NMTAP	83	48	0
NMTAP	83	144	2
NMTAP	83	144	3
NMTAP	83	192	2
NMTAP	83	192	3
NMTAP	83	240	4
NMTAP	83	240	6
NMTAP	83	288	4
NMHLD	83	288	6	144
NMTAP	84	0	5
NMSTR	84	48	5
NMSUL	84	48	5	96	48	1
NMTAP	84	144	5
NMTAP	84	144	7
NMHLD	84	240	0	96
NMHLD	84	240	6	96
NMSTR	85	0	5
NMSI_	85	0	5	96	48	1
NMSTR	85	0	7
NMSI_	85	0	7	96	48	3
BRTAP	85	96	5
BRTAP	85	96	7
NMTAP	85	240	1
NMTAP	85	240	3
NMHLD	85	288	1	144
NMTAP	85	288	3
NMTAP	86	0	2
NMSTR	86	48	2
NMSUR	86	48	2	96	48	6
NMTAP	86	144	0
NMTAP	86	144	2
NMTAP	86	240	1
NMTAP	86	240	7
NMTAP	86	336	0
NMTAP	86	336	2
NMSTR	87	0	0
NMSI_	87	0	0	96	48	4
NMSTR	87	0	2
NMSI_	87	0	2	96	48	6
BRTAP	87	96	0
BRTAP	87	96	2
NMTAP	87	288	1
NMSTR	87	288	7
NMSCL	87	288	7	96	48	4
NMSTR	88	0	7
NMSCR	88	0	7	96	48	2
NMTAP	88	96	7
NMTAP	88	192	3
NMSTR	88	240	3
NMSCL	88	240	3	96	48	0
NMSCR	88	240	3	96	48	6
BRTAP	88	336	3
EXTAP	89	48	7
EXTAP	89	96	7
NMTAP	89	192	2
NMTAP	89	192	7
NMSTR	89	288	0
BRSXR	89	288	0	96	192	5
NMSTR	89	288	1
BRSXL	89	288	1	96	192	4
NMSTR	90	288	6
BRSXR	90	288	6	96	192	3
NMSTR	90	288	7
BRSXL	90	288	7	96	192	2
NMTAP	91	288	4
NMTAP	91	288	5
NMTAP	92	0	2
NMTAP	92	0	3
NMTAP	92	96	0
NMTAP	92	96	1
NMSTR	92	192	6
NMSCL	92	192	6	96	288	3
NMSTR	92	192	7
NMSCR	92	192	7	96	288	2
CNSCR	93	192	3	0	288	6

T_REC_TAP	210
T_REC_BRK	14
T_REC_XTP	4
T_REC_BXX	0
T_REC_HLD	66
T_REC_XHO	9
T_REC_BHO	0
T_REC_BXH	0
T_REC_STR	68
T_REC_BST	0
T_REC_XST	0
T_REC_XBS	0
T_REC_TTP	67
T_REC_THO	0
T_REC_SLD	68
T_REC_BSL	4
T_REC_ALL	510
T_NUM_TAP	349
T_NUM_BRK	18
T_NUM_HLD	75
T_NUM_SLD	68
T_NUM_ALL	510
T_JUDGE_TAP	363
T_JUDGE_HLD	274
T_JUDGE_SLD	72
T_JUDGE_ALL	709
TTM_EACHPAIRS	86
TTM_SCR_TAP	174500
TTM_SCR_BRK	46800
TTM_SCR_HLD	75000
TTM_SCR_SLD	102000
TTM_SCR_ALL	398300
TTM_SCR_S	384650
TTM_SCR_SS	396500
TTM_RAT_ACV	10045

