VERSION	0.00.00	1.04.00
FES_MODE	0
BPM_DEF	171.000	171.000	171.000	171.000
MET_DEF	4	4
RESOLUTION	384
CLK_DEF	384
COMPATIBLE_CODE	MA2

BPM	0	0	171.000
MET	0	0	4	4
MET	11	0	4	6
MET	12	192	4	4
MET	21	192	4	6
MET	26	0	4	2
MET	26	192	4	4
MET	44	192	4	6
MET	67	0	4	3
MET	67	288	4	4
MET	92	288	4	6

NMTAP	1	0	2
NMSTR	1	0	4
NMSXL	1	0	4	96	384	5
NMSTR	3	0	3
NMSXR	3	0	3	96	384	2
NMTAP	3	0	5
NMSTR	5	0	2
NMSV_	5	0	2	96	240	5
NMSTR	5	0	3
NMSV_	5	0	3	96	240	6
NMTAP	6	192	4
NMTAP	6	192	5
NMTAP	7	0	3
NMSTR	7	0	5
NMSUR	7	0	5	96	240	2
NMTAP	8	192	2
NMTAP	8	192	3
NMSTR	9	0	1
NMSLR	9	0	1	96	240	5
NMTAP	9	0	3
NMTAP	10	192	5
NMTAP	11	0	4
NMTAP	11	0	6
NMTAP	11	96	4
NMSTR	11	96	6
NMSCR	11	96	6	96	288	3
NMSUR	11	96	6	96	288	4
NMTAP	13	96	3
NMHLD	13	192	2	480
NMTAP	13	192	4
NMTTP	14	0	3	E	0	M1
NMTTP	14	96	4	E	0	M1
NMTTP	14	192	5	E	0	M1
NMTTP	14	288	6	E	0	M1
NMTAP	15	96	4
NMTAP	15	192	3
NMHLD	15	192	5	480
NMTTP	16	0	5	E	0	M1
NMTTP	16	96	4	E	0	M1
NMTTP	16	192	3	E	0	M1
NMTTP	16	288	2	E	0	M1
NMTAP	17	96	2
NMHLD	17	192	1	480
NMTAP	17	192	3
NMTTP	18	0	1	E	0	M1
NMTTP	18	96	2	B	0	M1
NMTTP	18	192	3	B	0	M1
NMTTP	18	288	5	E	0	M1
NMTAP	19	96	5
NMTAP	19	192	4
NMHLD	19	192	6	576
NMTTP	20	0	6	B	0	M1
NMTTP	20	96	5	E	0	M1
NMTTP	20	192	3	E	0	M1
NMTTP	20	288	1	B	0	M1
NMTTP	21	0	0	C	0	M1
NMSTR	21	192	1
NMSXR	21	192	1	96	480	4
NMSTR	23	0	5
NMSXR	23	0	5	96	480	0
NMSTR	24	192	1
NMSUR	24	192	1	96	384	3
NMTAP	26	0	4
NMTAP	26	96	4
NMSTR	26	192	2
NMSXR	26	192	2	96	384	3
NMSTR	26	192	4
NMSXL	26	192	4	96	384	3
NMTAP	28	96	3
BRTAP	28	192	0
BRSTR	28	192	6
NMSCL	28	192	6	96	96	3
NMSTR	29	0	2
NMSCL	29	0	2	96	96	7
NMSTR	29	192	6
NMSXR	29	192	6	96	192	0
NMHLD	30	192	1	96
NMHLD	30	288	3	96
NMHLD	31	0	4	96
NMTAP	31	96	6
NMHLD	31	192	6	96
NMHLD	31	288	4	96
NMHLD	32	0	3	96
NMTAP	32	96	1
NMTAP	32	192	1
NMTAP	32	240	1
NMTAP	32	288	3
NMTAP	32	336	3
NMTAP	33	0	2
NMTAP	33	96	5
NMTAP	33	144	5
NMTAP	33	192	4
NMTAP	33	288	4
NMTAP	33	288	6
NMTAP	34	0	3
NMTAP	34	0	5
NMTAP	34	96	2
NMTAP	34	96	4
NMHLD	34	192	1	96
NMHLD	34	192	3	96
NMTAP	34	336	2
NMTAP	34	336	4
NMHLD	35	0	2	480
NMTAP	35	0	4
NMTAP	35	144	3
NMTAP	35	240	1
NMTAP	35	336	0
NMTAP	36	48	7
NMTAP	36	96	7
NMTAP	36	192	4
NMTAP	36	192	6
NMTAP	36	288	5
NMTAP	37	0	2
NMTAP	37	0	4
NMTAP	37	96	3
NMTAP	37	192	4
NMTAP	37	192	5
NMTAP	37	288	4
NMTAP	37	288	5
NMTAP	38	0	3
NMTAP	38	0	6
NMTAP	38	192	1
NMTAP	38	192	3
NMTAP	38	288	2
NMTAP	39	0	3
NMTAP	39	0	5
NMTAP	39	96	4
NMTAP	39	192	2
NMTAP	39	192	3
NMTAP	39	288	2
NMTAP	39	288	3
NMTAP	40	0	1
NMTAP	40	0	4
NMTAP	40	192	4
NMTAP	40	192	5
NMTAP	40	288	6
NMTAP	41	0	0
NMTAP	41	0	7
NMTAP	41	96	1
NMTAP	41	192	2
NMTAP	41	192	3
NMTAP	41	288	1
NMTAP	42	0	0
NMTAP	42	0	7
NMTAP	42	96	1
NMTAP	42	96	6
BRSTR	42	192	2
NMSXR	42	192	2	96	480	4
BRSTR	42	192	5
NMSXL	42	192	5	96	480	3
NMSTR	44	192	2
NMSUL	44	192	2	96	288	4
NMSTR	46	0	6
BRSCL	46	0	6	96	288	2
NMSTR	47	192	1
NMSSL	47	192	1	96	288	5
NMSTR	49	0	7
NMSCL	49	0	7	96	144	5
CNSV_	49	240	5	0	144	3
NMSTR	50	192	1
NMSCR	50	192	1	96	288	5
NMSTR	52	0	7
NMSCL	52	0	7	96	288	2
NMSTR	53	192	0
NMSF_	53	192	0	96	288	4
NMTAP	54	288	3
NMTAP	54	288	4
NMTAP	55	0	2
NMSTR	55	0	5
NMSCL	55	0	5	96	288	2
NMHLD	56	192	2	480
NMTAP	56	288	4
NMTAP	57	0	4
NMTAP	57	96	3
NMTAP	57	192	3
NMTAP	57	288	4
NMHLD	58	0	5	384
NMTAP	58	96	3
NMTAP	58	192	3
NMTAP	58	288	4
NMTAP	59	0	4
NMTAP	59	96	3
NMTAP	59	96	4
NMHLD	59	192	1	384
NMTAP	59	288	3
NMTAP	60	0	3
NMTAP	60	96	2
NMTAP	60	192	2
NMTAP	60	288	3
NMTAP	60	288	4
NMHLD	61	0	6	528
NMTAP	61	96	4
NMTAP	61	192	4
NMTAP	61	288	3
NMTAP	62	0	3
NMTAP	62	96	2
NMTAP	62	144	2
BXHLD	62	336	3	240
BXHLD	62	336	5	240
NMTAP	63	288	4
NMTAP	63	288	5
NMTAP	64	0	4
NMTAP	64	0	5
EXTAP	64	144	3
EXTAP	64	144	4
BRHLD	64	288	2	192
BRHLD	64	288	3	192
NMHLD	65	192	2	144
NMHLD	65	336	3	144
NMHLD	66	96	4	144
NMHLD	66	240	5	144
NMHLD	67	0	6	144
NMHLD	67	144	7	144
NMTAP	67	288	0
NMTAP	68	0	0
NMTAP	68	96	1
NMTAP	68	96	7
NMTAP	68	192	2
NMTAP	68	192	6
NMTAP	68	288	3
NMTAP	68	288	5
NMTTP	70	96	3	D	0	M1
NMTTP	71	96	3	A	0	M1
NMTTP	72	96	4	D	0	M1
NMTTP	73	96	4	A	0	M1
NMTTP	74	96	5	D	0	M1
NMTAP	75	192	4
BRSTR	75	288	1
NMSCR	75	288	1	96	96	4
BRTAP	75	288	7
NMSTR	76	96	5
NMSCR	76	96	5	96	96	0
NMSTR	76	288	1
NMSXL	76	288	1	96	192	7
NMHLD	77	288	5	96
NMHLD	78	0	7	96
NMHLD	78	96	0	96
NMTAP	78	192	2
NMHLD	78	288	2	96
NMHLD	79	0	0	96
NMHLD	79	96	7	96
NMTAP	79	192	5
NMTAP	79	288	5
NMTAP	79	336	5
NMTAP	80	0	4
NMTAP	80	48	4
NMTAP	80	96	6
NMTAP	80	192	1
NMTAP	80	240	1
NMTAP	80	288	0
NMTAP	81	0	0
NMTAP	81	0	2
NMTAP	81	96	1
NMTAP	81	96	7
NMTAP	81	192	0
NMTAP	81	192	6
NMHLD	81	288	5	96
NMHLD	81	288	7	96
NMTAP	82	48	0
NMTAP	82	48	6
NMTAP	82	96	0
NMHLD	82	96	6	480
NMTAP	82	240	7
NMTAP	82	336	5
NMTAP	83	48	4
NMTAP	83	144	3
NMTAP	83	192	3
NMTAP	83	288	1
NMTAP	83	288	7
NMTAP	84	0	0
NMTAP	84	96	0
NMTAP	84	96	6
NMTAP	84	192	7
NMTAP	84	288	0
NMTAP	84	288	1
NMTAP	85	0	0
NMTAP	85	0	1
NMTAP	85	96	3
NMTAP	85	96	6
NMTAP	85	288	0
NMTAP	85	288	6
NMTAP	86	0	7
NMTAP	86	96	1
NMTAP	86	96	7
NMTAP	86	192	0
NMTAP	86	288	6
NMTAP	86	288	7
NMTAP	87	0	6
NMTAP	87	0	7
NMTAP	87	96	1
NMTAP	87	96	4
NMTAP	87	288	6
NMTAP	87	288	7
NMTAP	88	0	5
NMTAP	88	96	3
NMTAP	88	96	4
NMTAP	88	192	2
NMTAP	88	288	0
NMTAP	88	288	1
NMTAP	89	0	2
NMTAP	89	96	3
NMTAP	89	96	4
NMTAP	89	192	5
NMHLD	89	288	6	96
NMHLD	89	288	7	96
NMTAP	90	48	0
NMTAP	90	48	5
NMTAP	90	96	0
NMHLD	90	96	5	192
NMHLD	90	288	7	192
NMHLD	91	96	0	192
NMHLD	91	288	2	192
NMTAP	92	96	5
NMTAP	92	240	1
NMTAP	92	240	6
NMSTR	92	288	1
NMSCL	92	288	1	96	336	4
NMSTR	92	288	6
NMSCR	92	288	6	96	336	3

T_REC_TAP	189
T_REC_BRK	2
T_REC_XTP	2
T_REC_BXX	0
T_REC_HLD	38
T_REC_XHO	0
T_REC_BHO	2
T_REC_BXH	2
T_REC_STR	26
T_REC_BST	4
T_REC_XST	0
T_REC_XBS	0
T_REC_TTP	22
T_REC_THO	0
T_REC_SLD	30
T_REC_BSL	1
T_REC_ALL	318
T_NUM_TAP	239
T_NUM_BRK	11
T_NUM_HLD	38
T_NUM_SLD	30
T_NUM_ALL	318
T_JUDGE_TAP	245
T_JUDGE_HLD	187
T_JUDGE_SLD	31
T_JUDGE_ALL	463
TTM_EACHPAIRS	75
TTM_SCR_TAP	119500
TTM_SCR_BRK	28600
TTM_SCR_HLD	38000
TTM_SCR_SLD	45000
TTM_SCR_ALL	231100
TTM_SCR_S	223100
TTM_SCR_SS	230000
TTM_RAT_ACV	10047

