VERSION	0.00.00	1.04.00
FES_MODE	0
BPM_DEF	140.000	140.000	140.000	140.000
MET_DEF	4	4
RESOLUTION	384
CLK_DEF	384
COMPATIBLE_CODE	MA2

BPM	0	0	140.000
MET	0	0	4	4

NMSTR	3	0	2
NMSCR	3	0	2	96	96	5
NMSTR	3	192	6
NMSUL	3	192	6	96	96	2
NMSTR	4	0	1
NMSXR	4	0	1	96	192	6
NMTAP	4	288	5
NMSTR	5	0	5
NMSCL	5	0	5	96	96	2
NMSTR	5	192	1
NMSUR	5	192	1	96	96	5
NMSTR	6	0	6
NMSXL	6	0	6	96	192	1
NMTAP	6	288	2
NMTAP	7	0	2
NMTAP	7	48	2
NMTAP	7	96	3
NMTAP	7	144	3
NMTAP	7	192	4
NMTAP	7	240	4
NMTAP	7	288	5
NMTAP	7	336	5
NMTAP	8	0	1
NMTAP	8	48	1
NMTAP	8	96	3
NMTAP	8	144	3
NMTAP	8	192	4
NMTAP	8	240	4
NMTAP	8	288	6
NMTAP	8	336	6
NMTAP	9	0	0
NMTAP	9	48	1
NMTAP	9	96	2
NMTAP	9	144	3
NMTAP	9	144	4
NMTAP	9	192	5
NMTAP	9	240	6
NMSTR	9	288	0
NMSLR	9	288	0	96	192	4
NMSTR	9	288	7
NMSLL	9	288	7	96	192	3
NMTAP	9	336	0
NMTAP	9	336	7
NMTAP	10	288	3
NMTAP	10	288	4
NMTAP	11	0	4
NMSTR	11	48	3
NMSI_	11	48	3	96	48	1
NMTAP	11	48	5
NMSTR	11	144	7
NMSI_	11	144	7	96	48	5
NMSTR	11	240	2
NMSI_	11	240	2	96	48	0
NMSTR	11	336	6
NMSI_	11	336	6	96	48	4
NMHLD	12	48	1	240
NMTTP	12	144	2	E	0	M1
NMTTP	12	192	3	E	0	M1
NMTTP	12	240	4	E	0	M1
NMTTP	12	288	5	E	0	M1
NMTAP	13	0	7
NMTAP	13	48	0
NMSTR	13	48	6
NMSI_	13	48	6	96	48	4
NMSTR	13	144	2
NMSI_	13	144	2	96	48	0
NMSTR	13	240	5
NMSI_	13	240	5	96	48	3
NMSTR	13	336	1
NMSI_	13	336	1	96	48	7
NMHLD	14	48	5	240
NMTTP	14	144	7	E	0	M1
NMTTP	14	192	6	E	0	M1
NMTTP	14	240	5	E	0	M1
NMTTP	14	288	4	E	0	M1
NMTAP	15	0	2
NMSTR	15	48	1
NMSI_	15	48	1	96	48	4
NMTAP	15	48	3
NMSTR	15	144	5
NMSI_	15	144	5	96	48	0
NMSTR	15	240	2
NMSI_	15	240	2	96	48	7
NMSTR	15	336	6
NMSI_	15	336	6	96	48	3
NMSTR	16	48	1
NMSLR	16	48	1	96	96	0
NMTAP	16	144	5
NMTAP	16	192	5
CNSI_	16	240	0	0	48	4
NMTAP	16	240	6
NMTAP	16	288	6
NMTAP	17	0	5
NMTAP	17	48	4
NMSTR	17	48	6
NMSI_	17	48	6	96	48	3
NMSTR	17	144	0
NMSI_	17	144	0	96	48	3
NMTAP	17	240	4
NMSTR	17	288	4
NMSLL	17	288	4	96	144	0
NMSLR	17	288	4	96	144	0
EXTAP	18	240	6
EXTAP	18	240	7
NMTAP	18	288	0
NMTAP	18	288	5
NMTAP	18	336	1
NMTAP	18	336	4
NMHLD	19	0	2	48
NMHLD	19	0	3	48
NMHLD	19	96	4	48
NMHLD	19	96	5	48
NMHLD	19	192	1	72
NMHLD	19	264	2	72
NMTAP	19	336	3
NMTAP	20	48	3
NMTAP	20	48	4
NMTAP	20	96	5
NMTAP	20	120	4
NMHLD	20	168	3	168
NMTAP	20	168	6
NMTAP	20	240	5
NMTAP	20	288	6
NMSTR	20	336	7
NMSI_	20	336	7	96	48	3
NMSTR	21	0	3
NMSI_	21	0	3	96	48	7
NMSTR	21	144	1
NMSI_	21	144	1	96	48	5
NMSTR	21	192	5
NMSI_	21	192	5	96	48	1
NMTAP	21	336	7
NMTAP	22	0	0
NMTAP	22	0	6
NMTAP	22	48	1
NMTAP	22	72	3
NMTAP	22	120	6
NMSTR	22	144	4
NMSCL	22	144	4	96	96	0
NMTAP	22	240	5
NMTAP	22	288	6
NMTAP	22	336	7
NMHLD	23	0	1	48
NMHLD	23	0	7	48
NMHLD	23	96	3	48
NMHLD	23	96	5	48
NMHLD	23	192	6	72
NMHLD	23	264	5	72
NMTAP	23	336	4
NMTAP	24	48	3
NMTAP	24	48	4
NMTAP	24	96	2
NMTAP	24	120	3
NMTAP	24	168	1
NMHLD	24	168	4	168
NMTAP	24	240	2
NMTAP	24	288	1
NMSTR	24	336	0
NMSI_	24	336	0	96	48	4
NMSTR	25	0	4
NMSI_	25	0	4	96	48	0
NMSTR	25	144	6
NMSI_	25	144	6	96	48	2
NMSTR	25	192	2
NMSI_	25	192	2	96	48	6
EXSTR	25	288	0
NMSXL	25	288	0	96	192	4
NMSXR	25	288	0	96	192	4
NMTAP	26	288	3
NMTAP	26	288	4
NMTAP	27	0	1
NMTAP	27	0	3
NMTAP	27	72	0
NMTAP	27	72	7
NMTAP	27	144	4
NMSTR	27	144	6
NMSI_	27	144	6	96	48	3
NMTAP	27	240	3
NMTAP	27	288	2
NMTAP	27	336	1
NMTAP	28	0	0
NMTAP	28	0	7
NMTAP	28	72	4
NMTAP	28	72	6
NMSTR	28	144	1
NMSI_	28	144	1	96	48	4
NMTAP	28	144	3
NMTAP	28	240	4
NMTAP	28	288	5
NMTAP	28	336	6
NMTAP	29	0	0
NMTAP	29	0	7
NMTAP	29	48	7
NMTAP	29	72	6
NMTAP	29	120	6
NMTAP	29	144	5
NMTAP	29	192	3
NMTAP	29	192	4
NMTAP	29	240	3
NMTAP	29	264	2
NMTAP	29	312	2
NMTAP	29	336	1
NMTAP	30	0	0
NMTAP	30	0	1
NMTAP	30	72	3
NMTAP	30	72	4
NMSTR	30	144	6
NMSLL	30	144	6	96	96	0
NMTAP	30	144	7
NMTAP	30	240	0
NMTAP	30	288	1
NMTAP	30	336	2
NMTAP	31	0	2
NMTAP	31	0	3
NMTAP	31	72	0
NMTAP	31	72	7
NMSTR	31	144	4
NMSCL	31	144	4	96	48	1
NMTAP	31	144	5
NMTAP	31	240	5
NMTAP	31	288	6
NMTAP	31	336	7
NMTAP	32	0	0
NMTAP	32	0	2
NMTAP	32	72	3
NMTAP	32	72	4
NMTAP	32	144	5
NMSTR	32	144	7
NMSCR	32	144	7	96	96	3
NMTAP	32	240	4
NMTAP	32	288	4
NMTAP	32	336	5
NMTAP	33	0	6
NMTAP	33	48	6
NMTAP	33	72	4
NMTAP	33	120	4
NMTAP	33	144	3
NMTAP	33	192	1
NMTAP	33	240	1
NMTAP	33	264	3
NMTAP	33	312	3
NMTAP	33	336	4
NMTAP	34	0	0
NMTAP	34	0	5
NMTAP	34	72	2
NMTAP	34	72	7
NMTAP	34	144	1
NMTAP	34	144	4
NMTAP	34	192	2
NMTAP	34	216	3
NMTAP	34	240	2
NMTAP	34	288	0
NMTAP	34	288	7
BRSTR	35	0	1
NMSXL	35	0	1	96	192	7
BRHLD	35	0	6	144
NMTAP	35	192	6
NMTAP	35	288	5
NMHLD	36	0	0	144
NMSTR	36	0	5
NMSXL	36	0	5	96	192	3
NMTAP	36	192	0
NMTAP	36	288	1
NMSTR	37	0	2
NMSXR	37	0	2	96	192	7
NMHLD	37	0	4	144
NMTAP	37	192	4
NMTAP	37	288	5
NMSTR	38	0	4
NMSUL	38	0	4	96	192	1
NMSTR	38	0	6
NMSXL	38	0	6	96	192	1
NMTAP	39	0	3
NMSTR	39	0	7
NMSCL	39	0	7	96	192	3
NMTAP	39	96	2
NMTAP	39	192	1
NMTAP	39	288	0
NMSTR	40	0	0
NMSCR	40	0	0	96	192	4
NMTAP	40	0	4
NMTAP	40	96	5
NMTAP	40	192	6
NMTAP	40	288	7
NMTAP	41	0	0
NMTAP	41	48	0
NMTAP	41	96	1
NMTAP	41	96	7
NMTAP	41	144	1
NMTAP	41	144	7
NMTAP	41	192	2
NMTAP	41	192	6
NMTAP	41	240	2
NMTAP	41	240	6
NMTAP	41	288	3
NMTAP	41	288	5
NMTAP	41	336	3
NMTAP	41	336	5
NMSTR	42	0	4
NMSLL	42	0	4	96	96	0
NMSLR	42	0	4	96	96	0
NMSTR	42	288	2
NMSI_	42	288	2	96	48	7
NMSTR	42	288	6
NMSI_	42	288	6	96	48	3
BRTAP	43	0	2
BRTAP	43	0	6
NMSTR	43	96	1
NMSI_	43	96	1	96	48	4
NMSTR	43	96	5
NMSI_	43	96	5	96	48	0
NMTAP	43	144	2
NMTAP	43	144	6
NMTAP	43	192	1
NMTAP	43	192	5
NMTAP	43	288	3
NMTAP	43	288	7
NMHLD	43	336	1	48
NMHLD	43	336	5	48
NMTAP	44	48	2
NMTAP	44	48	4
NMTAP	44	96	0
NMTAP	44	120	7
NMTAP	44	168	3
NMTAP	44	168	5
NMTAP	44	240	2
NMTAP	44	240	6
NMSTR	44	288	1
NMSI_	44	288	1	96	48	4
NMSTR	44	288	5
NMSI_	44	288	5	96	48	0
NMTAP	44	336	0
NMTAP	44	336	4
NMTAP	45	0	1
NMTAP	45	0	5
NMSTR	45	96	2
NMSI_	45	96	2	96	48	7
NMSTR	45	96	6
NMSI_	45	96	6	96	48	3
NMTAP	45	144	3
NMTAP	45	144	7
NMTAP	45	192	2
NMTAP	45	192	6
NMTAP	45	288	0
NMTAP	45	288	4
NMHLD	45	336	2	48
NMHLD	45	336	6	48
NMTAP	46	48	0
NMTAP	46	48	6
NMTAP	46	96	2
NMTAP	46	96	4
NMSTR	46	120	2
NMSCL	46	120	2	96	72	4
NMTAP	46	120	4
NMTAP	46	168	3
NMTAP	46	168	5
BRTAP	46	288	3
NMTAP	47	0	2
NMTAP	47	24	3
NMTAP	47	48	1
NMTAP	47	72	4
NMSTR	47	96	0
NMSI_	47	96	0	96	48	4
NMTAP	47	144	6
NMTAP	47	144	7
NMTAP	47	192	0
CNSLL	47	240	4	0	48	7
NMTAP	48	0	5
NMTAP	48	24	4
NMTAP	48	48	6
NMTAP	48	72	3
NMSTR	48	96	7
NMSI_	48	96	7	96	48	3
NMTAP	48	144	0
NMTAP	48	144	1
NMTAP	48	192	7
CNSLL	48	240	3	0	48	5
NMTAP	49	0	2
NMTAP	49	48	1
NMTAP	49	48	3
NMTAP	49	96	0
NMTAP	49	96	4
NMTAP	49	120	0
NMTAP	49	120	4
NMTAP	49	168	2
NMSTR	49	168	6
NMSCL	49	168	6	96	72	3
NMTAP	49	240	2
NMTAP	49	288	1
NMTAP	49	336	0
NMTAP	50	0	0
NMTAP	50	0	4
NMTAP	50	48	1
NMTAP	50	48	5
NMTAP	50	96	2
NMTAP	50	96	6
NMTAP	50	144	3
NMTAP	50	144	7
NMTAP	50	192	3
NMTAP	50	204	4
NMTAP	50	216	5
NMTAP	50	228	6
NMTAP	50	240	7
NMTAP	50	252	0
NMTAP	50	264	1
NMTAP	50	276	2
BRSTR	50	288	3
NMSCL	50	288	3	96	48	0
BRSTR	50	288	7
NMSCL	50	288	7	96	48	4
NMTAP	51	0	3
NMTAP	51	0	7
NMSTR	51	96	1
NMSCR	51	96	1	96	48	4
NMSTR	51	96	5
NMSCR	51	96	5	96	48	0
NMTAP	51	144	2
NMTAP	51	144	6
NMTAP	51	192	1
NMTAP	51	192	5
NMTAP	51	288	3
NMTAP	51	288	7
NMHLD	51	336	1	48
NMHLD	51	336	5	48
NMTAP	52	48	0
NMTAP	52	48	6
NMTAP	52	96	2
NMTAP	52	96	4
NMTAP	52	120	2
NMTAP	52	120	4
BRTAP	52	168	1
BRTAP	52	168	5
NMTAP	52	240	0
NMTAP	52	240	4
NMSTR	52	288	1
NMSCR	52	288	1	96	48	4
NMSTR	52	288	5
NMSCR	52	288	5	96	48	0
NMTAP	52	336	2
NMTAP	52	336	6
NMTAP	53	0	1
NMTAP	53	0	5
NMSTR	53	96	2
NMSCL	53	96	2	96	48	7
NMSTR	53	96	6
NMSCL	53	96	6	96	48	3
NMTAP	53	144	1
NMTAP	53	144	5
NMTAP	53	192	2
NMTAP	53	192	6
NMTAP	53	288	0
NMTAP	53	288	4
NMHLD	53	336	2	48
NMHLD	53	336	6	48
NMTAP	54	48	0
NMTAP	54	48	7
NMTAP	54	96	1
NMTAP	54	96	3
NMTAP	54	120	1
NMSTR	54	120	3
NMSCL	54	120	3	96	72	5
NMTAP	54	168	4
NMTAP	54	168	6
BRTAP	54	288	4
NMTAP	55	0	5
NMTAP	55	24	4
NMTAP	55	48	6
NMTAP	55	72	3
NMSTR	55	96	7
NMSI_	55	96	7	96	48	3
NMTAP	55	144	0
NMTAP	55	144	1
NMTAP	55	192	3
NMTAP	55	192	7
CNSLR	55	240	3	0	48	0
NMTAP	56	0	2
NMTAP	56	24	3
NMTAP	56	48	1
NMTAP	56	72	4
NMSTR	56	96	0
NMSI_	56	96	0	96	48	3
NMTAP	56	144	6
NMTAP	56	144	7
NMTAP	56	192	0
NMTAP	56	192	4
CNSLR	56	240	3	0	48	1
NMTAP	57	0	1
NMTAP	57	0	5
NMTAP	57	48	3
NMTAP	57	72	4
NMTAP	57	96	2
NMTAP	57	120	3
NMTAP	57	168	0
NMTAP	57	168	6
NMTAP	57	240	5
NMTAP	57	264	4
NMSTR	57	288	5
NMSCR	57	288	5	96	48	0
NMTAP	57	336	0
NMTAP	57	336	1
NMHLD	58	0	2	96
NMTAP	58	144	3
NMTAP	58	144	4
NMTAP	58	192	1
NMTAP	58	192	6
NMTAP	58	264	0
NMTAP	58	264	7
NMSTR	58	288	0
NMSI_	58	288	0	96	48	4
NMSTR	58	288	7
NMSI_	58	288	7	96	48	3
NMTAP	58	336	1
NMTAP	58	336	6
BRSTR	59	0	0
NMSCR	59	0	0	96	480	7
BRSTR	59	0	7
NMSCL	59	0	7	96	480	0
NMTTP	59	24	0	C	1	M1
NMTAP	60	288	1
NMSTR	60	288	7
NMSI_	60	288	7	96	48	3
NMSTR	61	0	0
NMSI_	61	0	0	96	48	4
NMTAP	61	0	7
NMTAP	61	48	1
NMTAP	61	96	0
NMTAP	61	96	6
NMTAP	61	192	3
NMSTR	61	192	5
NMSI_	61	192	5	96	48	0
NMTAP	61	240	6
NMTAP	61	288	1
NMTAP	61	288	5
NMSTR	62	0	2
NMSI_	62	0	2	96	48	7
NMTAP	62	0	3
NMTAP	62	48	1
NMTAP	62	96	2
NMSTR	62	96	4
NMSI_	62	96	4	96	48	0
NMTAP	62	144	5
NMSTR	62	192	3
NMSI_	62	192	3	96	48	7
NMTAP	62	192	4
NMTAP	62	240	2
NMTAP	62	288	3
NMSTR	62	288	5
NMSI_	62	288	5	96	48	0
NMTAP	62	336	6
NMHLD	63	0	2	96
NMTAP	63	0	5
NMHLD	63	144	1	96
NMHLD	63	144	7	96
NMSTR	63	288	0
NMSLR	63	288	0	96	96	4
NMHLD	63	288	6	96
NMTAP	64	48	7
CNSV_	64	96	4	0	96	1
NMTAP	64	96	6
NMTAP	64	144	5
NMTAP	64	192	6
NMTAP	64	240	7
NMTAP	64	288	0
NMTAP	64	288	1
NMTAP	65	0	2
NMTAP	65	48	1
NMTAP	65	48	3
NMTAP	65	96	0
NMTAP	65	120	7
NMHLD	65	168	4	48
NMHLD	65	168	6	48
NMTAP	65	240	4
NMTAP	65	240	6
NMTAP	65	288	3
NMTAP	65	288	5
NMTAP	65	336	2
NMTAP	65	336	6
EXSTR	66	0	1
NMSI_	66	0	1	96	96	4
EXSTR	66	0	7
NMSI_	66	0	7	96	96	4
CNSLL	66	192	4	0	96	0
CNSLR	66	192	4	0	96	0
NMSTR	67	0	1
NMSCR	67	0	1	96	96	5
NMHLD	67	0	3	96
NMTTP	67	192	0	C	0	M1
NMTAP	67	288	6
NMTAP	67	288	7
NMHLD	68	0	3	96
NMSTR	68	0	5
NMSLR	68	0	5	96	96	1
NMTTP	68	192	3	B	0	M1
NMTTP	68	192	3	E	0	M1
NMTAP	68	288	0
NMTAP	68	288	1
NMSTR	69	0	2
NMSCL	69	0	2	96	96	6
NMHLD	69	0	4	96
NMTTP	69	192	4	B	0	M1
NMTTP	69	192	4	E	0	M1
NMTAP	69	288	3
NMTAP	69	288	5
NMSTR	70	0	0
NMSLL	70	0	0	96	48	4
NMHLD	70	0	1	48
CNSI_	70	144	4	0	48	2
NMTTP	70	192	0	C	0	M1
NMTAP	70	288	1
NMTAP	70	288	7
NMTAP	71	0	2
NMTAP	71	0	4
NMTAP	71	48	1
NMTAP	71	96	0
NMTAP	71	96	7
NMTAP	71	144	6
NMTAP	71	192	3
NMTAP	71	192	5
NMTAP	71	240	2
NMTAP	71	240	4
NMTAP	71	288	1
NMTAP	71	288	3
NMTAP	71	336	0
NMTAP	71	336	7
NMTAP	72	0	3
NMTAP	72	0	5
NMTAP	72	48	6
NMTAP	72	96	0
NMTAP	72	96	7
NMTAP	72	144	1
NMTAP	72	192	2
NMTAP	72	192	4
NMTAP	72	240	3
NMTAP	72	240	5
NMTAP	72	288	4
NMTAP	72	288	6
NMTAP	72	336	0
NMTAP	72	336	1
NMTAP	73	0	2
NMTAP	73	24	3
NMTAP	73	48	1
NMTAP	73	72	4
NMTAP	73	96	0
NMTAP	73	120	5
NMTAP	73	144	7
NMTAP	73	168	6
NMTAP	73	192	1
NMTAP	73	216	0
NMTAP	73	240	2
NMTAP	73	264	7
NMTAP	73	288	3
NMTAP	73	312	6
NMTAP	73	336	4
NMTAP	73	360	5
NMTAP	74	0	2
NMTAP	74	24	3
NMTAP	74	48	1
NMTAP	74	72	5
NMTAP	74	96	4
NMTAP	74	120	6
NMTAP	74	144	2
NMTAP	74	168	3
NMTAP	74	192	0
NMTAP	74	216	5
NMTAP	74	240	4
NMTAP	74	264	7
NMSTR	74	288	1
NMSI_	74	288	1	96	48	5
NMTAP	74	312	5
NMTAP	74	336	3
NMTAP	74	360	7
BRTAP	75	0	1
NMTTP	75	24	0	C	1	M1

T_REC_TAP	418
T_REC_BRK	7
T_REC_XTP	2
T_REC_BXX	0
T_REC_HLD	37
T_REC_XHO	0
T_REC_BHO	1
T_REC_BXH	0
T_REC_STR	82
T_REC_BST	5
T_REC_XST	3
T_REC_XBS	0
T_REC_TTP	16
T_REC_THO	0
T_REC_SLD	93
T_REC_BSL	0
T_REC_ALL	664
T_NUM_TAP	521
T_NUM_BRK	13
T_NUM_HLD	37
T_NUM_SLD	93
T_NUM_ALL	664
T_JUDGE_TAP	533
T_JUDGE_HLD	70
T_JUDGE_SLD	93
T_JUDGE_ALL	696
TTM_EACHPAIRS	162
TTM_SCR_TAP	260500
TTM_SCR_BRK	33800
TTM_SCR_HLD	37000
TTM_SCR_SLD	139500
TTM_SCR_ALL	470800
TTM_SCR_S	455450
TTM_SCR_SS	469500
TTM_RAT_ACV	10027

