VERSION	0.00.00	1.04.00
FES_MODE	0
BPM_DEF	140.000	140.000	140.000	140.000
MET_DEF	4	4
RESOLUTION	384
CLK_DEF	384
COMPATIBLE_CODE	MA2

BPM	0	0	140.000
MET	0	0	4	4

EXHLD	3	0	2	576
EXHLD	3	0	6	576
NMTAP	4	288	3
NMTAP	4	288	4
EXHLD	5	0	1	288
EXHLD	5	0	5	288
EXHLD	6	0	2	192
EXHLD	6	0	4	192
NMTAP	6	288	2
NMTAP	6	288	4
NMTAP	7	0	3
NMHLD	7	96	3	96
NMTAP	7	192	5
NMHLD	7	288	5	96
NMTAP	8	0	2
NMHLD	8	96	2	96
NMTAP	8	192	6
NMHLD	8	288	6	96
EXTAP	9	0	1
EXTAP	9	48	1
EXTAP	9	96	7
EXTAP	9	144	7
EXTAP	9	192	0
EXTAP	9	240	0
EXTAP	9	288	0
EXSTR	9	288	7
NMSI_	9	288	7	96	96	1
CNSI_	10	96	1	0	96	5
CNSI_	10	192	5	0	96	3
BRTAP	11	0	1
BRTAP	11	0	3
NMTAP	11	96	2
NMTAP	11	192	4
NMTAP	11	192	6
NMTAP	11	288	5
NMTAP	12	0	1
NMTAP	12	0	3
NMTAP	12	96	2
NMTAP	12	192	5
NMTAP	12	240	5
NMTAP	12	288	4
NMTAP	12	288	5
NMTAP	13	0	1
NMTAP	13	0	3
NMTAP	13	96	2
NMTAP	13	192	4
NMTAP	13	192	6
NMTAP	13	288	5
NMTAP	14	0	3
NMTAP	14	0	4
NMTTP	14	96	0	B	0	M1
NMTTP	14	96	0	E	0	M1
NMTTP	14	192	6	B	0	M1
NMTTP	14	192	6	E	0	M1
NMTTP	14	288	2	B	0	M1
NMTTP	14	288	2	E	0	M1
BRTAP	15	0	4
BRTAP	15	0	6
NMTAP	15	96	5
NMTAP	15	192	1
NMTAP	15	192	3
NMTAP	15	288	2
NMTAP	16	0	4
NMTAP	16	0	6
NMTAP	16	96	5
NMTAP	16	192	2
NMTAP	16	240	2
NMTAP	16	288	2
NMTAP	16	288	3
NMTAP	17	0	4
NMTAP	17	0	5
NMTAP	17	96	5
NMTAP	17	96	6
NMTAP	17	192	6
NMTAP	17	192	7
NMTAP	17	288	0
NMSTR	17	288	7
NMSLL	17	288	7	96	192	3
NMSLR	17	288	7	96	192	3
BRTAP	18	288	2
BRTAP	18	288	4
NMHLD	19	0	1	1152
NMTAP	19	96	4
NMTAP	19	192	3
NMTAP	19	240	3
NMTAP	19	288	3
NMTAP	20	0	2
NMTAP	20	96	2
NMTAP	20	192	3
NMTAP	20	240	3
NMTAP	20	288	3
NMTAP	21	0	4
NMTAP	21	96	4
NMTAP	21	192	3
NMTAP	21	240	3
NMTAP	21	288	3
NMTAP	22	0	2
NMTAP	22	96	2
NMTAP	22	96	3
NMTAP	22	192	3
NMTAP	22	192	4
NMTAP	22	288	4
NMTAP	22	288	5
NMHLD	23	0	6	1056
NMTAP	23	96	5
NMTAP	23	192	4
NMTAP	23	240	4
NMTAP	23	288	4
NMTAP	24	0	3
NMTAP	24	96	3
NMTAP	24	192	4
NMTAP	24	240	4
NMTAP	24	288	4
NMTAP	25	0	5
NMTAP	25	96	5
NMTAP	25	192	4
NMTAP	25	240	4
NMSTR	25	288	4
NMSCR	25	288	4	96	192	0
BRTAP	26	288	0
BRTAP	26	288	5
NMHLD	27	0	1	72
NMHLD	27	72	2	72
NMHLD	27	144	3	144
NMTAP	27	240	5
NMTAP	27	288	5
NMHLD	28	0	6	72
NMHLD	28	72	5	72
NMHLD	28	144	4	144
NMTAP	28	240	2
NMTAP	28	288	2
NMTAP	29	0	2
NMTAP	29	0	3
NMTAP	29	96	0
NMTAP	29	192	4
NMTAP	29	192	5
NMTAP	29	288	7
NMHLD	30	0	0	72
NMTAP	30	0	7
NMHLD	30	72	1	72
NMTAP	30	144	2
NMTAP	30	240	3
NMTAP	30	240	4
NMTAP	30	288	3
NMTAP	30	288	4
NMHLD	31	0	5	72
NMHLD	31	72	6	72
NMHLD	31	144	7	144
NMTAP	31	240	1
NMTAP	31	288	1
NMHLD	32	0	2	72
NMHLD	32	72	1	72
NMHLD	32	144	0	144
NMTAP	32	240	6
NMTAP	32	288	6
NMTAP	33	0	6
NMTAP	33	0	7
NMTAP	33	96	4
NMTAP	33	192	0
NMTAP	33	192	1
NMTAP	33	288	3
NMTAP	34	0	3
NMTAP	34	0	4
NMTAP	34	72	3
NMTAP	34	72	4
BRTAP	34	144	2
BRTAP	34	144	5
NMHLD	35	0	1	192
NMHLD	35	0	4	192
NMTAP	35	288	2
NMTAP	35	288	3
NMHLD	36	0	3	192
NMHLD	36	0	6	192
NMTAP	36	288	4
NMTAP	36	288	5
NMHLD	37	0	0	192
NMHLD	37	0	5	192
NMTAP	37	288	6
NMTAP	37	288	7
NMTAP	38	0	0
NMSTR	38	0	1
NMSUR	38	0	1	96	192	4
BRTAP	38	288	5
NMHLD	39	0	4	96
NMHLD	39	0	6	96
NMTAP	39	144	4
NMTAP	39	144	6
NMTAP	39	240	5
NMTAP	39	288	5
NMHLD	40	0	1	96
NMHLD	40	0	3	96
NMTAP	40	144	1
NMTAP	40	144	3
NMTAP	40	240	2
NMTAP	40	288	2
NMHLD	41	0	7	96
NMHLD	41	96	6	96
NMTAP	41	192	5
NMSTR	41	288	3
NMSI_	41	288	3	96	192	0
NMSTR	41	288	4
NMSI_	41	288	4	96	192	7
BRTAP	42	288	0
BRTAP	42	288	7
NMSTR	43	0	0
NMSI_	43	0	0	96	48	4
NMSTR	43	0	1
NMSI_	43	0	1	96	48	4
NMSTR	43	192	6
NMSI_	43	192	6	96	48	3
NMSTR	43	192	7
NMSI_	43	192	7	96	48	3
NMTAP	44	0	0
NMTAP	44	0	1
NMTAP	44	96	2
NMTAP	44	96	3
NMTAP	44	192	4
NMTAP	44	192	5
NMTAP	44	288	6
NMTAP	44	288	7
NMSTR	45	0	6
NMSI_	45	0	6	96	48	3
NMSTR	45	0	7
NMSI_	45	0	7	96	48	3
NMSTR	45	192	0
NMSI_	45	192	0	96	48	4
NMSTR	45	192	1
NMSI_	45	192	1	96	48	4
NMTAP	46	0	4
NMTAP	46	0	5
NMTAP	46	96	6
NMTAP	46	96	7
NMTAP	46	192	0
NMTAP	46	192	1
NMTAP	46	288	2
NMTAP	46	288	3
NMTAP	47	0	5
NMTAP	47	24	4
NMTAP	47	48	5
NMTAP	47	72	4
NMTAP	47	96	5
EXTAP	47	192	3
EXTAP	47	192	6
BXTAP	47	264	0
BXTAP	47	264	1
NMTAP	48	0	2
NMTAP	48	24	3
NMTAP	48	48	2
NMTAP	48	72	3
NMTAP	48	96	2
EXTAP	48	192	1
EXTAP	48	192	4
BXTAP	48	264	6
BXTAP	48	264	7
NMHLD	49	0	5	96
NMHLD	49	96	4	96
NMHLD	49	192	3	96
NMTAP	49	288	2
NMTAP	50	0	3
NMTAP	50	0	4
NMTAP	50	72	3
NMTAP	50	72	4
BRTAP	50	144	1
BRTAP	50	144	6
EXTAP	50	240	0
EXTAP	50	288	0
NMSTR	51	0	6
NMSI_	51	0	6	96	48	3
NMSTR	51	0	7
NMSI_	51	0	7	96	48	3
NMSTR	51	192	0
NMSI_	51	192	0	96	48	4
NMSTR	51	192	1
NMSI_	51	192	1	96	48	4
NMTAP	52	0	6
NMTAP	52	0	7
NMTAP	52	96	4
NMTAP	52	96	5
NMTAP	52	192	2
NMTAP	52	192	3
NMTAP	52	288	0
NMTAP	52	288	1
NMSTR	53	0	0
NMSI_	53	0	0	96	48	4
NMSTR	53	0	1
NMSI_	53	0	1	96	48	4
NMSTR	53	192	6
NMSI_	53	192	6	96	48	3
NMSTR	53	192	7
NMSI_	53	192	7	96	48	3
NMTAP	54	0	2
NMTAP	54	0	3
NMTAP	54	96	0
NMTAP	54	96	1
NMTAP	54	192	6
NMTAP	54	192	7
NMTAP	54	288	4
NMTAP	54	288	5
NMTAP	55	0	2
NMTAP	55	24	3
NMTAP	55	48	2
NMTAP	55	72	3
NMTAP	55	96	2
EXTAP	55	192	1
EXTAP	55	192	4
BXTAP	55	264	6
BXTAP	55	264	7
NMTAP	56	0	5
NMTAP	56	24	4
NMTAP	56	48	5
NMTAP	56	72	4
NMTAP	56	96	5
EXTAP	56	192	3
EXTAP	56	192	6
BXTAP	56	264	0
BXTAP	56	264	1
NMHLD	57	0	2	96
NMHLD	57	96	3	96
NMHLD	57	192	4	96
NMTAP	57	288	5
NMTAP	58	0	2
NMTAP	58	0	5
NMTAP	58	144	0
NMTAP	58	144	7
NMTAP	58	192	0
NMTAP	58	192	7
NMSTR	58	264	1
BRSCL	58	264	1	96	120	6
NMTAP	58	264	6
NMTTP	58	336	0	C	1	M1
CNSUL	59	96	6	0	288	5
CNSCL	60	0	5	0	96	3
NMTAP	60	288	3
NMTAP	60	288	4
NMTAP	61	0	2
NMTAP	61	0	3
NMTAP	61	96	1
NMTAP	61	96	7
NMTAP	61	192	0
NMTAP	61	192	6
NMSTR	61	288	4
NMSXR	61	288	4	96	216	1
NMSTR	61	288	5
NMSXL	61	288	5	96	216	0
EXTAP	62	288	2
EXTAP	62	288	7
BRTAP	63	0	4
BRTAP	63	0	5
NMTAP	63	96	0
NMTAP	63	96	6
NMTAP	63	192	2
NMTAP	63	192	3
NMTAP	63	288	1
NMTAP	63	288	7
NMTAP	64	0	4
NMTAP	64	0	5
NMTAP	64	96	0
NMTAP	64	96	7
NMTAP	64	192	2
NMTAP	64	192	3
NMTAP	64	288	0
NMTAP	64	288	7
NMHLD	65	0	5	96
NMHLD	65	96	3	96
NMHLD	65	192	1	96
NMSTR	65	288	7
NMSI_	65	288	7	96	192	4
NMSSR	65	288	7	96	192	3
BRTAP	66	288	2
BRTAP	66	288	5
NMHLD	67	0	1	768
NMTAP	67	144	2
NMTAP	67	192	2
NMTAP	67	336	0
NMTAP	68	0	0
NMTAP	68	144	3
NMTAP	68	192	3
NMTAP	68	336	6
NMHLD	69	0	6	576
NMTAP	69	144	7
NMTAP	69	192	7
NMTAP	69	336	4
NMTAP	70	0	4
NMTAP	70	144	0
NMTAP	70	192	0
BRTAP	70	288	1
BRTAP	70	288	7
NMHLD	71	0	2	96
NMHLD	71	96	3	96
NMHLD	71	192	4	96
NMHLD	71	288	5	96
NMHLD	72	0	1	96
NMHLD	72	96	3	96
NMHLD	72	192	4	96
NMHLD	72	288	6	96
NMTAP	73	0	0
NMTAP	73	48	0
NMTAP	73	96	7
NMTAP	73	144	7
NMTAP	73	192	0
NMTAP	73	216	7
NMTAP	73	240	0
NMTAP	73	264	7
NMSTR	73	288	0
NMSI_	73	288	0	96	96	5
CNSI_	74	96	5	0	96	3
CNSI_	74	192	3	0	96	7
NMHLD	75	0	0	1920
NMSTR	75	0	6
NMSCL	75	0	6	96	1824	1

T_REC_TAP	233
T_REC_BRK	21
T_REC_XTP	19
T_REC_BXX	8
T_REC_HLD	52
T_REC_XHO	6
T_REC_BHO	0
T_REC_BXH	0
T_REC_STR	27
T_REC_BST	0
T_REC_XST	1
T_REC_XBS	0
T_REC_TTP	7
T_REC_THO	0
T_REC_SLD	29
T_REC_BSL	1
T_REC_ALL	404
T_NUM_TAP	287
T_NUM_BRK	30
T_NUM_HLD	58
T_NUM_SLD	29
T_NUM_ALL	404
T_JUDGE_TAP	316
T_JUDGE_HLD	268
T_JUDGE_SLD	30
T_JUDGE_ALL	614
TTM_EACHPAIRS	105
TTM_SCR_TAP	143500
TTM_SCR_BRK	78000
TTM_SCR_HLD	58000
TTM_SCR_SLD	43500
TTM_SCR_ALL	323000
TTM_SCR_S	310400
TTM_SCR_SS	320000
TTM_RAT_ACV	10093

