VERSION	0.00.00	1.04.00
FES_MODE	0
BPM_DEF	176.000	176.000	176.000	176.000
MET_DEF	4	4
RESOLUTION	384
CLK_DEF	384
COMPATIBLE_CODE	MA2

BPM	0	0	176.000
MET	0	0	4	4

NMHLD	1	192	1	96
NMTAP	1	192	3
NMTAP	1	288	2
NMSTR	1	336	2
NMSCL	1	336	2	96	96	6
NMHLD	2	192	3	192
NMTAP	2	288	4
NMHLD	3	0	5	96
NMTAP	3	96	4
NMHLD	3	192	2	96
NMTAP	3	288	7
NMSTR	3	336	7
NMSI_	3	336	7	96	96	3
NMTAP	4	240	2
NMTAP	4	288	1
NMSTR	4	336	0
NMSV_	4	336	0	96	96	3
NMTAP	5	192	5
NMTAP	5	288	0
NMTAP	5	288	7
NMTAP	5	336	0
NMTAP	5	336	7
NMTAP	6	96	5
NMTAP	6	192	2
NMHLD	6	192	3	96
NMTAP	6	288	0
NMHLD	6	336	0	96
NMTAP	7	48	2
NMTAP	7	96	2
NMTAP	7	192	4
NMTAP	7	240	4
NMTAP	7	288	2
NMTAP	7	336	1
NMTAP	8	0	0
NMSTR	8	0	6
NMSLL	8	0	6	96	96	2
NMTAP	8	240	0
NMHLD	8	336	2	144
NMHLD	8	336	6	144
NMTAP	9	192	3
NMTAP	9	192	5
NMSTR	9	240	4
NMSCL	9	240	4	96	48	1
BRTAP	9	336	4
BRTAP	9	336	6
NMTAP	10	96	0
NMTAP	10	96	6
NMTAP	10	192	3
NMTAP	10	192	5
NMTAP	10	240	3
NMSTR	10	240	5
NMSI_	10	240	5	96	48	2
NMTAP	10	336	1
NMTAP	11	48	0
NMTAP	11	96	1
NMHLD	11	144	2	96
NMSTR	11	240	3
NMSI_	11	240	3	96	48	0
NMTAP	11	288	4
NMTAP	11	336	5
NMTAP	12	48	6
NMTAP	12	48	7
NMTAP	12	96	6
NMTAP	12	96	7
NMTAP	12	144	1
NMTAP	12	144	4
NMTAP	12	240	2
NMTAP	12	240	3
NMTAP	12	288	2
NMTAP	12	288	3
BRSTR	12	336	1
NMSI_	12	336	1	96	48	4
NMTAP	13	48	1
BRSTR	13	48	6
NMSI_	13	48	6	96	48	2
BRSTR	13	144	0
NMSI_	13	144	0	96	48	4
NMTAP	13	144	6
NMTAP	13	240	0
NMHLD	13	336	6	96
NMTAP	14	48	4
NMTAP	14	96	3
NMHLD	14	144	2	96
NMTAP	14	240	3
NMTAP	14	288	4
NMHLD	14	336	5	96
NMHLD	15	48	6	96
NMSTR	15	144	7
NMSCL	15	144	7	96	48	4
NMTAP	15	240	0
NMTAP	15	288	0
NMTAP	16	0	1
NMTAP	16	0	4
NMTAP	16	48	2
NMTAP	16	72	3
NMTAP	16	96	2
NMTAP	16	144	1
NMTAP	16	144	4
EXTAP	16	240	0
EXTAP	16	240	7
NMHLD	17	0	1	672
NMTAP	17	96	3
NMTAP	17	192	3
NMTAP	17	288	3
NMTAP	18	0	2
NMTAP	18	96	0
NMTAP	18	192	7
NMTAP	18	288	6
NMTAP	19	0	3
NMHLD	19	0	5	288
NMTAP	19	96	3
NMTAP	19	192	4
NMTAP	19	288	4
NMTAP	20	0	3
NMTAP	20	0	6
NMTAP	20	48	3
NMTAP	20	48	6
NMTAP	20	144	2
NMTAP	20	144	7
NMTAP	20	240	2
NMTAP	20	240	3
NMTAP	20	336	1
NMTAP	20	336	4
NMHLD	21	96	5	192
NMTAP	21	192	0
NMTAP	21	288	1
NMHLD	21	336	1	240
NMTTP	22	96	3	B	0	M1
NMTTP	22	96	3	E	0	M1
NMTTP	22	96	4	E	0	M1
NMTAP	22	192	7
NMTAP	22	288	6
NMHLD	22	336	6	144
NMHLD	23	96	4	96
NMTAP	23	192	3
NMTAP	23	288	2
NMTAP	23	288	4
NMTAP	24	0	1
NMTAP	24	0	5
NMTAP	24	48	1
NMSTR	24	48	5
NMSI_	24	48	5	96	48	1
NMTAP	24	144	3
NMTAP	24	288	1
NMTAP	24	288	3
NMHLD	25	0	2	576
NMTAP	25	96	0
NMTAP	25	144	0
NMSTR	25	240	1
NMSSR	25	240	1	96	192	5
NMTAP	26	288	3
NMTAP	26	288	4
NMHLD	27	0	5	288
NMTAP	27	96	7
NMTAP	27	144	7
NMTAP	27	240	4
NMTAP	27	288	4
NMTAP	28	0	3
NMTAP	28	0	6
NMTAP	28	48	3
NMTAP	28	48	6
NMTAP	28	144	2
NMTAP	28	144	3
NMTAP	28	240	1
NMTAP	28	240	4
EXTAP	28	336	6
EXTAP	28	336	7
NMHLD	29	96	5	192
NMTAP	29	192	7
NMTAP	29	240	0
NMTAP	29	288	1
NMHLD	29	336	2	144
NMTTP	30	96	6	B	0	M1
NMTTP	30	96	7	B	0	M1
NMTTP	30	96	7	E	0	M1
NMTAP	30	192	2
NMTAP	30	240	3
NMTAP	30	288	4
NMTAP	30	336	3
NMHLD	30	336	5	144
NMTAP	31	96	4
NMTAP	31	192	6
NMTAP	31	192	7
NMTAP	31	240	6
NMSTR	31	240	7
BRSI_	31	240	7	96	48	4
BXTAP	31	336	7
NMTAP	32	96	4
NMTAP	32	96	6
NMSTR	32	192	4
NMSI_	32	192	4	96	48	2
NMTAP	32	192	5
NMTAP	32	288	6
NMTAP	33	0	1
NMSTR	33	0	7
NMSI_	33	0	7	96	48	5
NMTAP	33	96	2
NMSTR	33	192	1
NMSI_	33	192	1	96	48	7
NMTAP	33	192	4
NMTAP	33	288	3
NMSTR	34	0	3
NMSI_	34	0	3	96	48	5
NMTAP	34	96	0
NMTAP	34	192	1
NMTAP	34	192	7
NMTAP	34	240	1
NMTAP	34	240	7
NMSTR	34	336	2
NMSCL	34	336	2	96	96	7
NMSTR	35	48	7
NMSCL	35	48	7	96	96	4
NMTAP	35	144	4
NMTAP	35	240	7
NMTAP	35	288	7
NMTAP	36	0	2
NMHLD	36	0	5	288
NMTAP	36	96	4
NMTAP	36	192	3
NMTTP	36	288	4	E	0	M1
NMHLD	37	0	6	96
NMHLD	37	96	5	96
NMHLD	37	192	4	96
NMTAP	37	288	3
NMSTR	38	0	2
NMSCL	38	0	2	96	96	6
NMSTR	38	96	6
NMSCL	38	96	6	96	96	2
NMTAP	38	192	2
NMTAP	38	288	7
BXTAP	38	336	7
NMTAP	39	48	6
NMTAP	39	72	4
NMTAP	39	96	6
NMTAP	39	120	4
NMTAP	39	144	6
NMTAP	39	168	4
NMTTP	39	192	5	B	0	M1
NMTAP	39	336	0
NMHLD	39	336	7	96
NMTAP	40	48	4
NMSTR	40	96	4
NMSI_	40	96	4	96	48	1
NMSTR	40	144	4
NMSI_	40	144	4	96	48	7
EXTAP	40	192	4
EXTAP	40	240	4
NMTAP	40	336	0
NMTAP	41	48	1
NMTAP	41	48	5
NMTAP	41	144	2
NMTAP	41	168	4
NMTAP	41	192	2
NMSTR	41	240	1
NMSCR	41	240	1	96	48	4
NMTAP	41	288	7
NMTAP	41	336	1
NMSTR	42	48	5
NMSCL	42	48	5	96	48	2
NMTAP	42	96	7
NMTAP	42	144	5
NMSTR	42	240	1
NMSLR	42	240	1	96	96	5
NMTAP	42	288	7
NMTAP	42	336	1
NMTAP	43	48	0
NMTAP	43	96	7
NMHLD	43	144	6	96
NMTAP	43	240	3
NMHLD	43	336	5	288
NMTAP	44	48	4
NMTAP	44	96	3
NMTAP	44	144	2
NMTAP	44	192	1
NMHLD	44	240	0	96
NMTAP	44	336	7
NMTAP	45	48	1
NMTAP	45	96	2
NMSTR	45	144	5
NMSI_	45	144	5	96	48	2
NMTAP	45	240	5
NMHLD	45	336	1	576
NMTTP	46	48	3	E	0	M1
NMTTP	46	96	2	E	0	M1
NMTTP	46	144	1	E	0	M1
NMTTP	46	192	0	E	0	M1
NMTTP	46	240	7	E	0	M1
NMTTP	46	288	6	E	0	M1
NMTTP	46	336	5	E	0	M1
NMTTP	47	48	1	E	0	M1
NMTTP	47	96	2	E	0	M1
NMTTP	47	144	3	E	0	M1
NMTAP	47	288	0
NMTAP	47	288	6
NMHLD	47	336	0	144
NMTAP	47	336	6
NMTAP	48	48	3
NMSTR	48	96	3
NMSI_	48	96	3	96	48	6
NMSTR	48	144	3
NMSI_	48	144	3	96	48	0
EXTAP	48	192	3
EXTAP	48	240	3
NMTAP	48	336	7
NMTAP	49	48	2
NMTAP	49	48	6
NMTAP	49	144	5
NMTAP	49	168	3
NMTAP	49	192	5
NMSTR	49	240	6
NMSCL	49	240	6	96	48	3
NMTAP	49	288	0
NMTAP	49	336	6
NMSTR	50	48	2
NMSCR	50	48	2	96	48	5
NMTAP	50	96	0
NMTAP	50	144	2
NMSTR	50	240	6
NMSI_	50	240	6	96	48	3
NMTAP	50	288	0
NMTAP	50	336	6
NMTAP	51	48	1
NMTAP	51	96	0
NMTAP	51	144	6
NMTAP	51	144	7
NMTAP	51	240	3
NMTAP	51	240	5
NMHLD	51	336	1	288
NMTAP	52	48	3
NMTAP	52	96	2
NMTAP	52	144	0
NMTAP	52	192	7
NMTAP	52	240	6
NMTAP	52	336	4
NMTAP	52	336	5
NMTAP	53	48	3
NMTAP	53	48	6
NMTAP	53	96	3
NMTAP	53	96	6
BXSTR	53	144	0
NMSI_	53	144	0	96	48	5
NMSI_	53	144	0	96	48	6
BXSTR	53	240	0
NMSI_	53	240	0	96	48	2
NMSI_	53	240	0	96	48	3
BXTAP	53	336	0
NMTAP	54	96	4
NMTAP	54	192	1
NMTAP	54	240	2
NMTAP	54	288	3
NMTAP	54	288	5
BRHLD	54	336	3	288
BRSTR	54	336	5
NMSCL	54	336	5	96	48	4
CNSI_	55	96	4	0	48	2
CNSUR	55	144	2	0	96	7
NMTAP	55	336	1
NMTAP	55	360	0
NMTAP	56	0	1
NMTAP	56	48	6
NMTAP	56	72	7
NMTAP	56	96	6
NMTAP	56	144	1
NMTAP	56	168	3
NMTAP	56	192	1
NMTAP	56	240	6
NMTAP	56	264	4
NMTAP	56	288	6
NMTAP	56	336	0
NMTAP	56	336	7
NMTAP	57	48	2
NMTAP	57	72	3
NMTAP	57	96	2
NMTAP	57	144	1
NMTAP	57	144	4
NMTAP	57	192	0
NMTAP	57	192	5
NMSTR	57	240	0
NMSI_	57	240	0	96	48	3
NMTAP	57	240	5
EXTAP	57	336	0
NMTAP	58	48	5
NMTAP	58	72	4
NMTAP	58	96	5
NMHLD	58	144	6	96
NMTAP	58	240	7
NMSTR	58	288	0
NMSI_	58	288	0	96	48	4
NMTAP	58	288	7
EXTAP	59	0	0
EXTAP	59	0	1
NMTAP	59	96	2
NMTAP	59	120	3
NMTAP	59	144	2
NMTAP	59	168	3
NMTAP	59	192	1
NMSTR	59	240	0
NMSI_	59	240	0	96	48	4
NMTAP	59	288	4
NMTAP	59	336	0
NMTAP	60	0	5
NMTAP	60	96	6
NMTAP	60	96	7
NMTAP	60	192	0
NMTAP	60	192	1
NMTAP	60	288	2
NMTAP	60	288	3
NMTAP	61	0	4
NMTAP	61	0	5
NMTAP	61	48	6
NMTAP	61	72	3
NMTAP	61	96	6
NMTAP	61	120	3
NMTAP	61	144	7
NMTAP	61	168	2
NMTAP	61	192	7
NMTAP	61	216	2
NMTAP	61	240	0
NMTAP	61	264	1
NMTAP	61	288	0
NMTAP	61	312	1
BXHLD	61	336	7	384
NMTHO	62	144	0	192	C	1	M1
EXTAP	64	288	0
EXTAP	64	288	7
BXTAP	64	336	0
BXTAP	64	336	7
NMSTR	65	48	6
NMSCL	65	48	6	96	48	3
NMTAP	65	96	7
NMTAP	65	144	6
NMSTR	65	240	1
NMSCR	65	240	1	96	48	4
NMTAP	65	288	0
NMTAP	65	336	1
NMTAP	66	48	5
NMTAP	66	96	5
NMTAP	66	144	6
NMTAP	66	144	7
NMTAP	66	240	0
NMTAP	66	240	5
NMHLD	66	336	1	288
NMTAP	67	48	3
NMTAP	67	96	2
NMTAP	67	144	0
NMTAP	67	192	7
NMTAP	67	240	6
NMTAP	67	336	3
NMTAP	67	336	5
NMTAP	68	48	2
NMTAP	68	96	2
NMTAP	68	144	1
NMTAP	68	144	3
NMTAP	68	240	5
NMTAP	68	336	4
NMHLD	68	336	6	576
NMTTP	69	48	4	E	0	M1
NMTTP	69	96	5	E	0	M1
NMTTP	69	144	6	E	0	M1
NMTTP	69	192	7	E	0	M1
NMTTP	69	240	0	E	0	M1
NMTTP	69	288	1	E	0	M1
NMTTP	69	336	2	E	0	M1
NMTTP	70	48	7	E	0	M1
NMTTP	70	96	6	E	0	M1
NMTTP	70	144	5	E	0	M1
NMTAP	70	288	3
NMTAP	70	288	6
NMTAP	70	336	3
NMSTR	70	336	6
NMSCR	70	336	6	96	192	3
NMTAP	71	48	4
NMTAP	71	96	4
NMTAP	71	144	4
NMTAP	71	192	4
NMTAP	71	240	4
NMTAP	71	336	2
NMTAP	71	336	6
NMTAP	72	48	0
NMTAP	72	48	4
NMTAP	72	144	1
NMTAP	72	168	3
NMTAP	72	192	1
NMSTR	72	240	2
NMSCL	72	240	2	96	48	7
NMTAP	72	288	4
NMTAP	72	336	2
NMSTR	73	48	6
NMSCR	73	48	6	96	48	1
NMTAP	73	96	4
NMTAP	73	144	6
NMSTR	73	240	2
NMSI_	73	240	2	96	48	7
NMTAP	73	288	4
NMTAP	73	336	2
NMTAP	74	48	5
NMTAP	74	96	5
NMSTR	74	144	6
NMSI_	74	144	6	96	48	2
NMSTR	74	144	7
NMSI_	74	144	7	96	48	3
EXTAP	74	240	6
EXTAP	74	240	7
NMTAP	74	336	1
NMHLD	74	336	4	288
NMTAP	75	48	2
NMTAP	75	96	3
NMTAP	75	144	5
NMTAP	75	192	6
NMTAP	75	240	7
NMTAP	75	336	0
NMTAP	75	336	5
NMTAP	76	48	1
NMTAP	76	48	6
NMTAP	76	96	1
NMTAP	76	96	6
BXSTR	76	144	0
BRSI_	76	144	0	96	48	5
BXSTR	76	144	7
BRSI_	76	144	7	96	48	5
BXSTR	76	240	0
BRSI_	76	240	0	96	48	2
BXSTR	76	240	7
BRSI_	76	240	7	96	48	2
BXTAP	76	336	0
BXTAP	76	336	7
NMTAP	77	96	0
NMTAP	77	96	7
NMTAP	77	192	6
NMTAP	77	192	7
NMTAP	77	240	4
NMTAP	77	240	5
NMTAP	77	288	2
NMTAP	77	288	3
NMHLD	77	336	0	144
NMHLD	77	336	1	144
EXTAP	78	192	2
EXTAP	78	192	6
EXSTR	78	240	2
NMSCL	78	240	2	96	48	7
EXTAP	78	240	6
BRTAP	78	336	2
BRTAP	78	336	4
NMTAP	79	96	0
NMTAP	79	96	6
NMTAP	79	192	7
NMTAP	79	240	2
NMSTR	79	240	6
NMSI_	79	240	6	96	48	2
NMTAP	79	336	1
EXTAP	79	336	6
NMSTR	80	48	0
NMSI_	80	48	0	96	48	3
NMTAP	80	96	1
EXTAP	80	144	0
NMTAP	80	144	7
NMSTR	80	240	5
NMSI_	80	240	5	96	48	2
NMTAP	80	288	6
NMTAP	80	336	2
EXTAP	80	336	5
NMTAP	81	48	1
NMTAP	81	72	0
NMTAP	81	96	1
NMTAP	81	144	3
NMTAP	81	144	5
NMTAP	81	240	6
NMTAP	81	264	7
NMTAP	81	288	6
NMTAP	81	336	2
NMTAP	81	336	4
NMTAP	82	48	0
NMTAP	82	72	7
NMTAP	82	96	0
NMTAP	82	144	1
NMTAP	82	144	5
NMSTR	82	240	2
NMSI_	82	240	2	96	48	0
NMTAP	82	240	4
EXTAP	82	336	2
NMTAP	83	48	6
NMTAP	83	72	4
NMTAP	83	96	6
NMTAP	83	144	7
NMTAP	83	192	0
NMTAP	83	240	1
NMTAP	83	264	3
NMTAP	83	288	1
NMHLD	83	336	5	96
NMTTP	84	48	3	E	0	M1
NMTTP	84	72	4	E	0	M1
NMTTP	84	96	5	E	0	M1
NMTAP	84	144	3
NMHLD	84	144	7	96
EXSTR	84	240	4
NMSUL	84	240	4	96	96	3
EXTAP	84	288	4
NMTAP	85	144	5
NMTAP	85	168	4
NMTAP	85	192	5
NMTAP	85	216	4
NMTAP	85	240	6
NMTAP	85	264	3
NMTAP	85	288	7
NMTAP	85	312	2
NMHLD	85	336	0	192
NMTAP	86	48	3
NMTAP	86	96	2
NMHLD	86	144	1	96
NMTAP	86	240	2
NMTAP	86	288	3
NMTAP	86	336	1
NMTAP	86	336	4
NMTAP	87	96	6
NMTAP	87	96	7
NMTAP	87	144	0
NMTAP	87	168	1
NMTAP	87	192	2
NMTAP	87	216	3
NMTAP	87	240	4
NMTAP	87	264	5
NMTAP	87	288	6
NMTAP	87	312	7
NMHLD	87	336	0	96
NMTAP	88	48	5
NMTAP	88	96	5
NMTAP	88	144	3
NMTAP	88	144	6
NMSTR	88	240	1
NMSCR	88	240	1	96	48	5
NMTAP	88	264	0
NMTAP	88	288	1
BRTAP	88	336	5
NMSTR	89	48	6
NMSCL	89	48	6	96	48	2
NMTAP	89	72	7
NMTAP	89	96	6
BRTAP	89	144	2
NMSTR	89	240	0
BRSI_	89	240	0	96	48	4
NMTAP	89	264	7
NMTAP	89	288	0
BXSTR	89	336	0
BRSI_	89	336	0	96	48	6
BXSTR	90	48	0
BRSI_	90	48	0	96	48	2
BXSTR	90	144	0
BRSF_	90	144	0	96	48	4
BXTAP	90	240	0
NMHLD	90	336	2	96
NMTAP	90	336	6
NMTAP	91	48	0
NMTAP	91	96	7
NMHLD	91	144	6	96
NMTAP	91	240	5
NMTAP	91	288	4
NMHLD	91	336	3	96
NMTAP	92	48	2
NMTAP	92	96	1
NMHLD	92	144	0	144
NMTAP	92	288	7
NMTAP	93	0	1
NMTAP	93	0	6
NMTAP	93	48	4
NMTAP	93	72	3
NMTAP	93	96	4
BRSTR	93	144	2
BRSI_	93	144	2	96	48	7
BRSTR	93	144	5
BRSI_	93	144	5	96	48	2
BXTAP	93	240	2
BXTAP	93	240	5

T_REC_TAP	415
T_REC_BRK	6
T_REC_XTP	23
T_REC_BXX	10
T_REC_HLD	50
T_REC_XHO	0
T_REC_BHO	1
T_REC_BXH	1
T_REC_STR	48
T_REC_BST	6
T_REC_XST	2
T_REC_XBS	9
T_REC_TTP	31
T_REC_THO	1
T_REC_SLD	56
T_REC_BSL	11
T_REC_ALL	670
T_NUM_TAP	519
T_NUM_BRK	44
T_NUM_HLD	51
T_NUM_SLD	56
T_NUM_ALL	670
T_JUDGE_TAP	550
T_JUDGE_HLD	208
T_JUDGE_SLD	67
T_JUDGE_ALL	825
TTM_EACHPAIRS	114
TTM_SCR_TAP	259500
TTM_SCR_BRK	114400
TTM_SCR_HLD	51000
TTM_SCR_SLD	84000
TTM_SCR_ALL	508900
TTM_SCR_S	489400
TTM_SCR_SS	504500
TTM_RAT_ACV	10087

