VERSION	0.00.00	1.04.00
FES_MODE	0
BPM_DEF	176.000	176.000	176.000	176.000
MET_DEF	4	4
RESOLUTION	384
CLK_DEF	384
COMPATIBLE_CODE	MA2

BPM	0	0	176.000
MET	0	0	4	4

EXHLD	1	336	2	528
EXTAP	1	336	6
NMTAP	2	192	5
NMTAP	2	288	5
NMTAP	3	0	4
NMTAP	3	96	4
NMTAP	3	192	2
NMTAP	3	192	3
EXTAP	3	336	1
EXHLD	3	336	5	528
NMTAP	4	192	2
NMTAP	4	288	2
NMTAP	5	0	3
NMTAP	5	96	3
NMTAP	5	192	4
NMTAP	5	192	5
EXHLD	5	336	2	528
EXTAP	5	336	6
NMTAP	6	192	5
NMTAP	6	288	5
NMTAP	7	0	4
NMTAP	7	96	4
NMTAP	7	192	3
NMTAP	7	240	3
NMTAP	7	288	2
NMTAP	7	336	2
NMHLD	8	0	1	96
NMHLD	8	0	4	96
NMTAP	8	192	2
NMTAP	8	192	3
NMTAP	8	240	2
NMTAP	8	240	3
EXSTR	8	336	1
NMSCR	8	336	1	96	144	6
NMTAP	9	336	3
NMTAP	9	336	4
BXTAP	10	96	1
BXTAP	10	96	7
NMTAP	10	192	2
NMTAP	10	240	2
NMHLD	10	336	3	96
NMTAP	10	336	6
NMTAP	11	48	5
NMTAP	11	144	1
NMHLD	11	144	4	96
NMTAP	11	240	2
EXTAP	11	336	3
EXTAP	11	336	5
NMTAP	12	48	6
NMTAP	12	96	6
EXTAP	12	144	6
EXTAP	12	144	7
NMTAP	12	240	1
NMTAP	12	288	1
EXTAP	12	336	0
EXTAP	12	336	1
EXTAP	13	48	2
EXTAP	13	48	3
EXTAP	13	144	4
EXTAP	13	144	5
BXTAP	13	240	6
BXTAP	13	240	7
EXSTR	13	336	1
NMSCR	13	336	1	96	96	4
NMSTR	14	144	7
NMSCL	14	144	7	96	96	4
NMSTR	14	336	0
NMSCR	14	336	0	96	96	3
NMHLD	15	144	6	144
NMTAP	15	240	4
NMTAP	15	288	4
EXTAP	16	0	3
EXHLD	16	0	7	144
NMTAP	16	96	2
NMTAP	16	144	2
BXTAP	16	240	0
BXTAP	16	240	6
NMTTP	17	0	6	E	0	M1
NMTTP	17	96	5	E	0	M1
NMTTP	17	192	4	E	0	M1
NMTTP	17	288	3	E	0	M1
NMTTP	18	0	2	E	0	M1
NMTTP	18	96	1	E	0	M1
NMTTP	18	192	0	C	0	M1
NMTTP	18	192	4	B	0	M1
NMTTP	18	192	5	B	0	M1
NMTTP	19	0	2	E	0	M1
NMTTP	19	96	3	E	0	M1
NMTTP	19	192	4	E	0	M1
NMTTP	19	288	5	E	0	M1
EXHLD	20	0	6	240
EXTAP	20	144	4
EXTAP	20	240	4
EXTAP	20	336	3
EXTAP	20	336	7
NMTAP	21	96	1
NMTAP	21	96	6
NMTAP	21	192	5
NMTAP	21	240	5
NMTAP	21	288	4
NMHLD	21	336	6	144
NMTAP	22	48	5
NMTAP	22	96	5
NMTAP	22	192	2
NMTAP	22	240	2
NMTAP	22	288	3
NMHLD	22	336	1	144
NMTAP	23	48	2
NMTAP	23	96	2
NMTAP	23	192	3
NMTAP	23	288	4
EXTAP	24	0	3
EXTAP	24	0	6
EXTAP	24	48	3
EXTAP	24	48	6
BXTAP	24	144	2
BXTAP	24	144	5
NMTAP	25	0	2
NMTAP	25	96	3
NMTAP	25	96	4
NMTAP	25	144	3
NMTAP	25	144	4
NMTAP	25	240	4
NMHLD	25	240	5	288
NMTAP	25	336	3
NMTAP	26	48	2
NMTAP	26	144	3
NMTAP	26	240	3
NMTAP	26	240	6
NMTAP	27	0	5
NMTAP	27	96	3
NMTAP	27	96	4
NMTAP	27	144	3
NMTAP	27	144	4
NMTAP	27	240	2
NMTAP	27	288	2
EXHLD	28	0	1	240
EXTAP	28	0	3
EXTAP	28	144	2
EXTAP	28	240	2
EXTAP	28	336	0
EXTAP	28	336	3
NMTAP	29	96	1
NMTAP	29	96	6
NMTAP	29	192	2
NMTAP	29	240	2
NMTAP	29	288	3
NMHLD	29	336	1	144
NMTAP	30	48	4
NMTAP	30	96	4
NMTAP	30	192	5
NMTAP	30	240	5
NMTAP	30	288	4
NMHLD	30	336	6	144
NMTAP	31	48	3
NMSTR	31	96	3
NMSCL	31	96	3	96	96	0
BXHLD	31	336	7	528
NMTAP	32	96	0
NMTAP	32	192	4
NMTAP	32	288	6
NMTAP	33	0	3
NMTAP	33	96	1
NMTAP	33	192	2
NMTAP	33	240	2
NMTAP	33	288	4
NMHLD	34	0	3	96
NMHLD	34	96	2	96
NMHLD	34	192	1	96
NMTAP	34	288	0
NMSTR	34	336	0
NMSCL	34	336	0	96	96	4
NMTAP	35	240	1
NMTAP	35	240	3
NMTAP	35	288	1
NMTAP	35	288	3
EXHLD	36	0	0	480
NMTAP	36	96	7
NMTAP	36	192	3
NMTAP	36	288	1
NMTAP	37	0	4
NMTAP	37	96	6
NMTAP	37	192	5
NMTAP	37	240	5
NMTAP	37	288	3
NMTAP	38	0	4
NMTAP	38	0	5
NMTAP	38	96	3
NMSTR	38	144	3
NMSCL	38	144	3	96	96	0
NMTAP	38	288	7
NMSTR	38	336	7
NMSCL	38	336	7	96	144	3
EXHLD	39	336	0	288
EXTAP	39	336	3
NMTAP	40	48	2
NMTAP	40	96	2
NMTAP	40	144	2
NMTAP	40	192	2
NMSTR	40	240	2
NMSI_	40	240	2	96	48	6
NMSTR	40	336	0
NMSI_	40	336	0	96	48	4
NMTAP	41	144	5
NMTAP	41	192	5
NMTAP	41	240	5
EXTAP	41	336	4
EXTAP	41	336	6
NMTAP	42	48	2
EXTAP	42	144	1
EXTAP	42	144	3
NMTAP	42	240	5
EXTAP	42	336	4
EXHLD	42	336	6	96
NMHLD	43	48	7	96
NMHLD	43	144	0	96
NMSTR	43	240	1
NMSI_	43	240	1	96	48	4
BXTAP	43	336	7
NMTAP	44	48	6
NMTAP	44	96	6
NMTAP	44	144	4
NMTAP	44	144	6
NMHLD	44	240	7	96
NMTAP	44	336	0
NMTAP	45	48	1
NMTAP	45	48	2
NMTAP	45	144	3
NMTAP	45	144	4
NMTAP	45	240	5
NMTAP	45	240	6
BXHLD	45	336	0	384
BXTAP	45	336	7
NMTAP	46	48	1
NMTAP	46	96	1
NMTAP	46	144	1
NMTAP	46	192	1
NMTAP	46	240	2
NMTAP	46	288	2
NMTAP	46	336	2
NMTAP	47	48	1
NMTAP	47	48	3
NMSTR	47	96	1
NMSI_	47	96	1	96	48	4
NMSTR	47	96	3
NMSI_	47	96	3	96	48	6
EXTAP	47	336	0
EXHLD	47	336	7	288
NMTAP	48	48	5
NMTAP	48	96	5
NMTAP	48	144	5
NMTAP	48	192	5
NMSTR	48	240	5
NMSI_	48	240	5	96	48	1
NMSTR	48	336	7
NMSI_	48	336	7	96	48	3
NMTAP	49	144	2
NMTAP	49	192	2
NMTAP	49	240	2
EXTAP	49	336	1
EXTAP	49	336	3
NMTAP	50	48	5
EXTAP	50	144	4
EXTAP	50	144	6
NMTAP	50	240	2
EXHLD	50	336	1	96
EXTAP	50	336	3
NMHLD	51	48	0	96
NMHLD	51	144	7	96
NMSTR	51	240	6
NMSI_	51	240	6	96	48	3
BXTAP	51	336	0
NMTAP	52	48	1
NMTAP	52	96	1
NMTAP	52	144	1
NMTAP	52	144	3
NMHLD	52	240	0	96
NMTAP	52	336	7
NMTAP	53	48	5
NMTAP	53	48	6
NMTAP	53	144	3
NMTAP	53	144	4
NMTAP	53	240	1
NMTAP	53	240	2
NMTAP	53	336	0
NMTAP	53	336	7
NMTAP	54	48	1
NMTAP	54	48	6
EXTAP	54	96	1
EXSTR	54	96	6
NMSCL	54	96	6	96	96	2
BRTAP	54	336	0
EXTAP	54	336	1
NMTAP	55	96	2
NMTAP	55	96	4
NMTAP	55	192	5
NMTAP	55	240	5
NMTAP	55	288	4
NMHLD	56	0	6	96
NMHLD	56	96	0	96
NMHLD	56	192	2	96
NMTAP	56	288	4
NMTAP	57	0	5
NMTAP	57	48	5
NMTAP	57	96	4
NMTAP	57	96	6
NMTAP	57	192	3
NMTAP	57	192	4
NMTAP	57	240	3
NMTAP	57	240	4
BXTAP	57	336	2
BXTAP	57	336	7
NMTAP	58	48	6
NMTAP	58	96	6
NMTAP	58	144	4
NMTAP	58	240	3
NMTAP	58	240	4
NMTAP	58	288	3
NMTAP	58	288	4
EXTAP	59	0	2
EXHLD	59	0	7	96
NMTAP	59	96	4
NMTAP	59	192	6
NMTAP	59	192	7
NMTAP	59	240	6
NMTAP	59	240	7
NMTAP	59	288	6
NMTAP	59	288	7
EXHLD	60	0	0	96
EXTAP	60	0	5
NMTAP	60	96	3
NMTAP	60	192	0
NMTAP	60	192	1
NMTAP	60	240	0
NMTAP	60	240	1
NMTAP	60	288	0
NMTAP	60	288	1
NMTAP	61	0	2
NMTAP	61	48	2
NMTAP	61	96	5
NMTAP	61	144	5
NMTAP	61	192	3
NMTAP	61	240	3
NMTAP	61	288	7
NMSTR	61	336	7
NMSCL	61	336	7	96	96	2
EXTAP	62	144	0
EXTAP	62	240	1
EXTAP	62	240	7
BRSTR	62	336	2
NMSV_	62	336	2	96	528	0
BRSTR	62	336	6
NMSV_	62	336	6	96	528	4
EXHLD	64	336	3	96
EXHLD	64	336	6	96
EXHLD	65	144	1	96
EXHLD	65	144	4	96
EXTAP	65	336	3
EXHLD	65	336	6	96
NMHLD	66	48	7	96
NMHLD	66	144	0	96
NMSTR	66	240	1
NMSI_	66	240	1	96	48	4
BXTAP	66	336	7
NMTAP	67	48	6
NMTAP	67	96	6
NMTAP	67	144	4
NMTAP	67	144	6
NMHLD	67	240	7	192
NMTAP	67	336	5
NMHLD	68	48	0	192
NMTAP	68	144	2
NMTAP	68	240	7
BXTAP	68	336	4
BXHLD	68	336	6	384
NMTAP	69	48	5
NMTAP	69	96	5
NMTAP	69	144	5
NMTAP	69	192	5
NMTAP	69	240	4
NMTAP	69	288	4
NMTAP	69	336	4
NMTAP	70	48	3
NMTAP	70	48	7
NMSTR	70	96	3
NMSI_	70	96	3	96	48	0
NMSTR	70	96	7
NMSI_	70	96	7	96	48	4
EXTAP	70	336	1
EXTAP	70	336	3
NMTAP	71	48	2
NMTAP	71	48	3
NMTAP	71	96	2
NMTAP	71	96	3
NMTAP	71	192	4
NMTAP	71	192	6
NMTAP	71	288	1
NMTAP	71	288	3
NMTAP	72	0	4
NMTAP	72	0	6
NMTAP	72	96	1
NMTAP	72	96	3
NMTAP	72	192	4
NMTAP	72	192	6
NMTAP	72	288	2
NMTAP	72	288	7
EXTAP	72	336	2
EXSTR	72	336	7
NMSI_	72	336	7	96	48	3
EXSTR	73	144	0
NMSI_	73	144	0	96	48	4
EXTAP	73	144	5
EXHLD	73	336	6	96
NMHLD	74	48	4	96
NMHLD	74	144	2	96
NMSTR	74	240	0
NMSI_	74	240	0	96	48	4
BXTAP	74	336	7
NMTAP	75	48	6
NMTAP	75	96	6
NMTAP	75	144	4
NMTAP	75	144	6
NMHLD	75	240	7	96
NMTAP	75	336	0
NMTAP	76	48	1
NMTAP	76	48	2
NMTAP	76	144	3
NMTAP	76	144	4
NMTAP	76	240	5
NMTAP	76	240	6
EXSTR	76	336	0
NMSI_	76	336	0	96	48	3
EXSTR	76	336	7
NMSI_	76	336	7	96	48	4
NMTAP	77	192	5
NMTAP	77	240	4
NMTAP	77	288	3
EXSTR	77	336	2
NMSCR	77	336	2	96	144	7
NMTAP	78	336	3
NMTAP	78	336	4
BXTAP	79	96	0
BXTAP	79	96	6
NMTAP	79	192	2
NMTAP	79	240	2
NMTAP	79	336	1
NMTAP	79	336	3
NMTAP	80	48	5
NMTAP	80	144	4
NMTAP	80	144	6
NMTAP	80	240	2
EXSTR	80	336	1
NMSI_	80	336	1	96	48	5
NMTAP	80	336	3
EXSTR	81	144	6
NMSI_	81	144	6	96	48	2
EXHLD	81	336	1	96
NMHLD	82	48	0	96
NMHLD	82	144	7	96
NMSTR	82	240	6
NMSI_	82	240	6	96	48	2
BXTAP	82	336	0
EXTAP	83	96	1
EXTAP	83	96	3
NMTAP	83	192	4
NMTAP	83	240	4
NMTAP	83	288	3
NMHLD	83	336	6	192
NMTAP	84	48	5
NMHLD	84	144	0	192
NMTAP	84	240	2
EXSTR	84	336	7
NMSCL	84	336	7	96	96	2
NMTAP	85	144	1
NMTAP	85	192	1
NMTAP	85	288	0
NMTAP	85	288	7
NMHLD	85	336	0	192
NMTAP	85	336	7
NMTAP	86	48	5
EXTAP	86	144	3
NMSTR	86	240	1
NMSI_	86	240	1	96	48	4
NMSTR	86	240	7
NMSI_	86	240	7	96	48	4
BXTAP	87	96	0
BXTAP	87	96	6
NMSTR	87	192	1
NMSI_	87	192	1	96	48	4
NMSTR	87	288	6
NMSI_	87	288	6	96	48	3
NMSTR	88	0	7
NMSI_	88	0	7	96	48	2
NMTAP	88	96	6
NMTAP	88	192	5
NMTAP	88	288	3
NMTAP	88	288	4
NMTAP	88	336	3
NMHLD	88	336	4	96
NMTAP	89	48	6
NMHLD	89	144	3	96
NMTAP	89	144	4
NMTAP	89	240	1
NMTAP	89	336	4
NMTAP	89	336	6
NMTAP	90	48	1
NMTAP	90	48	3
NMTAP	90	144	4
NMTAP	90	144	6
BXTAP	90	240	0
BXTAP	90	240	4
EXTAP	90	336	2
EXTAP	90	336	7
NMTAP	91	48	5
NMTAP	91	96	4
EXTAP	91	144	3
EXTAP	91	144	6
NMTAP	91	240	2
NMTAP	91	288	3
EXTAP	91	336	1
EXTAP	91	336	4
NMTAP	92	48	5
NMTAP	92	96	4
EXHLD	92	144	3	144
EXSTR	92	144	6
NMSI_	92	144	6	96	48	2
EXTAP	93	0	1
EXTAP	93	0	7
NMTAP	93	96	0
NMTAP	93	96	5
EXTAP	93	144	0
EXTAP	93	144	5
NMTTP	93	240	0	C	1	M1
NMTTP	93	240	2	B	0	M1
NMTTP	93	240	3	B	0	M1
NMTTP	93	240	4	B	0	M1
NMTTP	93	240	5	B	0	M1

T_REC_TAP	293
T_REC_BRK	1
T_REC_XTP	64
T_REC_BXX	23
T_REC_HLD	36
T_REC_XHO	21
T_REC_BHO	0
T_REC_BXH	3
T_REC_STR	25
T_REC_BST	2
T_REC_XST	12
T_REC_XBS	0
T_REC_TTP	18
T_REC_THO	0
T_REC_SLD	39
T_REC_BSL	0
T_REC_ALL	537
T_NUM_TAP	412
T_NUM_BRK	29
T_NUM_HLD	57
T_NUM_SLD	39
T_NUM_ALL	537
T_JUDGE_TAP	438
T_JUDGE_HLD	211
T_JUDGE_SLD	39
T_JUDGE_ALL	688
TTM_EACHPAIRS	124
TTM_SCR_TAP	206000
TTM_SCR_BRK	75400
TTM_SCR_HLD	57000
TTM_SCR_SLD	58500
TTM_SCR_ALL	396900
TTM_SCR_S	382200
TTM_SCR_SS	394000
TTM_RAT_ACV	10073

