VERSION	0.00.00	1.04.00
FES_MODE	0
BPM_DEF	 88.800	 88.800	177.600	 38.800
MET_DEF	4	4
RESOLUTION	384
CLK_DEF	384
COMPATIBLE_CODE	MA2

BPM	0	0	 88.800
BPM	1	96	 78.800
BPM	1	288	 88.800
BPM	3	192	 78.800
BPM	3	288	 68.800
BPM	4	0	 88.800
BPM	15	288	 78.800
BPM	16	48	 68.800
BPM	16	96	 58.800
BPM	16	120	 48.800
BPM	16	144	 38.800
BPM	16	168	 88.800
BPM	38	0	177.600
BPM	77	0	 78.800
BPM	77	192	 58.800
BPM	78	0	 68.800
BPM	78	192	 58.800
BPM	78	288	 48.800
MET	0	0	4	4
MET	35	0	4	4

NMSTR	1	0	7
NMSCL	1	0	7	96	576	7
NMTAP	1	3	0
NMTAP	1	6	1
NMSTR	3	0	0
NMSI_	3	0	0	96	96	3
NMTAP	3	192	5
NMSTR	3	288	7
NMSCL	3	288	7	96	24	4
NMTAP	4	0	0
NMTAP	4	6	1
NMTAP	4	12	2
NMTAP	4	18	3
NMHLD	4	48	3	192
NMTAP	4	192	4
NMTAP	4	240	4
NMHLD	4	288	2	24
NMHLD	4	288	5	24
NMTAP	5	0	5
NMTAP	5	24	4
NMTAP	5	48	3
NMTAP	5	72	2
NMSTR	5	96	5
NMSCR	5	96	5	96	96	2
NMTAP	5	120	4
NMTAP	5	144	3
NMTAP	5	168	2
NMTAP	5	264	3
NMHLD	5	270	4	66
CNSCL	5	288	2	0	96	5
NMTAP	6	0	2
NMTAP	6	24	3
NMTAP	6	48	4
NMTAP	6	72	5
NMSTR	6	96	2
NMSCL	6	96	2	96	96	5
NMTAP	6	120	3
NMTAP	6	144	4
NMTAP	6	168	5
NMTAP	6	264	4
NMHLD	6	270	3	66
CNSCR	6	288	5	0	96	2
NMTAP	7	0	4
NMTAP	7	24	3
NMTAP	7	48	2
NMTAP	7	72	1
NMSTR	7	96	5
NMSCR	7	96	5	96	96	2
NMTAP	7	120	4
NMTAP	7	144	3
NMTAP	7	168	2
NMTAP	7	264	3
NMHLD	7	270	4	66
CNSCL	7	288	2	0	96	5
NMTAP	8	0	2
NMTAP	8	24	3
NMTAP	8	48	4
NMHLD	8	72	5	48
NMTAP	8	120	7
NMTAP	8	144	0
NMHLD	8	168	1	48
BRTAP	8	168	5
NMTAP	8	216	3
NMTAP	8	240	3
NMTAP	8	264	2
NMTAP	8	264	4
NMTAP	8	276	1
NMTAP	8	276	5
NMTAP	8	288	0
NMTAP	8	288	6
NMTAP	8	312	0
NMTAP	8	312	6
NMTAP	8	336	5
NMTAP	8	360	1
NMTAP	9	0	2
NMSTR	9	0	4
NMSLL	9	0	4	96	48	0
NMTAP	9	24	4
NMTAP	9	48	4
NMTAP	9	72	4
NMTAP	9	96	4
NMTAP	9	96	6
NMTAP	9	120	6
NMTAP	9	144	6
NMTAP	9	168	6
NMTAP	9	192	1
NMTAP	9	192	4
NMTAP	9	216	2
NMTAP	9	228	3
NMTAP	9	240	2
NMTAP	9	252	3
NMTAP	9	264	2
NMTAP	9	276	3
NMTAP	9	288	1
NMTAP	9	312	0
NMTAP	9	336	7
NMTAP	9	360	6
NMSTR	10	0	3
NMSLR	10	0	3	96	48	7
NMTAP	10	0	5
NMTAP	10	24	3
NMTAP	10	48	3
NMTAP	10	72	3
NMTAP	10	96	1
NMTAP	10	96	3
NMTAP	10	120	1
NMTAP	10	144	1
NMTAP	10	168	1
NMTAP	10	192	0
NMTAP	10	200	7
NMTAP	10	208	6
NMTAP	10	216	5
NMTAP	10	224	4
NMTAP	10	232	3
NMTAP	10	240	0
NMTAP	10	248	7
NMTAP	10	256	6
NMTAP	10	264	5
NMTAP	10	272	4
NMTAP	10	280	3
NMTAP	10	288	7
NMTAP	10	296	0
NMTAP	10	304	1
NMTAP	10	312	2
NMTAP	10	320	3
NMTAP	10	328	4
NMTAP	10	336	7
NMTAP	10	344	0
NMTAP	10	352	1
NMTAP	10	360	2
NMTAP	10	368	3
NMTAP	10	376	4
NMSTR	11	0	5
NMSLL	11	0	5	96	48	1
NMTAP	11	24	5
NMTAP	11	48	5
NMTAP	11	72	5
NMTAP	11	96	5
NMTAP	11	96	7
NMTAP	11	120	7
NMTAP	11	144	7
NMTAP	11	168	7
NMTAP	11	192	1
NMTAP	11	204	3
NMTAP	11	216	2
NMTAP	11	228	4
NMTAP	11	240	3
NMTAP	11	252	5
NMTAP	11	264	4
NMTAP	11	276	6
NMTAP	11	288	3
NMTAP	11	300	5
NMTAP	11	312	2
NMTAP	11	324	4
NMTAP	11	336	1
NMHLD	11	336	5	24
BRTAP	12	0	0
NMTAP	12	12	3
NMTAP	12	24	2
NMTAP	12	36	3
NMTAP	12	48	2
NMTAP	12	60	3
BRTAP	12	72	7
NMTAP	12	84	3
NMSTR	12	96	2
NMSCL	12	96	2	96	48	5
NMTAP	12	108	3
NMTAP	12	120	2
NMTAP	12	132	3
BRTAP	12	144	6
NMTAP	12	156	3
NMTAP	12	168	2
NMTAP	12	180	3
NMTAP	12	192	2
NMTAP	12	264	0
NMTAP	12	270	7
NMTAP	12	276	0
NMTAP	12	282	7
NMTAP	12	288	0
NMTAP	12	312	0
NMTAP	12	312	7
NMHLD	12	336	1	12
NMHLD	12	336	6	12
BRTAP	13	0	7
NMTAP	13	4	6
NMTAP	13	8	5
NMTAP	13	12	4
BRTAP	13	36	6
NMTAP	13	40	5
NMTAP	13	44	4
NMTAP	13	48	3
BRTAP	13	72	5
NMTAP	13	76	4
NMTAP	13	80	3
NMTAP	13	84	2
NMTAP	13	96	7
NMTAP	13	104	7
NMTAP	13	112	7
NMTAP	13	120	7
BRTAP	13	144	0
NMTAP	13	148	1
NMTAP	13	152	2
NMTAP	13	156	3
BRTAP	13	180	1
NMTAP	13	184	2
NMTAP	13	188	3
NMTAP	13	192	4
BRTAP	13	216	2
NMTAP	13	220	3
NMTAP	13	224	4
NMTAP	13	228	5
NMTAP	13	240	0
NMTAP	13	248	0
NMTAP	13	256	0
NMTAP	13	264	0
NMTAP	13	288	7
NMTAP	13	336	5
BRTAP	14	0	5
NMTAP	14	4	4
NMTAP	14	8	3
NMTAP	14	12	2
BRTAP	14	36	6
NMTAP	14	40	5
NMTAP	14	44	4
NMTAP	14	48	3
BRTAP	14	72	7
NMTAP	14	76	6
NMTAP	14	80	5
NMTAP	14	84	4
NMTAP	14	96	0
NMTAP	14	104	0
NMTAP	14	112	0
NMTAP	14	120	0
BRTAP	14	144	3
NMTAP	14	148	4
NMTAP	14	152	5
NMTAP	14	156	6
BRTAP	14	180	2
NMTAP	14	184	3
NMTAP	14	188	4
NMTAP	14	192	5
BRTAP	14	216	1
NMTAP	14	220	2
NMTAP	14	224	3
NMTAP	14	228	4
NMTAP	14	240	7
NMTAP	14	248	7
NMTAP	14	256	7
NMTAP	14	264	7
NMTAP	14	288	6
NMTAP	14	312	5
NMTAP	14	336	3
NMTAP	14	348	4
NMTAP	14	360	2
NMTAP	14	372	3
NMTAP	15	0	1
NMTAP	15	24	4
NMTAP	15	48	6
NMTAP	15	72	3
NMTAP	15	96	1
NMTAP	15	120	5
NMTAP	15	144	7
NMTAP	15	168	0
NMTAP	15	192	2
NMTAP	15	216	4
NMTAP	15	240	5
NMTAP	15	264	3
NMTAP	15	288	7
NMTAP	15	312	4
NMTAP	15	336	5
NMTAP	15	360	1
NMTAP	16	0	3
NMTAP	16	24	4
NMTAP	16	48	5
NMSTR	16	72	0
NMSCR	16	72	0	96	24	3
NMTAP	16	96	1
NMTAP	16	120	5
NMTAP	16	144	7
NMTAP	16	168	7
NMTAP	16	176	6
NMTAP	16	184	5
NMHLD	16	192	4	192
NMTTP	17	0	0	C	0	M1
NMSTR	17	288	3
NMSCL	17	288	3	96	192	4
NMSTR	17	288	4
NMSCR	17	288	4	96	192	3
NMTAP	17	312	2
NMTAP	17	312	5
NMTAP	17	336	1
NMTAP	17	336	6
NMTTP	18	0	3	A	0	M1
NMTTP	18	0	4	A	0	M1
NMTTP	18	0	4	D	1	M1
NMTAP	18	288	3
NMTAP	18	288	5
NMHLD	18	312	2	24
NMHLD	18	312	6	24
BRTAP	19	0	1
NMSTR	19	24	0
NMSI_	19	24	0	96	24	4
NMTAP	19	48	3
NMTAP	19	48	5
NMTAP	19	72	1
NMTAP	19	84	3
NMTAP	19	96	2
NMTAP	19	108	3
NMTAP	19	120	0
NMTAP	19	144	5
NMTAP	19	168	6
NMSTR	19	192	6
NMSI_	19	192	6	96	24	0
NMTAP	19	216	3
NMTAP	19	240	5
NMTAP	19	252	4
NMTAP	19	264	5
NMTAP	19	288	3
NMSTR	19	288	6
NMSI_	19	288	6	96	24	4
NMTAP	19	312	2
NMTAP	19	336	2
NMTAP	19	360	2
NMSTR	20	0	1
NMSI_	20	0	1	96	24	7
NMTAP	20	0	6
NMTAP	20	24	0
NMTAP	20	48	0
NMTAP	20	72	0
NMSTR	20	96	1
NMSI_	20	96	1	96	24	3
NMTAP	20	96	4
NMTAP	20	120	3
NMTAP	20	144	3
NMTAP	20	168	4
NMSTR	20	192	1
NMSI_	20	192	1	96	24	6
NMSTR	20	192	5
NMSI_	20	192	5	96	24	2
NMTAP	20	216	6
NMTAP	20	240	7
NMTAP	20	264	0
NMTAP	20	288	1
NMTAP	20	288	5
NMTAP	20	336	7
NMTAP	21	0	0
NMTAP	21	12	3
NMTAP	21	24	0
NMTAP	21	36	3
NMTAP	21	48	1
NMTAP	21	60	3
NMTAP	21	72	1
NMTAP	21	84	3
NMTAP	21	96	2
NMTAP	21	108	3
NMTAP	21	120	2
NMTAP	21	132	3
NMTAP	21	144	3
NMTAP	21	156	3
NMTAP	21	168	3
NMTAP	21	180	3
NMTAP	21	192	4
NMTAP	21	204	3
NMTAP	21	216	5
NMTAP	21	228	3
NMTAP	21	240	6
NMTAP	21	252	3
NMTAP	21	264	7
NMTAP	21	276	3
NMTAP	21	288	0
NMTAP	21	288	4
NMTAP	21	300	1
NMTAP	21	300	5
NMTAP	21	312	2
NMTAP	21	312	6
NMTAP	21	324	3
NMTAP	21	324	7
BRTAP	21	336	0
BRTAP	21	336	4
NMTAP	22	0	4
NMTAP	22	0	6
NMTAP	22	24	0
NMSTR	22	24	7
NMSI_	22	24	7	96	24	3
NMTAP	22	48	1
NMTAP	22	48	3
NMTAP	22	72	6
NMTAP	22	84	4
NMTAP	22	96	5
NMTAP	22	108	4
NMTAP	22	120	7
NMTAP	22	144	2
NMTAP	22	168	1
NMSTR	22	192	1
NMSI_	22	192	1	96	24	6
NMSTR	22	192	5
NMSI_	22	192	5	96	24	2
NMTAP	22	216	0
NMTAP	22	216	6
NMTAP	22	240	1
NMTAP	22	252	3
NMTAP	22	264	2
NMTAP	22	264	4
NMTAP	22	288	1
NMTAP	22	288	5
CNSI_	22	312	2	0	24	5
CNSI_	22	312	6	0	24	1
BRTAP	23	0	3
BRTAP	23	0	7
BRTAP	23	96	1
NMTTP	23	96	4	A	0	M1
NMTTP	23	96	5	E	1	M1
NMTTP	23	96	5	A	0	M1
NMTTP	23	128	2	A	0	M1
NMTTP	23	128	3	E	0	M1
NMTTP	23	128	3	A	0	M1
BRTAP	23	128	6
BRTAP	23	160	0
NMTTP	23	160	3	B	0	M1
NMTTP	23	160	4	B	0	M1
NMTTP	23	160	4	E	1	M1
NMTAP	23	192	0
NMTAP	23	208	0
NMTAP	23	224	0
NMTAP	23	240	2
NMTAP	23	256	2
NMTAP	23	272	2
NMTAP	23	288	4
NMTAP	23	304	4
NMTAP	23	320	4
NMTAP	23	336	6
NMTAP	23	352	6
NMTAP	23	368	6
NMSTR	24	0	1
NMSI_	24	0	1	96	24	4
NMSTR	24	24	4
NMSI_	24	24	4	96	24	7
NMSTR	24	48	7
NMSI_	24	48	7	96	24	3
NMSTR	24	72	3
BRSI_	24	72	3	96	24	0
NMSTR	24	192	6
NMSI_	24	192	6	96	24	3
NMSTR	24	216	3
NMSI_	24	216	3	96	24	0
NMSTR	24	240	0
NMSI_	24	240	0	96	24	4
NMSTR	24	264	4
BRSI_	24	264	4	96	24	7
BRTAP	25	0	1
NMTAP	25	48	0
NMSTR	25	96	6
NMSI_	25	96	6	96	24	3
NMSTR	25	96	7
NMSI_	25	96	7	96	24	2
NMTAP	25	120	4
NMTAP	25	120	5
NMTAP	25	144	2
NMTAP	25	144	3
NMTAP	25	168	0
NMTAP	25	168	1
NMTAP	25	192	6
NMTAP	25	192	7
NMHLD	25	336	0	0
NMHLD	25	336	4	0
NMTAP	26	0	0
BRTAP	26	0	4
NMTAP	26	8	1
NMTAP	26	16	2
NMTAP	26	24	3
NMTAP	26	32	4
NMTAP	26	40	5
NMTAP	26	48	6
NMTAP	26	56	7
NMTAP	26	64	0
NMTAP	26	72	1
NMTAP	26	80	2
NMTAP	26	88	3
BRTAP	26	96	0
NMTAP	26	96	4
NMTAP	26	104	5
NMTAP	26	112	6
NMTAP	26	120	7
NMTAP	26	128	0
NMTAP	26	136	1
NMTAP	26	144	2
NMTAP	26	152	3
NMTAP	26	160	4
NMTAP	26	168	5
NMTAP	26	176	6
NMTAP	26	184	7
NMTAP	26	192	0
BRTAP	26	192	4
NMTAP	26	200	1
NMTAP	26	208	2
NMTAP	26	216	3
NMTAP	26	224	4
NMTAP	26	232	5
NMTAP	26	240	6
NMTAP	26	248	7
NMTAP	26	256	0
NMTAP	26	264	1
NMTAP	26	272	2
NMTAP	26	280	3
BRTAP	26	288	0
NMTAP	26	288	4
NMTAP	26	296	5
NMTAP	26	304	6
NMTAP	26	312	7
NMTAP	26	320	0
NMTAP	26	328	1
NMTAP	26	336	2
NMTAP	26	344	3
NMTAP	26	352	4
NMTAP	26	360	5
NMTAP	26	368	6
NMTAP	26	376	7
NMTAP	27	0	0
BRTAP	27	0	4
NMTAP	27	8	1
NMTAP	27	16	2
NMTAP	27	24	3
NMTAP	27	32	4
NMTAP	27	40	5
NMTAP	27	48	6
NMTAP	27	56	7
NMTAP	27	64	0
NMTAP	27	72	1
NMTAP	27	80	2
NMTAP	27	88	3
BRTAP	27	96	0
NMTAP	27	96	4
NMTAP	27	104	5
NMTAP	27	112	6
NMTAP	27	120	7
NMTAP	27	128	0
NMTAP	27	136	1
NMTAP	27	144	2
NMTAP	27	152	3
NMTAP	27	160	4
NMTAP	27	168	5
NMTAP	27	176	6
NMTAP	27	184	7
NMSTR	27	192	0
NMSCR	27	192	0	96	48	4
NMTAP	27	192	4
NMTAP	27	240	1
NMTAP	27	240	5
NMTAP	27	288	6
NMHLD	27	336	7	0
BRTAP	28	0	3
NMTAP	28	0	7
NMTAP	28	8	6
NMHLD	28	12	3	0
NMTAP	28	16	5
NMTAP	28	24	4
NMTAP	28	32	3
NMTAP	28	40	2
NMTAP	28	48	1
NMTAP	28	56	0
NMTAP	28	64	7
NMTAP	28	72	6
NMTAP	28	80	5
NMTAP	28	88	4
NMTAP	28	96	3
BRTAP	28	96	7
NMTAP	28	104	2
NMHLD	28	108	7	0
NMTAP	28	112	1
NMTAP	28	120	0
NMTAP	28	128	7
NMTAP	28	136	6
NMTAP	28	144	5
NMTAP	28	152	4
NMTAP	28	160	3
NMTAP	28	168	2
NMTAP	28	176	1
NMTAP	28	184	0
BRTAP	28	192	3
NMTAP	28	192	7
NMTAP	28	200	6
NMHLD	28	204	3	0
NMTAP	28	208	5
NMTAP	28	216	4
NMTAP	28	224	3
NMTAP	28	232	2
NMTAP	28	240	1
NMTAP	28	248	0
NMTAP	28	256	7
NMTAP	28	264	6
NMTAP	28	272	5
NMTAP	28	280	4
NMTAP	28	288	3
BRTAP	28	288	7
NMTAP	28	296	2
NMHLD	28	300	7	0
NMTAP	28	304	1
NMTAP	28	312	0
NMTAP	28	320	7
NMTAP	28	328	6
NMTAP	28	336	5
NMTAP	28	344	4
NMTAP	28	352	3
NMTAP	28	360	2
NMTAP	28	368	1
NMTAP	28	376	0
BRTAP	29	0	3
NMTAP	29	0	7
NMTAP	29	8	6
NMHLD	29	12	3	0
NMTAP	29	16	5
NMTAP	29	24	4
NMTAP	29	32	3
NMTAP	29	40	2
NMTAP	29	48	1
NMTAP	29	56	0
NMTAP	29	64	7
NMTAP	29	72	6
NMTAP	29	80	5
NMTAP	29	88	4
NMTAP	29	96	3
BRTAP	29	96	7
NMTAP	29	104	2
NMHLD	29	108	7	0
NMTAP	29	112	1
NMTAP	29	120	0
NMTAP	29	128	7
NMTAP	29	136	6
NMTAP	29	144	5
NMTAP	29	152	4
NMTAP	29	160	3
NMTAP	29	168	2
NMTAP	29	176	1
NMTAP	29	184	0
NMTAP	29	192	4
NMTAP	29	192	7
NMTAP	29	208	4
NMTAP	29	224	4
NMTAP	29	240	3
NMTAP	29	240	5
NMTAP	29	288	0
NMTAP	29	304	0
NMTAP	29	320	0
NMTAP	29	336	1
NMTAP	29	336	7
NMTAP	30	0	0
BRTAP	30	0	4
NMTAP	30	8	1
NMTAP	30	16	2
NMTAP	30	24	3
NMTAP	30	32	4
NMTAP	30	40	5
NMTAP	30	48	6
NMTAP	30	56	7
NMTAP	30	64	0
NMTAP	30	72	1
BRTAP	30	72	5
NMTAP	30	80	2
NMTAP	30	88	3
NMTAP	30	96	4
NMTAP	30	104	5
NMTAP	30	112	6
NMTAP	30	120	7
NMTAP	30	128	0
NMTAP	30	136	1
NMTAP	30	144	2
BRTAP	30	144	5
NMTAP	30	152	4
NMTAP	30	160	3
NMTAP	30	168	2
NMTAP	30	176	1
NMTAP	30	184	0
BRTAP	30	192	3
NMTAP	30	192	7
NMTAP	30	200	6
NMTAP	30	208	5
NMTAP	30	216	4
NMTAP	30	224	3
NMTAP	30	232	2
NMTAP	30	240	1
NMTAP	30	248	0
NMTAP	30	256	7
BRTAP	30	264	2
NMTAP	30	264	6
NMTAP	30	272	5
NMTAP	30	280	4
NMTAP	30	288	3
NMTAP	30	296	2
NMTAP	30	304	1
NMTAP	30	312	0
NMTAP	30	320	7
NMTAP	30	328	6
BRTAP	30	336	2
NMTAP	30	336	5
NMTAP	30	344	3
NMTAP	30	352	4
NMTAP	30	360	5
NMTAP	30	368	6
NMTAP	30	376	7
NMTAP	31	0	0
BRTAP	31	0	4
NMTAP	31	8	1
NMTAP	31	16	2
NMTAP	31	24	3
NMTAP	31	32	4
NMTAP	31	40	5
NMTAP	31	48	6
NMTAP	31	56	7
NMTAP	31	64	0
NMTAP	31	72	1
BRTAP	31	72	5
NMTAP	31	80	2
NMTAP	31	88	3
NMTAP	31	96	4
NMTAP	31	104	5
NMTAP	31	112	6
NMTAP	31	120	7
NMTAP	31	128	0
NMTAP	31	136	1
NMTAP	31	144	2
BRTAP	31	144	5
NMTAP	31	152	4
NMTAP	31	160	3
NMTAP	31	168	2
NMTAP	31	176	1
NMTAP	31	184	0
NMTTP	31	192	0	C	1	M1
NMTTP	31	192	2	B	0	M1
NMTTP	31	192	2	A	0	M1
NMTTP	31	192	3	E	0	M1
BRTAP	31	192	7
NMTTP	31	240	0	C	1	M1
BRTAP	31	240	1
NMTTP	31	240	5	B	0	M1
NMTTP	31	240	5	E	0	M1
NMTTP	31	240	5	A	0	M1
NMTTP	31	288	0	C	1	M1
NMTTP	31	288	1	B	0	M1
NMTTP	31	288	1	A	0	M1
NMTTP	31	288	2	E	0	M1
BRTAP	31	288	6
BRTAP	31	336	0
NMTTP	31	336	0	C	1	M1
NMTTP	31	336	3	B	0	M1
NMTTP	31	336	4	B	0	M1
NMTTP	31	336	4	E	0	M1
NMSTR	32	0	7
NMSI_	32	0	7	96	288	3
NMSTR	33	0	7
NMSF_	33	0	7	96	192	3
NMTHO	34	0	0	48	C	0	M1
NMTAP	34	0	6
NMSTR	34	48	6
NMSCL	34	48	6	96	72	2
NMTAP	34	96	7
NMHLD	34	144	0	144
CNSCR	34	216	2	0	72	6
NMTHO	35	0	0	48	C	0	M1
NMTAP	35	0	1
NMSTR	35	48	1
NMSCR	35	48	1	96	72	5
NMTAP	35	96	0
NMHLD	35	144	7	144
CNSCL	35	216	5	0	72	1
NMTHO	36	0	0	48	C	0	M1
NMTAP	36	0	6
NMSTR	36	48	6
NMSCR	36	48	6	96	72	3
NMTAP	36	96	0
NMTAP	36	96	7
NMHLD	36	144	1	144
CNSCL	36	216	3	0	72	6
NMTHO	37	0	0	48	C	0	M1
NMTAP	37	0	1
NMTAP	37	48	1
NMHLD	37	96	0	216
NMTAP	37	96	7
NMSTR	37	144	7
BRSI_	37	144	7	192	24	3
NMHLD	37	192	6	120
BXTAP	37	336	7
BRSTR	38	0	0
NMSI_	38	0	0	96	48	3
BRTAP	38	48	1
NMTTP	38	96	4	A	0	M1
BRSTR	38	144	6
NMSI_	38	144	6	96	48	1
BRTAP	38	192	5
NMTTP	38	240	2	A	0	M1
BRSTR	38	288	3
NMSI_	38	288	3	96	48	0
BRTAP	38	336	4
NMTTP	39	0	7	D	0	M1
BRSTR	39	48	5
NMSI_	39	48	5	96	48	3
BRTAP	39	96	4
NMTTP	39	144	3	B	0	M1
NMTAP	39	192	2
CNSI_	39	192	3	0	48	6
CNSI_	39	240	6	0	48	2
NMTAP	39	288	0
BRSTR	40	0	0
NMSI_	40	0	0	96	48	5
BRTAP	40	48	1
NMTTP	40	96	4	A	0	M1
BRSTR	40	144	3
NMSI_	40	144	3	96	48	0
BRTAP	40	192	4
NMTTP	40	240	6	A	0	M1
BRSTR	40	288	5
NMSI_	40	288	5	96	48	0
BRTAP	40	336	4
NMTTP	41	0	1	A	0	M1
BRTAP	41	48	2
BRSTR	41	96	3
NMSI_	41	96	3	96	48	0
NMSI_	41	96	3	96	48	6
NMTTP	41	144	0	C	0	M1
CNSI_	41	240	0	0	72	2
CNSI_	41	240	6	0	72	4
NMSTR	42	0	1
NMSI_	42	0	1	96	48	5
NMTAP	42	48	1
NMSTR	42	96	0
NMSI_	42	96	0	96	48	4
NMTAP	42	144	0
NMSTR	42	192	7
NMSI_	42	192	7	96	48	3
NMTAP	42	240	7
NMSTR	42	288	6
NMSI_	42	288	6	96	48	2
NMTAP	42	336	6
NMSTR	43	0	5
NMSI_	43	0	5	96	48	1
NMTAP	43	48	5
NMSTR	43	96	4
NMSI_	43	96	4	96	48	0
NMTAP	43	144	4
NMTAP	43	192	3
NMTAP	43	240	3
NMTAP	43	288	2
NMTAP	43	288	4
NMTAP	43	336	2
NMTAP	43	336	4
NMTAP	44	0	1
NMTAP	44	24	3
NMTAP	44	48	1
NMTAP	44	72	3
NMTAP	44	96	2
NMTAP	44	120	2
NMTAP	44	144	2
NMTAP	44	168	2
NMTAP	44	192	0
NMTAP	44	204	7
NMTAP	44	216	6
NMTAP	44	228	5
NMTAP	44	240	3
NMTAP	44	264	3
NMTAP	44	288	0
NMTAP	44	300	1
NMTAP	44	312	2
NMTAP	44	324	3
NMTAP	44	336	7
NMTAP	44	360	7
NMTTP	45	0	0	C	1	M1
NMSTR	46	0	1
NMSUR	46	0	1	96	1344	2
NMSTR	46	0	6
NMSUL	46	0	6	96	1344	5
NMSTR	50	96	0
NMSCR	50	96	0	96	24	3
NMSTR	50	96	7
NMSCL	50	96	7	96	24	4
NMTTP	50	192	0	A	0	M1
NMTTP	50	192	0	D	1	M1
NMTTP	50	192	7	A	0	M1
NMSTR	50	288	6
NMSCL	50	288	6	96	24	3
NMSTR	50	288	7
NMSCR	50	288	7	96	24	2
NMTTP	51	0	6	A	0	M1
NMTTP	51	0	7	A	0	M1
NMTTP	51	0	7	D	1	M1
NMSTR	51	96	0
NMSCL	51	96	0	96	24	5
NMSTR	51	96	1
NMSCR	51	96	1	96	24	4
NMTTP	51	192	0	A	0	M1
NMTTP	51	192	1	A	0	M1
NMTTP	51	192	1	D	1	M1
NMSTR	51	288	0
NMSCR	51	288	0	96	24	3
NMSTR	51	288	7
NMSCL	51	288	7	96	24	4
NMTTP	52	0	0	A	0	M1
NMTTP	52	0	0	D	1	M1
NMTTP	52	0	7	A	0	M1
NMSTR	52	96	3
NMSCL	52	96	3	96	24	0
NMSTR	52	96	4
NMSCR	52	96	4	96	24	7
NMTTP	52	192	3	A	0	M1
NMTTP	52	192	4	A	0	M1
NMTTP	52	192	4	D	1	M1
NMTAP	52	288	1
NMTAP	52	288	7
NMTAP	53	0	0
NMTAP	53	12	0
NMTAP	53	24	0
NMTAP	53	36	0
NMTAP	53	48	0
NMTAP	53	60	0
NMTAP	53	72	0
NMTAP	53	84	0
NMTAP	53	96	0
NMTAP	53	108	0
NMTAP	53	120	0
NMTAP	53	132	0
NMTAP	53	144	0
NMTAP	53	156	0
NMTAP	53	168	0
NMTAP	53	180	0
NMTAP	53	192	0
NMTAP	53	204	1
NMTAP	53	216	2
NMTAP	53	228	3
NMTAP	53	240	4
NMTAP	53	252	5
NMTAP	53	264	6
NMTAP	53	276	7
BRTAP	53	288	0
BRTAP	53	288	4
NMTAP	54	0	0
NMHLD	54	0	7	0
NMTAP	54	16	6
NMTAP	54	32	5
NMTAP	54	48	4
NMTAP	54	64	3
NMTAP	54	80	2
NMTAP	54	96	1
NMTAP	54	96	7
NMTAP	54	112	2
NMTAP	54	128	3
NMTAP	54	144	4
NMTAP	54	160	5
NMTAP	54	176	6
NMTAP	54	192	0
NMTAP	54	192	7
NMTAP	54	208	6
NMTAP	54	224	5
NMTAP	54	240	4
NMTAP	54	256	3
NMTAP	54	272	2
NMTAP	54	288	1
NMTAP	54	288	7
NMTAP	54	304	2
NMTAP	54	320	3
NMTAP	54	336	4
NMTAP	54	352	5
NMTAP	54	368	6
NMHLD	55	0	0	0
NMTAP	55	0	7
NMTAP	55	16	1
NMTAP	55	32	2
NMTAP	55	48	3
NMTAP	55	64	4
NMTAP	55	80	5
NMTAP	55	96	0
NMTAP	55	96	6
NMTAP	55	112	5
NMTAP	55	128	4
NMTAP	55	144	3
NMTAP	55	160	2
NMTAP	55	176	1
NMTAP	55	192	0
NMTAP	55	192	7
NMTAP	55	208	1
NMTAP	55	224	2
NMTAP	55	240	3
NMTAP	55	256	4
NMTAP	55	272	5
NMTAP	55	288	0
NMTAP	55	288	6
NMTAP	55	304	5
NMTAP	55	320	4
NMTAP	55	336	3
NMTAP	55	352	2
NMTAP	55	368	1
NMTAP	56	0	0
NMHLD	56	0	7	0
NMTAP	56	16	6
NMTAP	56	32	5
NMTAP	56	48	4
NMTAP	56	64	3
NMTAP	56	80	2
NMTAP	56	96	1
NMTAP	56	96	7
NMTAP	56	112	2
NMTAP	56	128	3
NMTAP	56	144	4
NMTAP	56	160	5
NMTAP	56	176	6
NMHLD	56	192	0	0
NMTAP	56	192	7
NMTAP	56	208	1
NMTAP	56	224	2
NMTAP	56	240	3
NMTAP	56	256	4
NMTAP	56	272	5
NMSTR	56	288	0
BRSI_	56	288	0	96	48	4
NMTAP	56	288	6
NMTAP	56	304	5
NMTAP	56	320	4
NMTAP	56	336	3
NMTAP	56	352	2
NMTAP	56	368	1
BRSTR	57	0	0
BRSCL	57	0	0	96	48	5
BRSCR	57	0	0	96	48	3
BRSTR	57	96	0
BRSF_	57	96	0	96	48	4
BRTAP	57	192	0
BRHLD	57	288	2	96
BRTAP	57	288	6
NMTAP	58	0	3
NMTAP	58	12	4
NMTAP	58	24	2
NMTAP	58	36	1
NMTAP	58	48	3
NMTAP	58	60	4
NMTAP	58	72	2
NMTAP	58	84	1
NMTAP	58	96	4
NMTAP	58	108	5
NMTAP	58	120	1
NMTAP	58	132	0
NMTAP	58	144	4
NMTAP	58	156	5
NMTAP	58	168	1
NMTAP	58	180	0
NMTAP	58	192	7
NMTAP	58	240	7
NMTAP	58	288	2
NMTAP	58	288	6
NMTAP	58	336	2
NMTAP	58	336	6
NMTAP	59	0	4
NMTAP	59	12	3
NMTAP	59	24	5
NMTAP	59	36	6
NMTAP	59	48	4
NMTAP	59	60	3
NMTAP	59	72	5
NMTAP	59	84	6
NMTAP	59	96	3
NMTAP	59	108	2
NMTAP	59	120	6
NMTAP	59	132	7
NMTAP	59	144	3
NMTAP	59	156	2
NMTAP	59	168	6
NMTAP	59	180	7
NMTAP	59	192	0
NMTAP	59	264	1
NMTAP	59	264	7
NMTAP	59	336	3
NMTAP	59	336	5
NMTAP	60	0	3
NMTAP	60	0	4
NMTAP	60	48	3
NMTAP	60	96	2
NMTAP	60	96	3
NMTAP	60	144	3
NMTAP	60	192	3
NMTAP	60	192	6
NMTAP	60	240	3
NMTAP	60	288	0
NMTAP	60	288	3
NMTAP	60	336	3
NMTAP	61	0	3
NMTAP	61	24	4
NMTAP	61	48	4
NMTAP	61	72	4
NMTAP	61	96	2
NMTAP	61	120	4
NMTAP	61	144	4
NMTAP	61	168	4
NMTAP	61	192	1
NMTAP	61	216	4
NMTAP	61	240	4
NMTAP	61	264	4
BRHLD	61	288	0	96
NMSTR	62	0	7
NMSI_	62	0	7	96	768	3
NMTAP	62	32	6
NMTAP	62	64	5
NMTAP	62	96	6
NMTAP	62	128	5
NMTAP	62	160	6
NMTAP	62	192	4
NMTAP	62	224	6
NMTAP	62	256	5
NMTAP	62	288	6
NMTAP	62	320	5
NMTAP	62	352	6
NMTAP	63	0	7
NMTAP	63	32	6
NMTAP	63	64	5
NMTAP	63	96	6
NMTAP	63	128	5
NMTAP	63	160	6
NMTAP	63	192	4
NMTAP	63	224	6
NMTAP	63	256	5
NMTAP	63	288	6
NMTAP	63	320	7
NMTAP	63	352	5
NMTAP	64	0	7
NMTAP	64	128	2
NMTAP	64	160	2
NMHLD	64	192	1	96
NMTAP	64	192	3
NMSTR	64	288	0
NMSI_	64	288	0	96	384	4
NMTAP	64	320	1
NMTAP	64	352	2
NMTAP	65	0	1
NMTAP	65	32	2
NMTAP	65	64	1
NMTAP	65	96	3
NMTAP	65	128	1
NMTAP	65	160	2
NMTAP	65	192	1
NMTAP	65	224	2
NMTAP	65	256	1
NMTAP	65	288	0
BRTAP	66	96	0
NMTAP	66	96	4
NMTAP	66	104	1
NMTAP	66	104	5
NMTAP	66	112	2
NMTAP	66	112	6
NMTAP	66	120	3
NMTAP	66	120	7
NMHLD	66	128	0	160
NMTAP	66	128	4
NMTAP	66	136	5
NMTAP	66	144	6
NMTAP	66	152	7
NMTAP	66	168	1
NMTAP	66	176	2
NMTAP	66	184	3
NMTAP	66	192	4
NMTAP	66	200	5
NMTAP	66	208	6
NMTAP	66	216	7
NMTAP	66	232	1
NMTAP	66	240	2
NMTAP	66	248	3
NMTAP	66	256	4
NMTAP	66	264	5
NMTAP	66	272	6
NMTAP	66	280	7
NMTAP	66	296	1
NMTAP	66	304	2
NMTAP	66	312	3
NMTAP	66	320	4
NMTAP	66	328	5
NMTAP	66	336	6
NMTAP	66	344	7
NMTAP	66	352	0
NMTAP	66	360	1
NMTAP	66	368	2
NMTAP	66	376	3
NMTTP	67	0	6	A	0	M1
NMTTP	67	0	7	D	0	M1
NMTTP	67	16	6	E	0	M1
NMTTP	67	32	5	B	0	M1
NMTTP	67	48	4	B	0	M1
NMTTP	67	64	4	E	0	M1
NMTTP	67	80	3	A	0	M1
NMTTP	67	96	2	A	0	M1
NMTTP	67	96	3	D	0	M1
NMTTP	67	112	2	E	0	M1
NMTTP	67	128	1	B	0	M1
NMTTP	67	144	0	B	0	M1
NMTTP	67	160	0	E	0	M1
NMTTP	67	176	7	A	0	M1
NMTTP	67	192	5	A	0	M1
NMTTP	67	192	5	D	0	M1
NMTTP	67	208	6	E	0	M1
NMTTP	67	224	6	B	0	M1
NMTTP	67	240	7	B	0	M1
NMTTP	67	256	0	E	0	M1
NMTTP	67	272	0	A	0	M1
NMTTP	67	288	1	A	0	M1
NMTTP	67	288	1	D	0	M1
NMTTP	67	304	2	E	0	M1
NMTTP	67	320	2	B	0	M1
NMTTP	67	336	3	B	0	M1
NMTTP	67	352	4	E	0	M1
NMTTP	67	368	4	A	0	M1
NMTAP	68	0	5
NMTAP	68	24	5
NMTAP	68	48	7
NMTAP	68	72	7
NMTAP	68	96	0
NMTAP	68	120	0
NMTAP	68	144	2
NMTAP	68	168	2
NMTAP	68	192	4
NMTAP	68	216	4
NMTAP	68	240	3
NMTAP	68	264	3
NMSTR	68	288	7
NMSI_	68	288	7	96	48	5
NMTAP	68	312	0
NMTAP	68	336	6
NMTAP	68	360	1
NMTAP	69	0	7
NMTAP	69	48	4
CNSI_	69	48	5	0	48	1
CNSI_	69	96	1	0	48	3
NMTAP	69	96	4
BRHLD	69	144	4	96
BRTAP	69	240	0
NMTAP	69	252	3
NMTAP	69	252	7
NMTAP	69	264	2
NMTAP	69	264	6
NMTAP	69	276	1
NMTAP	69	276	5
NMHLD	69	288	0	96
NMTAP	69	288	4
BRSTR	70	0	4
NMSCR	70	0	4	96	36	7
NMTAP	70	96	0
NMTAP	70	108	1
NMTAP	70	120	2
NMTAP	70	132	3
NMTAP	70	144	0
NMTAP	70	156	1
NMTAP	70	168	2
NMTAP	70	180	3
BRSTR	70	192	0
NMSCL	70	192	0	96	36	5
NMTAP	70	192	4
NMTAP	70	288	4
NMTAP	70	300	3
NMTAP	70	312	2
NMTAP	70	324	1
NMTAP	70	336	4
NMTAP	70	348	3
NMTAP	70	360	2
NMTAP	70	372	1
NMTAP	71	0	0
BRSTR	71	0	4
NMSCR	71	0	4	96	36	7
NMTAP	71	96	0
NMTAP	71	108	1
NMTAP	71	120	2
NMTAP	71	132	3
NMTAP	71	144	0
NMTAP	71	156	1
NMTAP	71	168	2
NMTAP	71	180	3
BRTAP	71	192	0
NMTAP	71	192	4
BRTAP	71	288	7
BRTAP	71	312	7
BRTAP	71	336	7
BRTAP	71	360	7
NMTAP	72	0	0
NMTAP	72	0	6
NMTAP	72	64	1
NMTAP	72	64	3
NMTAP	72	128	3
NMTAP	72	128	4
NMTAP	72	192	4
NMTAP	72	192	6
NMTAP	72	256	0
NMTAP	72	256	7
NMTAP	72	320	1
NMTAP	72	320	6
NMTAP	73	0	6
NMTAP	73	16	4
NMTAP	73	32	5
NMTAP	73	64	2
NMTAP	73	96	2
NMTAP	73	128	4
NMTAP	73	160	4
NMTAP	73	192	3
NMTAP	73	192	5
NMTAP	73	240	1
NMTAP	73	240	7
BRTAP	73	288	7
NMTAP	73	300	6
NMTAP	73	312	5
NMTAP	73	324	4
NMTAP	73	336	3
NMTAP	74	0	1
NMTAP	74	12	2
NMTAP	74	24	3
NMTAP	74	36	4
NMTAP	74	48	5
NMTAP	74	60	6
NMTAP	74	72	7
NMTAP	74	84	0
NMTAP	74	96	1
NMTAP	74	108	2
NMTAP	74	120	3
NMTAP	74	132	4
NMTAP	74	144	0
NMTAP	74	156	1
NMTAP	74	168	2
NMTAP	74	180	3
NMTAP	74	192	6
NMTAP	74	204	5
NMTAP	74	216	4
NMTAP	74	228	3
NMTAP	74	240	2
NMTAP	74	252	1
NMTAP	74	264	0
NMTAP	74	276	7
NMTAP	74	288	6
NMTAP	74	300	5
NMTAP	74	312	4
NMTAP	74	324	3
NMTAP	74	336	7
NMTAP	74	348	6
NMTAP	74	360	5
NMTAP	74	372	4
NMTAP	75	0	1
NMTAP	75	12	2
NMTAP	75	24	3
NMTAP	75	36	4
NMTAP	75	48	5
NMTAP	75	60	6
NMTAP	75	72	7
NMTAP	75	84	0
NMTAP	75	96	1
NMTAP	75	108	2
NMTAP	75	120	3
NMTAP	75	132	4
NMTAP	75	144	5
NMTAP	75	156	6
NMTAP	75	168	7
NMTAP	75	180	0
BRTAP	75	192	1
BRTAP	75	208	6
BRTAP	75	224	1
BRTAP	75	240	6
BRTAP	75	256	1
BRTAP	75	272	6
NMTAP	75	288	1
NMTAP	75	304	5
NMTAP	75	320	1
NMTAP	75	336	5
NMTAP	75	352	1
NMTAP	75	368	5
NMTAP	76	0	2
NMTAP	76	12	2
NMTAP	76	24	4
NMTAP	76	36	3
NMTAP	76	48	7
NMTAP	76	60	7
NMTAP	76	72	5
NMTAP	76	84	6
NMTAP	76	96	0
NMTAP	76	108	0
NMTAP	76	120	2
NMTAP	76	132	1
NMTAP	76	144	6
NMTAP	76	156	6
NMTAP	76	168	4
NMTAP	76	180	5
NMTAP	76	192	3
NMTAP	76	204	4
NMTAP	76	216	3
NMTAP	76	228	4
NMTAP	76	240	3
NMTAP	76	252	4
NMTAP	76	264	3
NMTAP	76	276	4
NMTAP	76	288	3
NMTAP	76	288	5
NMTAP	76	300	4
NMTAP	76	300	6
NMTAP	76	312	5
NMTAP	76	312	7
NMTAP	76	324	6
NMTAP	76	336	7
NMTAP	76	348	0
NMTAP	76	360	1
NMTAP	76	360	5
NMTAP	76	368	2
NMTAP	76	368	6
NMTAP	76	376	3
NMTAP	76	376	7
NMHLD	77	0	0	288
NMTAP	77	0	4
NMTAP	77	288	2
NMTAP	77	360	3
NMTAP	78	0	3
NMTTP	78	112	5	E	0	M1
NMTTP	78	192	4	E	0	M1
NMTTP	78	288	3	E	0	M1
NMTTP	79	0	6	D	0	M1
NMTTP	79	4	6	E	0	M1
NMTTP	79	8	5	B	0	M1
NMTTP	79	12	2	B	0	M1
NMTTP	79	16	2	E	0	M1
NMTTP	79	20	2	D	0	M1

T_REC_TAP	1038
T_REC_BRK	76
T_REC_XTP	0
T_REC_BXX	1
T_REC_HLD	36
T_REC_XHO	0
T_REC_BHO	3
T_REC_BXH	0
T_REC_STR	62
T_REC_BST	13
T_REC_XST	0
T_REC_XBS	0
T_REC_TTP	90
T_REC_THO	4
T_REC_SLD	70
T_REC_BSL	7
T_REC_ALL	1400
T_NUM_TAP	1190
T_NUM_BRK	100
T_NUM_HLD	40
T_NUM_SLD	70
T_NUM_ALL	1400
T_JUDGE_TAP	1280
T_JUDGE_HLD	119
T_JUDGE_SLD	77
T_JUDGE_ALL	1476
TTM_EACHPAIRS	132
TTM_SCR_TAP	595000
TTM_SCR_BRK	260000
TTM_SCR_HLD	40000
TTM_SCR_SLD	105000
TTM_SCR_ALL	1000000
TTM_SCR_S	960300
TTM_SCR_SS	990000
TTM_RAT_ACV	10101

