VERSION	0.00.00	1.04.00
FES_MODE	0
BPM_DEF	 88.800	 88.800	177.600	 38.800
MET_DEF	4	4
RESOLUTION	384
CLK_DEF	384
COMPATIBLE_CODE	MA2

BPM	0	0	 88.800
BPM	1	96	 78.800
BPM	1	288	 88.800
BPM	3	192	 78.800
BPM	3	288	 68.800
BPM	4	0	 88.800
BPM	15	288	 78.800
BPM	16	48	 68.800
BPM	16	96	 58.800
BPM	16	120	 48.800
BPM	16	144	 38.800
BPM	16	168	 88.800
BPM	38	0	177.600
BPM	77	0	 78.800
BPM	77	192	 58.800
BPM	78	0	 68.800
BPM	78	192	 58.800
BPM	78	288	 48.800
MET	0	0	4	4
MET	35	0	4	4

NMSTR	1	0	5
NMSCR	1	0	5	96	576	5
NMTAP	1	3	4
NMTAP	1	6	3
NMSTR	3	0	3
NMSI_	3	0	3	96	96	0
NMTAP	3	192	5
NMSTR	3	288	7
NMSCL	3	288	7	96	24	4
NMTAP	4	0	0
NMTAP	4	6	1
NMTAP	4	12	2
NMHLD	4	18	3	30
NMHLD	4	192	3	48
NMHLD	4	192	4	48
NMTAP	4	288	2
NMTAP	4	288	5
NMTAP	4	312	2
NMTAP	4	312	5
NMTAP	5	0	5
NMTAP	5	24	4
NMTAP	5	48	3
NMTAP	5	72	2
NMSTR	5	96	5
NMSI_	5	96	5	96	48	2
NMTAP	5	120	4
NMTAP	5	144	3
NMTAP	5	168	2
NMHLD	5	192	1	120
NMTAP	5	312	3
NMTAP	5	336	3
NMTAP	5	360	2
NMTAP	6	0	2
NMTAP	6	24	3
NMTAP	6	48	4
NMTAP	6	72	5
NMSTR	6	96	2
NMSI_	6	96	2	96	48	5
NMTAP	6	120	3
NMTAP	6	144	4
NMTAP	6	168	5
NMHLD	6	192	6	120
NMTAP	6	312	4
NMTAP	6	336	4
NMTAP	6	360	5
NMTAP	7	0	5
NMTAP	7	24	4
NMTAP	7	48	3
NMTAP	7	72	2
NMSTR	7	96	5
NMSI_	7	96	5	96	48	2
NMTAP	7	120	4
NMTAP	7	144	3
NMTAP	7	168	2
NMHLD	7	192	1	120
NMTAP	7	312	3
NMTAP	7	336	3
NMTAP	7	360	2
NMTAP	8	0	2
NMTAP	8	24	3
NMTAP	8	48	4
NMHLD	8	72	5	48
NMTAP	8	120	2
NMTAP	8	144	2
BRTAP	8	168	1
NMHLD	8	168	7	48
NMTAP	8	216	0
NMTAP	8	240	0
NMTAP	8	264	6
NMTAP	8	276	7
NMTAP	8	288	6
NMTAP	8	312	0
NMTAP	8	312	7
NMTAP	8	336	1
NMTAP	8	336	6
NMTAP	9	0	2
NMSTR	9	0	4
NMSCL	9	0	4	96	48	0
NMTAP	9	24	5
NMTAP	9	48	5
NMTAP	9	72	5
NMTAP	9	96	6
NMTAP	9	120	6
NMTAP	9	144	6
NMTAP	9	168	6
NMTAP	9	192	0
NMTAP	9	192	7
NMTAP	9	216	6
NMTAP	9	228	7
NMTAP	9	240	6
NMTAP	9	252	7
NMTAP	9	264	6
NMTAP	9	288	6
NMTAP	9	288	7
NMTAP	9	312	0
NMTAP	9	312	5
NMTAP	9	336	1
NMTAP	9	336	4
NMTAP	9	360	2
NMSTR	10	0	3
NMSCR	10	0	3	96	48	7
NMTAP	10	24	2
NMTAP	10	48	2
NMTAP	10	72	2
NMTAP	10	96	1
NMTAP	10	120	0
NMTAP	10	144	0
NMTAP	10	168	0
NMTTP	10	192	7	D	0	M1
NMTTP	10	200	6	A	0	M1
NMTTP	10	208	6	D	0	M1
NMTTP	10	216	5	A	0	M1
NMTTP	10	224	5	D	0	M1
NMTTP	10	232	4	A	0	M1
NMTTP	10	240	4	D	0	M1
NMTTP	10	248	3	A	0	M1
NMTTP	10	256	3	D	0	M1
NMTTP	10	264	2	A	0	M1
NMTTP	10	272	2	D	0	M1
NMTTP	10	280	1	A	0	M1
NMTTP	10	288	7	D	0	M1
NMTTP	10	296	6	A	0	M1
NMTTP	10	304	6	D	0	M1
NMTTP	10	312	5	A	0	M1
NMTTP	10	320	5	D	0	M1
NMTTP	10	328	4	A	0	M1
NMTTP	10	336	4	D	0	M1
NMTTP	10	344	3	A	0	M1
NMTTP	10	352	3	D	0	M1
NMTTP	10	360	2	A	0	M1
NMTTP	10	368	2	D	0	M1
NMTTP	10	376	1	A	0	M1
EXSTR	11	0	7
NMSCL	11	0	7	96	48	3
EXTAP	11	24	0
EXTAP	11	48	0
EXTAP	11	72	0
NMTAP	11	96	1
NMTAP	11	120	1
NMTAP	11	144	1
NMTAP	11	168	1
NMTAP	11	192	1
NMTAP	11	204	3
NMTAP	11	216	2
NMTAP	11	228	4
NMTAP	11	240	3
NMTAP	11	252	5
NMTAP	11	264	4
NMTAP	11	276	6
NMTAP	11	288	3
NMTAP	11	312	3
BRTAP	11	336	1
NMTAP	11	336	5
BRTAP	12	0	2
NMTAP	12	12	3
NMTAP	12	24	2
NMTAP	12	36	3
NMTAP	12	48	2
NMTAP	12	60	3
BRTAP	12	72	1
NMTAP	12	84	3
NMSTR	12	96	2
NMSCL	12	96	2	96	48	5
NMTAP	12	108	3
NMTAP	12	120	2
NMTAP	12	132	3
BRTAP	12	144	0
NMTAP	12	156	3
NMTAP	12	168	2
NMTAP	12	180	3
BXTAP	12	192	2
EXHLD	12	264	0	8
EXHLD	12	264	7	8
EXHLD	12	280	0	8
EXHLD	12	280	7	8
NMTAP	12	312	1
NMTAP	12	312	6
NMTTP	12	336	0	C	1	M1
BXTAP	13	0	7
NMTAP	13	4	6
NMTAP	13	8	5
NMTAP	13	12	4
BXTAP	13	36	7
NMTAP	13	40	6
NMTAP	13	44	5
NMTAP	13	48	4
BXTAP	13	72	7
NMTAP	13	76	6
NMTAP	13	80	5
NMTAP	13	84	4
EXHLD	13	96	0	8
EXHLD	13	112	0	8
BXTAP	13	144	0
NMTAP	13	148	1
NMTAP	13	152	2
NMTAP	13	156	3
BXTAP	13	180	0
NMTAP	13	184	1
NMTAP	13	188	2
NMTAP	13	192	3
BXTAP	13	216	0
NMTAP	13	220	1
NMTAP	13	224	2
NMTAP	13	228	3
EXHLD	13	240	7	8
EXHLD	13	256	7	8
NMTTP	13	288	1	E	0	M1
NMTTP	13	336	3	E	0	M1
BRTAP	14	0	6
NMTAP	14	4	5
NMTAP	14	8	4
NMTAP	14	12	3
BRTAP	14	36	6
NMTAP	14	40	5
NMTAP	14	44	4
NMTAP	14	48	3
BRTAP	14	72	6
NMTAP	14	76	5
NMTAP	14	80	4
NMTAP	14	84	3
NMHLD	14	96	0	8
NMHLD	14	112	0	8
BRTAP	14	144	1
NMTAP	14	148	2
NMTAP	14	152	3
NMTAP	14	156	4
BRTAP	14	180	1
NMTAP	14	184	2
NMTAP	14	188	3
NMTAP	14	192	4
BRTAP	14	216	1
NMTAP	14	220	2
NMTAP	14	224	3
NMTAP	14	228	4
NMHLD	14	240	7	8
NMHLD	14	256	7	8
NMSTR	14	288	0
NMSLR	14	288	0	96	96	4
NMTAP	14	312	0
NMTAP	14	336	6
NMSTR	15	0	4
NMSLR	15	0	4	96	96	0
NMSTR	15	96	0
NMSCR	15	96	0	96	96	4
NMSTR	15	192	4
NMSCR	15	192	4	96	96	0
NMSTR	15	288	0
NMSSL	15	288	0	96	144	4
NMHLD	16	168	7	216
NMTTP	17	0	0	C	0	M1
NMSTR	17	288	3
NMSCL	17	288	3	96	192	4
NMSTR	17	288	4
NMSCR	17	288	4	96	192	3
NMTAP	17	312	2
NMTAP	17	312	5
NMTAP	17	336	1
NMTAP	17	336	6
NMTTP	18	0	3	A	0	M1
NMTTP	18	0	4	A	0	M1
NMTTP	18	0	4	D	1	M1
NMTAP	18	288	3
NMTAP	18	288	5
NMHLD	18	312	2	24
NMHLD	18	312	6	24
BRTAP	19	0	1
BRTAP	19	0	5
NMTAP	19	24	2
NMTAP	19	48	3
NMTAP	19	48	4
NMTAP	19	72	5
NMTAP	19	84	4
NMTAP	19	96	6
NMTAP	19	108	4
NMTAP	19	120	5
NMTAP	19	144	0
NMTAP	19	144	6
NMTAP	19	168	1
NMTAP	19	192	2
NMTAP	19	192	7
NMTAP	19	216	6
NMTAP	19	228	3
NMTAP	19	240	5
NMTAP	19	252	4
NMTAP	19	264	5
NMTAP	19	288	3
NMSTR	19	288	6
NMSI_	19	288	6	96	24	4
NMTAP	19	312	3
NMTAP	19	336	2
NMTAP	19	360	1
NMSTR	20	0	0
NMSI_	20	0	0	96	24	2
NMTAP	20	0	6
NMTAP	20	24	7
NMTAP	20	48	7
NMTAP	20	72	7
NMTAP	20	96	0
NMSTR	20	96	4
NMSCR	20	96	4	96	24	7
NMTAP	20	120	3
NMTAP	20	144	3
NMTAP	20	168	3
NMTAP	20	192	2
NMTAP	20	192	4
NMTAP	20	216	1
NMTAP	20	240	0
NMTAP	20	264	7
NMTAP	20	288	1
NMTAP	20	288	6
NMTAP	20	312	2
NMTAP	20	312	5
NMTAP	20	336	3
NMHLD	20	336	4	48
NMTAP	21	0	2
NMTAP	21	12	3
NMTAP	21	24	1
NMTAP	21	36	4
NMTAP	21	48	0
NMTAP	21	60	5
NMTAP	21	72	7
NMTAP	21	84	6
NMTAP	21	96	4
NMTAP	21	108	5
NMTAP	21	120	3
NMTAP	21	132	6
NMTAP	21	144	2
NMTAP	21	156	7
NMTAP	21	168	1
NMTAP	21	180	0
NMTAP	21	192	7
NMTAP	21	204	6
NMTAP	21	216	5
NMTAP	21	228	4
NMTAP	21	240	2
NMTAP	21	240	3
NMTAP	21	252	1
NMTAP	21	264	0
NMTAP	21	276	7
NMTAP	21	288	0
NMTAP	21	288	4
NMTAP	21	300	1
NMTAP	21	300	5
NMTAP	21	312	2
NMTAP	21	312	6
NMTAP	21	324	3
NMTAP	21	324	7
BRTAP	21	336	0
BRTAP	21	336	4
NMTAP	22	0	6
NMTAP	22	12	4
NMTAP	22	24	5
NMTAP	22	36	4
NMTAP	22	48	6
NMTAP	22	72	2
NMTAP	22	84	3
NMTAP	22	96	1
NMTAP	22	108	3
NMTAP	22	120	2
NMTAP	22	144	1
NMTAP	22	144	4
NMTAP	22	168	2
NMTAP	22	168	3
NMTAP	22	192	1
NMTAP	22	204	0
NMTAP	22	216	2
NMTAP	22	228	0
NMTAP	22	240	1
NMTAP	22	264	6
NMTAP	22	276	7
NMTAP	22	288	5
NMTAP	22	300	7
NMTAP	22	312	6
NMTAP	22	336	0
NMTAP	22	336	7
NMTAP	22	360	1
NMTAP	22	360	6
BRTAP	23	0	2
BRTAP	23	0	5
NMTAP	23	48	4
NMTAP	23	60	3
NMTAP	23	72	2
NMTAP	23	84	1
BRTAP	23	96	0
NMTTP	23	96	6	B	0	M1
NMTTP	23	96	6	E	0	M1
NMTTP	23	96	6	D	1	M1
NMTTP	23	128	2	B	0	M1
NMTTP	23	128	3	E	0	M1
NMTTP	23	128	3	D	1	M1
BRTAP	23	128	7
BRTAP	23	160	1
NMTTP	23	160	5	B	0	M1
NMTTP	23	160	5	E	0	M1
NMTTP	23	160	5	D	1	M1
NMHLD	23	192	0	48
NMHLD	23	240	2	48
NMHLD	23	288	4	48
NMTAP	23	336	5
NMSTR	24	0	6
NMSI_	24	0	6	96	24	3
NMSTR	24	24	3
NMSI_	24	24	3	96	24	7
NMSTR	24	48	7
NMSI_	24	48	7	96	24	2
NMSTR	24	72	2
NMSI_	24	72	2	96	24	6
NMSTR	24	192	1
NMSI_	24	192	1	96	24	4
NMSTR	24	216	4
NMSI_	24	216	4	96	24	0
NMSTR	24	240	0
NMSI_	24	240	0	96	24	5
NMSTR	24	264	5
NMSI_	24	264	5	96	24	1
NMTAP	25	0	6
NMTAP	25	24	7
NMTAP	25	48	0
NMTAP	25	72	1
NMSTR	25	96	2
NMSI_	25	96	2	96	24	7
NMSTR	25	96	3
NMSI_	25	96	3	96	24	6
NMTAP	25	120	1
NMTAP	25	120	4
NMTAP	25	144	0
NMTAP	25	144	5
NMTAP	25	192	2
NMTAP	25	192	3
NMHLD	25	336	0	0
NMHLD	25	336	4	0
BRTAP	26	0	0
NMTAP	26	8	1
NMTAP	26	16	2
NMTAP	26	24	3
NMTAP	26	32	4
NMTAP	26	40	5
NMTAP	26	48	6
NMTAP	26	56	7
NMTAP	26	64	0
NMTAP	26	72	1
NMTAP	26	80	2
NMTAP	26	88	3
BRTAP	26	96	5
NMTAP	26	104	6
NMTAP	26	112	7
NMTAP	26	120	0
NMTAP	26	128	1
NMTAP	26	136	2
NMTAP	26	144	3
NMTAP	26	152	4
NMTAP	26	160	5
NMTAP	26	168	6
NMTAP	26	176	7
NMTAP	26	184	0
BRTAP	26	192	2
NMTAP	26	200	3
NMTAP	26	208	4
NMTAP	26	216	5
NMTAP	26	224	6
NMTAP	26	232	7
NMTAP	26	240	0
NMTAP	26	248	1
NMTAP	26	256	2
NMTAP	26	264	3
NMTAP	26	272	4
NMTAP	26	280	5
BRTAP	26	288	7
NMTAP	26	296	0
NMTAP	26	304	1
NMTAP	26	312	2
NMTAP	26	320	3
NMTAP	26	328	4
NMTAP	26	336	5
NMTAP	26	344	6
NMTAP	26	352	7
NMTAP	26	360	0
NMTAP	26	368	1
NMTAP	26	376	2
BRTAP	27	0	4
NMTAP	27	8	5
NMTAP	27	16	6
NMTAP	27	24	7
NMTAP	27	32	0
NMTAP	27	40	1
NMTAP	27	48	2
NMTAP	27	56	3
NMTAP	27	64	4
NMTAP	27	72	5
NMTAP	27	80	6
NMTAP	27	88	7
BRTAP	27	96	1
NMTAP	27	104	2
NMTAP	27	112	3
NMTAP	27	120	4
NMTAP	27	128	5
NMTAP	27	136	6
NMTAP	27	144	7
NMTAP	27	152	0
NMTAP	27	160	1
NMTAP	27	168	2
NMTAP	27	176	3
NMTAP	27	184	4
NMSTR	27	192	5
NMSCR	27	192	5	96	48	1
NMTAP	27	240	2
NMTAP	27	240	4
NMTAP	27	288	3
NMHLD	27	336	3	0
NMTAP	28	0	3
BRTAP	28	0	7
NMTAP	28	8	6
NMTAP	28	16	5
NMTAP	28	24	4
NMTAP	28	32	3
NMTAP	28	40	2
NMTAP	28	48	1
NMTAP	28	56	0
NMTAP	28	64	7
NMTAP	28	72	6
NMTAP	28	80	5
NMTAP	28	88	4
BRTAP	28	96	2
NMTAP	28	104	1
NMTAP	28	112	0
NMTAP	28	120	7
NMTAP	28	128	6
NMTAP	28	136	5
NMTAP	28	144	4
NMTAP	28	152	3
NMTAP	28	160	2
NMTAP	28	168	1
NMTAP	28	176	0
NMTAP	28	184	7
BRTAP	28	192	5
NMTAP	28	200	4
NMTAP	28	208	3
NMTAP	28	216	2
NMTAP	28	224	1
NMTAP	28	232	0
NMTAP	28	240	7
NMTAP	28	248	6
NMTAP	28	256	5
NMTAP	28	264	4
NMTAP	28	272	3
NMTAP	28	280	2
BRTAP	28	288	0
NMTAP	28	296	7
NMTAP	28	304	6
NMTAP	28	312	5
NMTAP	28	320	4
NMTAP	28	328	3
NMTAP	28	336	2
NMTAP	28	344	1
NMTAP	28	352	0
NMTAP	28	360	7
NMTAP	28	368	6
NMTAP	28	376	5
BRTAP	29	0	3
NMTAP	29	8	2
NMTAP	29	16	1
NMTAP	29	24	0
NMTAP	29	32	7
NMTAP	29	40	6
NMTAP	29	48	5
NMTAP	29	56	4
NMTAP	29	64	3
NMTAP	29	72	2
NMTAP	29	80	1
NMTAP	29	88	0
BRTAP	29	96	6
NMTAP	29	104	5
NMTAP	29	112	4
NMTAP	29	120	3
NMTAP	29	128	2
NMTAP	29	136	1
NMTAP	29	144	0
NMTAP	29	152	7
NMTAP	29	160	6
NMTAP	29	168	5
NMTAP	29	176	4
NMTAP	29	184	3
NMSTR	29	192	2
NMSCL	29	192	2	96	48	6
NMTAP	29	240	3
NMTAP	29	240	5
NMTAP	29	288	4
NMHLD	29	336	4	0
BRTAP	30	0	0
BXTAP	30	0	4
NMTAP	30	8	1
NMTAP	30	16	2
NMTAP	30	24	3
NMTAP	30	32	4
NMTAP	30	40	5
NMTAP	30	48	6
NMTAP	30	56	7
NMTAP	30	64	0
EXTAP	30	72	1
BRTAP	30	72	6
NMTAP	30	80	5
NMTAP	30	88	4
NMTAP	30	96	3
NMTAP	30	104	2
NMTAP	30	112	1
NMTAP	30	120	0
NMTAP	30	128	7
NMTAP	30	136	6
BRTAP	30	144	2
EXTAP	30	144	5
NMTAP	30	152	3
NMTAP	30	160	4
NMTAP	30	168	5
NMTAP	30	176	6
NMTAP	30	184	7
EXTAP	30	192	0
BRTAP	30	192	4
NMTAP	30	200	3
NMTAP	30	208	2
NMTAP	30	216	1
NMTAP	30	224	0
NMTAP	30	232	7
NMTAP	30	240	6
NMTAP	30	248	5
NMTAP	30	256	4
BRTAP	30	264	0
EXTAP	30	264	3
NMTAP	30	272	1
NMTAP	30	280	2
NMTAP	30	288	3
NMTAP	30	296	4
NMTAP	30	304	5
NMTAP	30	312	6
NMTAP	30	320	7
NMTAP	30	328	0
EXTAP	30	336	1
BRTAP	30	336	5
NMTAP	30	344	4
NMTAP	30	352	3
NMTAP	30	360	2
NMTAP	30	368	1
NMTAP	30	376	0
BRTAP	31	0	3
EXTAP	31	0	7
NMTAP	31	8	4
NMTAP	31	16	5
NMTAP	31	24	6
NMTAP	31	32	7
NMTAP	31	40	0
NMTAP	31	48	1
NMTAP	31	56	2
NMTAP	31	64	3
EXTAP	31	72	4
BRTAP	31	72	7
NMTAP	31	80	6
NMTAP	31	88	5
NMTAP	31	96	4
NMTAP	31	104	3
NMTAP	31	112	2
NMTAP	31	120	1
NMTAP	31	128	0
NMTAP	31	136	7
BRTAP	31	144	2
EXTAP	31	144	6
NMTAP	31	152	3
NMTAP	31	160	4
NMTAP	31	168	5
NMTAP	31	176	6
NMTAP	31	184	7
BXTAP	31	192	0
NMTTP	31	192	4	E	1	M1
NMTTP	31	240	3	E	1	M1
NMTAP	31	240	6
NMTAP	31	288	1
NMTTP	31	288	5	E	1	M1
NMTTP	31	336	0	C	1	M1
NMTTP	31	336	3	B	0	M1
NMTTP	31	336	4	B	0	M1
NMTAP	31	336	7
NMSTR	32	0	0
NMSI_	32	0	0	96	288	4
NMSTR	33	0	0
NMSLL	33	0	0	96	192	4
NMSLR	33	0	0	96	192	4
NMTHO	34	0	0	48	C	0	M1
NMTAP	34	0	6
NMSTR	34	48	6
NMSXL	34	48	6	96	144	3
NMTHO	35	0	0	48	C	0	M1
NMTAP	35	0	1
NMSTR	35	48	1
NMSXR	35	48	1	96	144	4
NMTHO	36	0	0	48	C	0	M1
NMTAP	36	0	6
NMSTR	36	48	6
NMSXR	36	48	6	96	144	0
NMTHO	37	0	0	48	C	0	M1
NMTAP	37	0	1
NMTAP	37	48	1
NMHLD	37	96	0	144
NMTAP	37	96	7
NMTAP	37	144	7
NMHLD	37	192	6	72
NMTTP	37	312	0	C	0	M1
BRTAP	38	0	0
BRSTR	38	48	0
NMSI_	38	48	0	96	48	3
BRTAP	38	144	6
BRSTR	38	192	6
NMSI_	38	192	6	96	48	1
BRTAP	38	288	3
BRSTR	38	336	3
NMSI_	38	336	3	96	48	0
BRTAP	39	48	6
BRSTR	39	96	6
NMSI_	39	96	6	96	48	3
NMTAP	39	192	1
CNSI_	39	240	3	0	48	7
NMTAP	39	288	1
CNSI_	39	288	7	0	48	2
BRTAP	40	0	0
BRSTR	40	48	0
NMSCL	40	48	0	96	48	5
BRTAP	40	144	3
BRSTR	40	192	3
NMSCL	40	192	3	96	48	0
BRTAP	40	288	6
BRSTR	40	336	6
NMSCL	40	336	6	96	48	3
BRTAP	41	48	2
BRSTR	41	96	2
NMSV_	41	96	2	96	48	5
NMSV_	41	96	2	96	48	7
CNSI_	41	240	5	0	72	3
CNSI_	41	240	7	0	72	1
NMTAP	42	0	2
NMTAP	42	48	2
NMTAP	42	96	3
NMTAP	42	144	3
NMTAP	42	192	4
NMTAP	42	240	4
NMTAP	42	288	5
NMTAP	42	336	5
NMTAP	43	0	4
NMTAP	43	0	6
NMTAP	43	48	6
NMTAP	43	96	3
NMTAP	43	96	5
NMTAP	43	144	3
NMTAP	43	192	2
NMTAP	43	192	4
NMTAP	43	240	1
NMTAP	43	240	3
BRTAP	43	288	0
BRTAP	43	288	4
BRTAP	43	336	0
BRTAP	43	336	4
NMTAP	44	0	1
NMTAP	44	24	3
NMTAP	44	48	1
NMTAP	44	72	3
NMTAP	44	96	2
NMTAP	44	120	2
NMTAP	44	144	2
NMTAP	44	192	6
NMTAP	44	216	4
NMTAP	44	240	6
NMTAP	44	264	4
NMTAP	44	288	5
NMTAP	44	312	5
NMTAP	44	336	5
NMTAP	45	0	0
NMTTP	45	0	0	C	1	M1
NMSTR	46	0	0
NMSCR	46	0	0	96	1392	7
NMSTR	50	96	0
NMSCR	50	96	0	96	48	3
NMSTR	50	96	7
NMSCL	50	96	7	96	48	4
NMTTP	50	192	0	A	0	M1
NMTTP	50	192	0	D	1	M1
NMTTP	50	192	7	A	0	M1
NMSTR	50	288	6
NMSCL	50	288	6	96	48	3
NMSTR	50	288	7
NMSCR	50	288	7	96	48	2
NMTTP	51	0	6	A	0	M1
NMTTP	51	0	7	A	0	M1
NMTTP	51	0	7	D	1	M1
NMSTR	51	96	0
NMSCL	51	96	0	96	48	5
NMSTR	51	96	1
NMSCR	51	96	1	96	48	4
NMTTP	51	192	0	A	0	M1
NMTTP	51	192	1	A	0	M1
NMTTP	51	192	1	D	1	M1
NMSTR	51	288	6
NMSCL	51	288	6	96	48	3
NMSTR	51	288	7
NMSCR	51	288	7	96	48	2
NMTTP	52	0	6	A	0	M1
NMTTP	52	0	7	A	0	M1
NMTTP	52	0	7	D	1	M1
NMSTR	52	96	0
NMSCR	52	96	0	96	48	3
NMSTR	52	96	7
NMSCL	52	96	7	96	48	4
NMTTP	52	192	0	A	0	M1
NMTTP	52	192	0	D	1	M1
NMTTP	52	192	7	A	0	M1
EXTAP	52	288	0
EXTAP	52	288	7
NMTAP	53	0	0
NMTAP	53	12	1
NMTAP	53	24	2
NMTAP	53	36	3
NMTAP	53	48	4
NMTAP	53	60	5
NMTAP	53	72	6
NMTAP	53	84	7
NMSTR	53	96	0
NMSF_	53	96	0	96	48	4
NMTAP	53	108	1
NMTAP	53	120	2
NMTAP	53	132	3
NMTAP	53	144	4
NMTAP	53	156	5
NMTAP	53	168	6
NMTAP	53	180	7
NMTAP	53	192	0
NMTAP	53	288	2
NMTAP	53	288	6
NMTAP	54	0	2
BRTAP	54	0	7
NMTAP	54	48	1
NMTAP	54	72	0
NMSTR	54	96	2
NMSCL	54	96	2	96	48	7
NMTAP	54	144	4
NMTAP	54	192	2
NMSTR	54	192	6
NMSV_	54	192	6	96	48	3
NMTAP	54	216	5
NMTAP	54	240	4
NMTAP	54	288	2
NMTAP	54	288	6
NMTAP	54	336	2
NMTAP	55	0	0
NMTAP	55	0	4
NMTAP	55	48	6
NMTAP	55	72	7
NMSTR	55	96	5
NMSCR	55	96	5	96	48	0
NMTAP	55	144	3
NMSTR	55	192	1
NMSV_	55	192	1	96	48	4
NMTAP	55	192	5
NMTAP	55	216	2
NMTAP	55	240	3
NMTAP	55	288	1
NMTAP	55	288	5
NMTAP	55	336	5
NMTAP	56	0	3
NMTAP	56	0	7
NMTAP	56	48	2
NMTAP	56	72	3
NMSTR	56	96	1
NMSI_	56	96	1	96	48	4
NMTAP	56	144	0
NMTAP	56	192	1
NMSTR	56	192	7
NMSI_	56	192	7	96	48	2
NMTAP	56	216	6
NMTAP	56	240	5
NMTAP	56	288	5
NMTAP	56	288	7
NMTAP	56	336	6
NMSTR	57	0	3
NMSCL	57	0	3	96	48	0
NMSTR	57	0	7
NMSCL	57	0	7	96	48	4
NMSTR	57	96	3
NMSI_	57	96	3	96	48	6
NMSTR	57	96	7
NMSI_	57	96	7	96	48	2
NMTAP	57	192	3
NMTAP	57	192	7
BRTAP	57	288	3
BRTAP	57	288	7
NMTAP	58	0	2
EXTAP	58	12	3
NMTAP	58	24	6
EXTAP	58	36	5
NMTAP	58	48	2
EXTAP	58	60	3
NMTAP	58	72	6
EXTAP	58	84	5
NMTAP	58	96	1
EXTAP	58	108	2
NMTAP	58	120	7
EXTAP	58	132	6
NMTAP	58	144	1
EXTAP	58	156	2
NMTAP	58	168	7
EXTAP	58	180	6
BRTAP	58	192	0
NMTAP	58	288	2
NMTAP	58	288	4
NMTAP	58	336	2
NMTAP	58	336	4
NMTAP	59	0	5
EXTAP	59	12	4
NMTAP	59	24	1
EXTAP	59	36	2
NMTAP	59	48	5
EXTAP	59	60	4
NMTAP	59	72	1
EXTAP	59	84	2
NMTAP	59	96	6
EXTAP	59	108	5
NMTAP	59	120	0
EXTAP	59	132	1
NMTAP	59	144	6
EXTAP	59	156	5
NMTAP	59	168	0
EXTAP	59	180	1
BRTAP	59	192	7
NMTAP	59	264	0
NMTAP	59	264	6
NMTAP	59	336	1
NMTAP	59	336	5
NMTAP	60	0	2
NMTAP	60	24	3
NMTAP	60	48	2
NMTAP	60	96	5
NMTAP	60	120	4
NMTAP	60	144	5
NMTAP	60	192	1
NMTAP	60	216	3
NMTAP	60	240	1
NMTAP	60	288	5
NMTAP	60	312	3
NMTAP	60	336	5
NMTAP	61	0	2
NMHLD	61	0	4	24
NMHLD	61	48	4	24
NMHLD	61	96	4	24
NMTAP	61	96	6
NMHLD	61	144	4	24
NMTAP	61	192	1
NMHLD	61	192	4	24
NMHLD	61	240	4	24
NMTAP	61	288	4
BRTAP	61	288	7
NMTAP	62	0	0
NMHLD	62	0	1	96
NMTAP	62	32	0
NMTAP	62	64	0
NMTAP	62	96	0
NMHLD	62	192	6	96
NMTAP	62	192	7
NMTAP	62	224	7
NMTAP	62	256	7
NMTAP	62	288	7
NMTAP	63	0	0
NMHLD	63	0	2	96
NMTAP	63	32	0
NMTAP	63	64	0
NMTAP	63	96	0
NMHLD	63	192	4	96
NMTAP	63	192	6
NMTAP	63	224	6
NMTAP	63	256	6
NMSTR	63	288	6
NMSI_	63	288	6	96	48	0
NMHLD	64	0	1	96
NMTAP	64	128	0
NMTAP	64	160	0
NMTAP	64	192	1
NMHLD	64	192	7	96
NMTAP	64	288	2
NMTAP	64	320	2
NMTAP	64	352	4
NMHLD	65	0	3	96
NMTAP	65	0	5
NMTAP	65	32	5
NMTAP	65	64	5
NMTAP	65	96	5
NMTAP	65	192	0
NMHLD	65	192	4	192
NMTAP	65	224	0
NMTAP	65	256	0
NMHLD	65	288	0	96
NMTTP	66	96	0	C	1	M1
NMTTP	66	97	1	D	0	M1
NMTTP	66	108	1	A	0	M1
NMTTP	66	108	2	D	0	M1
NMTTP	66	120	2	A	0	M1
NMTTP	66	120	3	D	0	M1
NMTTP	66	132	3	A	0	M1
NMTTP	66	132	4	D	0	M1
NMTTP	66	144	4	A	0	M1
NMTTP	66	144	5	D	0	M1
NMTTP	66	156	5	A	0	M1
NMTTP	66	156	6	D	0	M1
NMTTP	66	168	6	A	0	M1
NMTTP	66	168	7	D	0	M1
NMTTP	66	180	0	D	0	M1
NMTTP	66	180	7	A	0	M1
NMTTP	66	192	0	A	0	M1
NMTTP	66	192	1	D	0	M1
NMTTP	66	204	1	A	0	M1
NMTTP	66	204	2	D	0	M1
NMTTP	66	216	2	A	0	M1
NMTTP	66	216	3	D	0	M1
NMTTP	66	228	3	A	0	M1
NMTTP	66	228	4	D	0	M1
NMTTP	66	240	4	A	0	M1
NMTTP	66	240	5	D	0	M1
NMTTP	66	252	5	A	0	M1
NMTTP	66	252	6	D	0	M1
NMTTP	66	264	6	A	0	M1
NMTTP	66	264	7	D	0	M1
NMTTP	66	276	0	D	0	M1
NMTTP	66	276	7	A	0	M1
NMTTP	66	288	0	A	0	M1
NMTTP	66	288	1	D	0	M1
NMTTP	66	300	1	A	0	M1
NMTTP	66	300	2	D	0	M1
NMTTP	66	312	2	A	0	M1
NMTTP	66	312	3	D	0	M1
NMTTP	66	324	3	A	0	M1
NMTTP	66	324	4	D	0	M1
NMTTP	66	336	4	A	0	M1
NMTTP	66	336	5	D	0	M1
NMTTP	66	348	5	A	0	M1
NMTTP	66	348	6	D	0	M1
NMTTP	66	360	6	A	0	M1
NMTTP	66	360	7	D	0	M1
NMTTP	66	372	0	D	0	M1
NMTTP	66	372	7	A	0	M1
EXTAP	67	0	0
EXTAP	67	16	1
EXTAP	67	32	2
EXTAP	67	48	3
EXTAP	67	64	4
EXTAP	67	80	5
NMTAP	67	96	1
NMTAP	67	112	2
NMTAP	67	128	3
NMTAP	67	144	4
NMTAP	67	160	5
NMTAP	67	176	6
NMTAP	67	192	2
NMTAP	67	208	3
NMTAP	67	224	4
NMTAP	67	240	5
NMTAP	67	256	6
NMTAP	67	272	7
BRTAP	67	288	0
BRTAP	67	288	4
NMTAP	68	0	6
NMTAP	68	24	7
NMTAP	68	48	6
NMTAP	68	72	7
NMTAP	68	96	5
NMTAP	68	120	4
NMTAP	68	144	5
NMTAP	68	168	4
NMTAP	68	192	0
NMTAP	68	216	1
NMTAP	68	240	0
NMTAP	68	264	1
NMSTR	68	288	3
NMSI_	68	288	3	96	48	7
NMTAP	68	312	2
NMTAP	68	336	3
NMTAP	68	360	2
NMTAP	69	0	3
NMTAP	69	96	0
NMTAP	69	96	6
NMTAP	69	144	1
NMSTR	69	144	5
NMSI_	69	144	5	96	48	0
NMTAP	69	240	3
NMSTR	69	288	3
NMSCL	69	288	3	96	576	5
NMTTP	70	0	0	C	1	M1
BRTAP	71	288	0
BRTAP	71	312	7
BRTAP	71	336	0
BRTAP	71	360	7
NMHLD	72	0	1	64
NMHLD	72	64	7	64
NMHLD	72	128	5	64
NMHLD	72	192	3	64
NMHLD	72	256	5	64
NMHLD	72	320	7	64
NMTAP	73	0	1
NMTAP	73	32	1
NMTAP	73	64	3
NMTAP	73	96	3
NMTAP	73	128	5
NMTAP	73	160	5
NMTAP	73	192	7
NMTAP	73	240	0
NMTAP	73	240	6
NMTAP	73	288	0
NMTAP	73	288	6
NMTAP	73	300	1
NMTAP	73	300	5
NMTAP	73	312	2
NMTAP	73	312	4
NMTAP	73	324	3
NMTAP	74	0	1
NMTAP	74	24	0
NMTAP	74	48	1
NMTAP	74	72	0
NMTAP	74	96	1
NMTAP	74	112	2
NMTAP	74	128	3
NMTAP	74	144	7
NMTAP	74	160	6
NMTAP	74	176	5
NMTAP	74	192	0
NMTAP	74	216	7
NMTAP	74	240	0
NMTAP	74	264	7
NMTAP	74	288	0
NMTAP	74	304	1
NMTAP	74	320	2
NMTAP	74	336	7
NMTAP	74	352	6
NMTAP	74	368	5
NMTAP	75	0	3
NMTAP	75	16	4
NMTAP	75	32	3
NMTAP	75	48	4
NMTAP	75	64	3
NMTAP	75	80	4
NMTAP	75	96	2
NMTAP	75	112	5
NMTAP	75	128	2
NMTAP	75	144	5
NMTAP	75	160	2
NMTAP	75	176	5
BXTAP	75	192	1
BXTAP	75	208	6
BXTAP	75	224	1
BXTAP	75	240	6
BXTAP	75	256	1
BXTAP	75	272	6
NMTAP	75	288	0
NMTAP	75	304	7
NMTAP	75	320	0
NMTAP	75	336	7
NMTAP	75	352	0
NMTAP	75	368	7
NMTAP	76	0	0
NMTAP	76	12	1
NMTAP	76	24	2
NMTAP	76	36	3
NMTAP	76	48	0
NMTAP	76	60	1
NMTAP	76	72	2
NMTAP	76	84	3
NMTAP	76	96	7
NMTAP	76	108	6
NMTAP	76	120	5
NMTAP	76	132	4
NMTAP	76	144	7
NMTAP	76	156	6
NMTAP	76	168	5
NMTAP	76	180	4
NMTAP	76	192	1
NMTAP	76	204	2
NMTAP	76	216	3
NMTAP	76	228	4
NMTAP	76	240	0
NMTAP	76	252	1
NMTAP	76	264	2
NMTAP	76	276	3
NMTAP	76	288	6
NMTAP	76	300	5
NMTAP	76	312	4
NMTAP	76	324	3
NMTAP	76	336	7
NMTAP	76	348	6
NMTAP	76	360	5
NMTAP	76	372	4
NMHLD	77	0	3	288
NMTAP	77	0	7
NMTAP	77	288	0
NMTAP	77	360	1
NMTAP	78	0	1
NMTAP	78	112	2
NMTAP	78	192	3
NMTAP	78	288	4
NMTTP	79	0	5	A	0	M1
NMTTP	79	4	5	E	0	M1
NMTTP	79	8	4	B	0	M1
NMTTP	79	12	3	B	0	M1
NMTTP	79	16	3	E	0	M1
NMTTP	79	20	2	A	0	M1

T_REC_TAP	764
T_REC_BRK	65
T_REC_XTP	35
T_REC_BXX	15
T_REC_HLD	47
T_REC_XHO	8
T_REC_BHO	0
T_REC_BXH	0
T_REC_STR	62
T_REC_BST	8
T_REC_XST	1
T_REC_XBS	0
T_REC_TTP	118
T_REC_THO	4
T_REC_SLD	73
T_REC_BSL	0
T_REC_ALL	1200
T_NUM_TAP	980
T_NUM_BRK	88
T_NUM_HLD	59
T_NUM_SLD	73
T_NUM_ALL	1200
T_JUDGE_TAP	1068
T_JUDGE_HLD	131
T_JUDGE_SLD	73
T_JUDGE_ALL	1272
TTM_EACHPAIRS	109
TTM_SCR_TAP	490000
TTM_SCR_BRK	228800
TTM_SCR_HLD	59000
TTM_SCR_SLD	109500
TTM_SCR_ALL	887300
TTM_SCR_S	852150
TTM_SCR_SS	878500
TTM_RAT_ACV	10100

