VERSION	0.00.00	1.04.00
FES_MODE	0
BPM_DEF	 88.800	 88.800	177.600	 38.800
MET_DEF	4	4
RESOLUTION	384
CLK_DEF	384
COMPATIBLE_CODE	MA2

BPM	0	0	 88.800
BPM	1	96	 78.800
BPM	1	288	 88.800
BPM	3	192	 78.800
BPM	3	288	 68.800
BPM	4	0	 88.800
BPM	15	288	 78.800
BPM	16	48	 68.800
BPM	16	96	 58.800
BPM	16	120	 48.800
BPM	16	144	 38.800
BPM	16	168	 88.800
BPM	38	0	177.600
BPM	77	0	 78.800
BPM	77	192	 58.800
BPM	78	0	 68.800
BPM	78	192	 58.800
BPM	78	288	 48.800
MET	0	0	4	4
MET	35	0	4	4

EXSTR	1	0	3
NMSCL	1	0	3	96	960	4
EXSTR	1	3	4
NMSCR	1	3	4	96	957	3
NMTAP	4	0	3
NMHLD	4	48	3	240
NMTAP	4	192	4
NMHLD	4	240	4	48
NMTAP	5	0	2
NMTAP	5	24	3
NMTAP	5	48	4
NMHLD	5	72	5	120
NMTAP	5	120	4
NMTAP	5	144	3
NMTAP	5	168	2
NMSTR	5	192	2
NMSCR	5	192	2	96	48	5
NMTAP	6	0	6
NMTAP	6	24	5
NMTAP	6	48	4
NMHLD	6	72	3	120
NMTAP	6	120	4
NMTAP	6	144	5
NMTAP	6	168	6
NMSTR	6	192	6
NMSCL	6	192	6	96	48	3
NMTAP	7	0	1
NMTAP	7	24	2
NMTAP	7	48	3
NMHLD	7	72	4	120
NMTAP	7	120	3
NMTAP	7	144	2
NMTAP	7	168	1
NMSTR	7	192	1
NMSCR	7	192	1	96	48	4
NMTAP	8	0	3
NMTAP	8	24	4
NMTAP	8	48	5
NMHLD	8	72	6	48
NMTAP	8	120	5
NMTAP	8	144	4
NMTAP	8	168	3
NMSTR	8	192	2
NMSUL	8	192	2	96	96	0
NMTAP	8	216	2
NMTAP	8	240	4
NMTAP	8	264	4
NMHLD	9	0	5	96
NMTAP	9	48	1
NMTAP	9	72	1
NMHLD	9	96	0	96
NMTAP	9	144	5
NMTAP	9	168	5
NMHLD	9	192	4	96
NMTAP	9	240	0
NMTAP	9	264	0
NMHLD	9	288	7	96
NMTAP	9	336	4
NMTAP	9	360	4
NMHLD	10	0	3	96
NMTAP	10	48	7
NMTAP	10	72	7
NMHLD	10	96	6	96
NMTAP	10	144	3
NMTAP	10	168	3
NMHLD	10	192	2	96
NMTAP	10	240	6
NMTAP	10	264	6
NMHLD	10	288	5	48
NMTAP	10	336	1
NMTAP	11	0	6
NMTAP	11	24	4
NMHLD	11	48	2	96
NMTAP	11	96	4
NMTAP	11	120	5
NMHLD	11	144	6	96
NMTAP	11	192	2
NMTAP	11	216	3
NMHLD	11	240	4	96
NMTAP	11	288	6
NMTAP	11	312	7
NMHLD	11	336	0	96
NMTAP	12	0	4
NMTAP	12	24	5
NMHLD	12	48	6	96
NMTAP	12	96	0
NMTAP	12	120	1
NMHLD	12	144	2	48
NMTAP	12	192	5
NMTAP	12	240	1
NMTAP	12	240	6
NMTAP	12	264	1
NMTAP	12	264	6
NMTAP	12	312	3
NMTAP	12	312	4
NMTAP	13	0	2
NMTAP	13	36	1
NMTAP	13	36	3
NMTAP	13	72	1
NMTAP	13	72	3
NMTTP	13	96	4	E	0	M1
NMTTP	13	104	4	B	0	M1
NMTTP	13	112	5	B	0	M1
NMTTP	13	120	6	B	0	M1
NMTTP	13	128	7	E	0	M1
NMTAP	13	144	2
NMTAP	13	180	1
NMTAP	13	180	3
NMTAP	13	216	1
NMTAP	13	216	3
NMTTP	13	240	4	E	0	M1
NMTTP	13	248	4	B	0	M1
NMTTP	13	256	5	B	0	M1
NMTTP	13	264	6	B	0	M1
NMTTP	13	272	7	E	0	M1
NMTAP	13	288	0
NMTAP	13	312	1
NMTAP	13	336	2
NMTAP	13	336	3
NMTAP	14	0	5
NMTAP	14	36	4
NMTAP	14	36	6
NMTAP	14	72	3
NMTAP	14	72	5
NMTTP	14	96	3	E	0	M1
NMTTP	14	104	2	B	0	M1
NMTTP	14	112	1	B	0	M1
NMTTP	14	120	0	B	0	M1
NMTTP	14	128	0	E	0	M1
NMTAP	14	144	5
NMTAP	14	180	4
NMTAP	14	180	6
NMTAP	14	216	3
NMSTR	14	216	5
NMSUL	14	216	5	96	72	3
NMTTP	14	240	3	E	0	M1
NMTTP	14	248	2	B	0	M1
NMTTP	14	256	1	B	0	M1
NMTTP	14	264	0	B	0	M1
NMTTP	14	272	0	E	0	M1
NMHLD	15	0	2	96
NMHLD	15	96	3	96
NMHLD	15	192	4	96
NMHLD	15	288	5	96
NMHLD	16	0	6	96
NMHLD	16	96	7	72
BRTAP	16	168	0
NMTTP	17	0	0	C	0	M1
NMSTR	17	288	3
NMSCL	17	288	3	96	192	4
NMTAP	17	312	3
NMTAP	17	336	4
NMTTP	18	0	0	C	1	M1
NMTAP	18	288	3
NMTAP	18	288	4
NMTAP	18	312	2
NMTAP	18	312	5
NMTAP	19	0	1
NMTAP	19	24	1
NMTAP	19	48	5
NMTAP	19	72	5
NMTAP	19	96	2
NMTAP	19	108	3
NMTAP	19	120	4
NMTAP	19	144	4
NMTAP	19	192	6
NMTAP	19	216	6
NMTAP	19	240	2
NMTAP	19	264	2
NMTAP	19	288	5
NMTAP	19	300	4
NMTAP	19	312	3
NMTAP	19	336	3
NMTAP	20	0	1
NMTAP	20	24	1
NMTAP	20	48	5
NMTAP	20	72	5
NMTAP	20	96	2
NMTAP	20	108	3
NMTAP	20	120	4
NMTAP	20	144	2
NMTAP	20	156	3
NMTAP	20	168	4
NMTAP	20	192	1
NMHLD	20	216	1	48
NMTAP	20	240	2
NMHLD	20	264	2	48
NMTAP	20	288	3
NMHLD	20	312	3	24
NMTAP	20	336	4
NMTAP	21	0	3
NMTAP	21	0	5
NMTAP	21	24	2
NMTAP	21	48	1
NMTAP	21	72	0
NMTAP	21	72	7
NMSTR	21	96	6
NMSI_	21	96	6	96	24	3
NMTAP	21	120	5
NMTAP	21	144	2
NMTAP	21	144	4
CNSCL	21	216	3	0	48	0
CNSI_	21	264	0	0	24	4
NMTAP	21	336	3
NMTAP	21	336	5
NMTAP	22	0	2
NMTAP	22	24	2
NMTAP	22	48	6
NMTAP	22	72	6
NMTAP	22	96	1
NMTAP	22	108	0
NMTAP	22	120	7
NMTAP	22	144	7
NMTAP	22	192	5
NMTAP	22	216	5
NMTAP	22	240	1
NMTAP	22	264	1
NMTAP	22	288	6
NMTAP	22	300	7
NMTAP	22	312	0
NMTAP	22	336	0
NMHLD	23	0	2	48
NMHLD	23	0	6	48
BRTAP	23	96	2
BRTAP	23	96	4
BRTAP	23	128	5
BRTAP	23	128	7
BRTAP	23	160	0
BRTAP	23	160	1
BRSTR	23	192	0
NMSI_	23	192	0	96	48	4
BRTAP	23	192	1
NMTAP	23	240	2
NMTAP	23	240	7
NMTAP	24	0	1
NMTAP	24	24	1
NMTAP	24	48	5
NMTAP	24	72	5
NMTAP	24	96	2
NMTAP	24	108	3
NMTAP	24	120	4
NMTAP	24	144	2
NMTAP	24	156	3
NMTAP	24	168	4
NMTAP	24	192	1
NMTAP	24	216	1
NMTAP	24	240	5
NMTAP	24	264	5
NMTAP	24	288	0
NMTAP	24	300	7
NMTAP	24	312	6
NMTAP	24	336	0
NMTAP	24	348	7
NMTAP	24	360	6
NMTAP	25	0	1
NMTAP	25	24	1
NMTAP	25	48	3
NMTAP	25	72	3
NMTAP	25	96	4
NMTAP	25	120	4
NMTAP	25	144	3
NMTAP	25	144	5
NMHLD	25	192	6	48
NMHLD	25	240	4	48
NMHLD	25	288	3	48
NMTAP	25	336	1
NMSTR	26	0	0
NMSUL	26	0	0	96	48	4
NMSUR	26	0	0	96	48	4
NMTAP	26	24	0
NMTAP	26	48	2
NMTAP	26	48	6
NMSTR	26	192	7
NMSUL	26	192	7	96	48	3
NMSUR	26	192	7	96	48	3
NMTAP	26	216	7
NMTAP	26	240	1
NMTAP	26	240	5
NMSTR	27	0	1
NMSUL	27	0	1	96	48	5
NMSUR	27	0	1	96	48	5
NMTAP	27	24	1
NMTAP	27	48	3
NMTAP	27	48	7
NMTAP	27	192	1
NMSTR	27	192	7
NMSCL	27	192	7	96	48	4
NMSTR	27	240	3
NMSCL	27	240	3	96	48	0
NMTAP	27	240	5
NMSTR	28	0	7
NMSUR	28	0	7	96	48	3
NMTAP	28	24	7
NMSTR	28	48	7
NMSCL	28	48	7	96	48	4
NMTAP	28	72	7
NMSTR	28	192	2
NMSUR	28	192	2	96	48	6
NMTAP	28	216	2
NMSTR	28	240	2
NMSCL	28	240	2	96	48	7
NMTAP	28	264	2
NMSTR	29	0	4
NMSXL	29	0	4	96	72	4
NMTAP	29	24	4
NMTAP	29	48	4
NMTAP	29	72	4
NMSTR	29	192	3
NMSCL	29	192	3	96	48	0
NMSTR	29	240	0
NMSUR	29	240	0	96	48	4
NMTAP	29	240	6
NMSTR	30	0	7
NMSCL	30	0	7	96	24	5
NMTAP	30	24	7
NMSTR	30	48	7
NMSCR	30	48	7	96	24	1
NMSV_	30	48	7	96	24	4
NMTAP	30	72	7
NMSTR	30	192	3
NMSCL	30	192	3	96	24	1
NMTAP	30	216	3
NMSTR	30	240	3
NMSCR	30	240	3	96	24	5
NMSV_	30	240	3	96	24	0
NMTAP	30	264	3
NMSTR	31	0	6
NMSCR	31	0	6	96	24	0
NMTAP	31	24	6
NMSTR	31	48	6
NMSCL	31	48	6	96	24	4
NMSV_	31	48	6	96	24	3
NMTAP	31	72	6
EXSTR	31	192	0
NMSI_	31	192	0	96	24	2
NMSI_	31	192	0	96	24	3
NMTAP	31	216	0
NMSTR	31	240	0
NMSI_	31	240	0	96	24	5
NMSI_	31	240	0	96	24	6
NMTAP	31	264	0
EXSTR	31	288	0
NMSI_	31	288	0	96	24	4
NMTHO	33	192	0	192	C	0	M1
NMTTP	33	192	5	B	0	M1
NMTTP	33	192	6	B	0	M1
NMTTP	33	192	6	E	0	M1
NMSTR	34	0	6
NMSV_	34	0	6	96	72	3
NMHLD	34	48	6	240
CNSLR	34	168	3	0	120	0
NMSTR	35	0	1
NMSUL	35	0	1	96	96	4
NMHLD	35	48	1	240
CNSUL	35	192	4	0	96	7
NMSTR	36	0	5
NMSXL	36	0	5	96	96	6
NMHLD	36	48	5	240
CNSUL	36	192	6	0	96	2
NMSTR	37	0	3
NMSI_	37	0	3	96	48	6
NMHLD	37	48	3	144
NMTAP	37	192	7
NMTAP	37	240	1
NMTAP	37	240	5
NMTAP	37	264	1
NMTAP	37	264	5
NMTAP	37	312	2
NMTAP	37	312	6
NMTAP	38	0	7
NMSTR	38	48	7
NMSI_	38	48	7	96	48	3
NMTAP	38	144	2
NMSTR	38	192	2
NMSI_	38	192	2	96	48	5
NMTAP	38	288	6
NMSTR	38	336	6
NMSI_	38	336	6	96	48	1
NMTAP	39	48	0
NMSTR	39	96	0
NMSI_	39	96	0	96	48	4
NMTAP	39	192	6
NMTAP	39	288	3
NMTAP	39	288	5
NMTAP	40	0	5
NMSTR	40	48	5
NMSI_	40	48	5	96	48	0
NMTAP	40	144	3
NMSTR	40	192	3
NMSI_	40	192	3	96	48	7
NMTAP	40	288	6
NMSTR	40	336	6
NMSI_	40	336	6	96	48	2
NMTAP	41	48	4
NMSTR	41	96	4
NMSI_	41	96	4	96	48	1
NMTAP	41	192	6
NMTAP	41	288	3
NMTAP	41	288	4
NMTAP	42	0	2
NMTAP	42	0	3
NMTAP	42	48	2
NMTAP	42	48	3
NMTAP	42	96	1
NMTAP	42	96	4
NMTAP	42	144	1
NMTAP	42	144	4
NMTAP	42	192	0
NMTAP	42	192	5
NMTAP	42	240	0
NMTAP	42	240	5
NMTAP	42	288	6
NMTAP	42	288	7
NMTAP	42	336	6
NMTAP	42	336	7
NMTAP	43	0	4
NMTAP	43	0	5
NMTAP	43	48	4
NMTAP	43	48	5
NMTAP	43	96	2
NMTAP	43	96	3
NMTAP	43	144	2
NMTAP	43	144	3
NMTAP	43	192	0
NMTAP	43	192	1
NMTAP	43	240	0
NMTAP	43	240	1
NMTAP	43	288	6
NMTAP	43	288	7
NMTAP	43	336	6
NMTAP	43	336	7
NMTAP	44	0	5
NMTAP	44	24	5
NMTAP	44	48	5
NMTAP	44	96	4
NMTAP	44	120	4
NMTAP	44	144	4
NMTAP	44	192	3
NMTAP	44	216	3
NMTAP	44	240	3
NMTAP	44	288	2
NMTAP	44	312	2
NMTAP	44	336	2
NMTAP	45	0	1
NMTAP	45	0	3
NMTAP	45	96	2
NMTAP	45	96	4
NMSTR	45	192	5
NMSUL	45	192	5	96	96	1
NMSTR	45	288	1
NMSCR	45	288	1	96	1440	0
NMTTP	47	0	5	B	0	M1
NMTTP	48	0	2	B	0	M1
NMTTP	49	0	0	C	0	M1
BRSTR	50	192	0
BRSF_	50	192	0	96	48	4
BRSTR	51	0	7
BRSF_	51	0	7	96	48	3
BRSTR	51	192	1
BRSF_	51	192	1	96	48	5
BRSTR	52	0	6
BRSF_	52	0	6	96	48	2
BRSTR	52	192	3
BRSF_	52	192	3	96	48	7
NMTAP	53	0	1
NMTAP	53	0	5
NMTAP	53	96	6
NMTAP	53	96	7
NMTAP	53	144	5
NMTAP	53	192	3
NMTAP	53	192	4
NMTAP	53	240	2
BRTAP	53	288	0
BRTAP	53	288	1
NMSTR	54	0	1
NMSI_	54	0	1	96	48	6
NMTAP	54	48	1
NMSTR	54	96	2
NMSI_	54	96	2	96	48	5
NMTAP	54	144	2
NMSTR	54	192	0
NMSI_	54	192	0	96	48	5
NMTAP	54	240	0
NMSTR	54	288	3
NMSI_	54	288	3	96	48	6
NMTAP	54	336	3
NMSTR	55	0	2
NMSCL	55	0	2	96	48	7
NMTAP	55	48	2
NMTAP	55	96	5
NMTAP	55	144	5
NMTAP	55	168	4
NMTAP	55	192	3
NMTAP	55	240	3
NMTAP	55	288	2
NMTAP	55	288	4
NMTAP	55	336	5
NMTAP	56	0	3
NMSTR	56	0	6
NMSI_	56	0	6	96	48	1
NMTAP	56	48	6
NMSTR	56	96	5
NMSI_	56	96	5	96	48	2
NMTAP	56	144	5
NMSTR	56	192	7
NMSI_	56	192	7	96	48	3
NMTAP	56	240	7
NMSTR	56	288	4
NMSI_	56	288	4	96	48	0
NMTAP	56	336	4
NMSTR	57	0	6
NMSUL	57	0	6	96	48	2
NMTAP	57	48	6
NMTAP	57	96	1
NMTAP	57	144	1
NMTAP	57	168	0
NMTAP	57	192	7
NMTAP	57	240	7
NMTAP	57	288	0
NMTAP	57	288	6
NMTAP	58	0	2
NMTAP	58	16	3
NMTAP	58	32	2
NMTAP	58	96	5
NMTAP	58	112	4
NMTAP	58	128	5
NMTAP	58	192	2
NMTAP	58	208	3
NMTAP	58	224	2
NMTAP	58	288	1
NMTAP	58	288	4
NMTAP	58	336	1
NMTAP	58	336	4
NMTAP	59	0	5
NMTAP	59	16	4
NMTAP	59	32	5
NMTAP	59	96	2
NMTAP	59	112	3
NMTAP	59	128	2
NMTAP	59	192	5
NMTAP	59	208	4
NMTAP	59	224	5
EXTAP	59	264	4
EXTAP	59	264	5
EXTAP	59	336	4
EXTAP	59	336	5
EXTAP	60	0	3
NMTAP	60	48	2
NMTAP	60	96	1
NMTAP	60	144	0
NMTAP	60	192	7
NMTAP	60	240	6
NMTAP	60	288	5
NMTAP	60	336	4
NMTAP	61	0	2
NMTAP	61	0	3
NMTAP	61	48	2
NMTAP	61	48	3
NMTAP	61	96	1
NMTAP	61	96	4
NMTAP	61	144	1
NMTAP	61	144	4
NMTAP	61	192	0
NMTAP	61	192	5
NMTAP	61	240	0
NMTAP	61	240	5
NMHLD	61	288	0	96
NMTAP	61	288	5
BRSTR	62	0	4
NMSCR	62	0	4	96	48	7
NMTTP	62	96	2	B	0	M1
NMTTP	62	96	2	E	0	M1
NMTTP	62	96	3	E	1	M1
BRSTR	62	192	0
NMSCR	62	192	0	96	48	3
NMTTP	62	288	6	B	0	M1
NMTTP	62	288	6	E	1	M1
NMTTP	62	288	7	E	0	M1
BRSTR	63	0	4
BRSCR	63	0	4	96	48	7
NMTTP	63	96	3	B	0	M1
NMTTP	63	96	3	A	1	M1
BRSTR	63	192	0
BRSCR	63	192	0	96	48	3
NMTTP	63	288	4	B	0	M1
NMTTP	63	288	4	A	1	M1
BRSTR	64	0	2
NMSV_	64	0	2	96	48	0
BRTAP	64	0	5
NMTTP	64	96	3	B	1	M1
NMTTP	64	96	4	B	0	M1
NMTTP	64	96	4	E	0	M1
NMTTP	64	96	4	D	0	M1
BRSTR	64	192	6
NMSV_	64	192	6	96	48	4
NMTTP	64	288	2	B	0	M1
NMTTP	64	288	2	E	0	M1
NMTTP	64	288	2	A	1	M1
NMTTP	64	288	3	E	0	M1
NMSTR	65	0	0
NMSLL	65	0	0	96	192	4
NMSLR	65	0	0	96	192	4
NMTAP	66	96	0
NMTAP	66	96	7
NMTAP	66	112	1
NMTAP	66	128	2
NMTAP	66	144	3
NMTAP	66	160	4
NMTAP	66	176	5
NMTAP	66	192	6
NMTAP	66	208	7
NMTAP	66	224	0
NMTAP	66	240	1
NMTAP	66	256	2
NMTAP	66	272	3
NMTAP	66	288	4
NMTAP	66	304	5
NMTAP	66	320	6
NMTAP	66	336	7
NMTAP	66	352	0
NMTAP	66	368	1
NMTAP	67	0	2
NMTAP	67	16	3
NMTAP	67	32	4
NMTAP	67	48	5
NMTAP	67	64	6
NMTAP	67	80	7
NMTAP	67	96	0
NMTAP	67	112	1
NMTAP	67	128	2
NMTAP	67	144	3
NMTAP	67	160	4
NMTAP	67	176	5
NMTAP	67	192	6
NMTAP	67	208	7
NMTAP	67	224	0
NMTAP	67	240	1
NMTAP	67	256	2
NMTAP	67	272	3
BRTAP	67	288	4
NMSTR	68	0	3
NMSI_	68	0	3	96	48	7
NMHLD	68	0	5	96
NMSTR	68	192	1
NMSI_	68	192	1	96	48	5
NMHLD	68	192	6	96
NMTAP	69	0	3
NMHLD	69	0	7	144
NMTAP	69	48	2
NMTAP	69	96	1
NMSTR	69	144	0
NMSI_	69	144	0	96	48	4
NMTAP	69	240	6
BRTAP	70	0	7
NMTAP	70	16	6
NMTAP	70	32	5
NMTAP	70	48	4
BRTAP	70	192	1
NMTAP	70	208	2
NMTAP	70	224	3
NMTAP	70	240	4
BRTAP	71	0	6
BRTAP	71	0	7
NMTAP	71	16	0
NMTAP	71	16	5
NMTAP	71	32	1
NMTAP	71	32	4
NMTAP	71	48	2
NMTAP	71	48	3
BRTAP	71	192	0
BRTAP	71	192	1
NMTAP	71	208	2
NMTAP	71	208	7
NMTAP	71	224	3
NMTAP	71	224	6
NMTAP	71	240	4
NMTAP	71	240	5
NMSTR	72	0	0
NMSCR	72	0	0	96	48	3
NMTAP	72	64	6
NMTAP	72	128	5
NMSTR	72	192	4
NMSCR	72	192	4	96	48	7
NMTAP	72	256	2
NMTAP	72	320	1
NMSTR	73	0	0
NMSCR	73	0	0	96	48	3
NMTAP	73	64	6
NMTAP	73	128	5
NMSTR	73	192	4
BRSI_	73	192	4	96	48	0
NMTAP	73	288	3
NMSTR	74	0	2
NMSI_	74	0	2	96	48	6
NMTAP	74	48	2
NMSTR	74	96	4
NMSI_	74	96	4	96	48	7
NMTAP	74	144	4
NMSTR	74	192	1
NMSI_	74	192	1	96	48	5
NMTAP	74	240	1
NMSTR	74	288	0
NMSI_	74	288	0	96	48	3
NMTAP	74	336	0
NMSTR	75	0	7
NMSI_	75	0	7	96	48	4
NMTAP	75	48	7
NMSTR	75	96	6
NMSI_	75	96	6	96	48	2
NMTAP	75	144	6
NMTAP	75	192	0
NMTAP	75	240	0
NMTAP	75	288	1
NMTAP	75	288	6
NMTAP	76	0	0
NMTAP	76	16	7
NMTAP	76	32	0
NMTAP	76	48	7
NMTAP	76	64	0
NMTAP	76	80	7
NMTAP	76	96	0
NMTAP	76	112	7
NMTAP	76	128	0
NMTAP	76	144	7
NMTAP	76	160	0
NMTAP	76	176	7
EXTAP	76	192	1
NMTAP	76	208	6
NMTAP	76	224	1
NMTAP	76	240	6
NMTAP	76	256	1
NMTAP	76	272	6
NMSTR	76	288	1
NMSCL	76	288	1	96	48	0
NMTAP	76	304	6
NMTAP	76	320	1
NMTAP	76	336	6
NMTAP	76	352	1
NMTAP	76	368	6
BRTAP	77	0	1
CNSCL	77	48	0	0	48	7
CNSCL	77	96	7	0	48	6
CNSCL	77	144	6	0	48	5
CNSCL	77	192	5	0	48	4
CNSCL	77	240	4	0	48	3
CNSCL	77	288	3	0	48	2
CNSCL	77	336	2	0	48	1
NMTTP	78	112	2	E	0	M1
NMTTP	78	192	6	E	0	M1
NMTTP	78	288	0	E	0	M1
NMTTP	79	0	6	E	0	M1
NMTTP	79	4	4	B	0	M1
NMTTP	79	8	3	B	0	M1
NMTTP	79	12	2	E	0	M1

T_REC_TAP	450
T_REC_BRK	19
T_REC_XTP	6
T_REC_BXX	0
T_REC_HLD	42
T_REC_XHO	0
T_REC_BHO	0
T_REC_BXH	0
T_REC_STR	65
T_REC_BST	12
T_REC_XST	4
T_REC_XBS	0
T_REC_TTP	53
T_REC_THO	1
T_REC_SLD	82
T_REC_BSL	8
T_REC_ALL	742
T_NUM_TAP	578
T_NUM_BRK	39
T_NUM_HLD	43
T_NUM_SLD	82
T_NUM_ALL	742
T_JUDGE_TAP	609
T_JUDGE_HLD	175
T_JUDGE_SLD	90
T_JUDGE_ALL	874
TTM_EACHPAIRS	86
TTM_SCR_TAP	289000
TTM_SCR_BRK	101400
TTM_SCR_HLD	43000
TTM_SCR_SLD	123000
TTM_SCR_ALL	556400
TTM_SCR_S	535950
TTM_SCR_SS	552500
TTM_RAT_ACV	10070

