VERSION	0.00.00	1.04.00
FES_MODE	0
BPM_DEF	 88.800	 88.800	177.600	 38.800
MET_DEF	4	4
RESOLUTION	384
CLK_DEF	384
COMPATIBLE_CODE	MA2

BPM	0	0	 88.800
BPM	1	96	 78.800
BPM	1	288	 88.800
BPM	3	192	 78.800
BPM	3	288	 68.800
BPM	4	0	 88.800
BPM	15	288	 78.800
BPM	16	48	 68.800
BPM	16	96	 58.800
BPM	16	120	 48.800
BPM	16	144	 38.800
BPM	16	168	 88.800
BPM	38	0	177.600
BPM	77	0	 78.800
BPM	77	192	 58.800
BPM	78	0	 68.800
BPM	78	192	 58.800
BPM	78	288	 48.800
MET	0	0	4	4
MET	35	0	4	4

NMHLD	1	0	4	192
NMHLD	1	0	5	192
NMHLD	2	0	2	192
NMHLD	2	0	3	192
NMHLD	3	0	1	192
NMHLD	3	0	6	192
BRTAP	4	0	0
BRTAP	4	0	7
NMTAP	5	0	6
NMTAP	5	48	6
NMTAP	5	96	6
NMTAP	5	192	5
NMTAP	5	240	5
NMTAP	5	288	5
NMTAP	6	0	4
NMTAP	6	48	4
NMTAP	6	96	4
NMTAP	6	192	2
NMTAP	6	192	3
NMTAP	6	240	2
NMTAP	6	240	3
NMTAP	6	288	2
NMTAP	6	288	3
NMTAP	7	0	1
NMTAP	7	48	1
NMTAP	7	96	1
NMTAP	7	192	2
NMTAP	7	240	2
NMTAP	7	288	2
NMTAP	8	0	3
NMTAP	8	48	3
NMTAP	8	96	3
NMTAP	8	192	4
NMTAP	8	192	5
NMTAP	8	240	4
NMTAP	8	240	5
NMTAP	8	288	4
NMTAP	8	288	5
NMHLD	9	0	6	96
NMTAP	9	96	7
NMTAP	9	192	6
NMTAP	9	240	6
NMTAP	9	288	6
NMTAP	9	288	7
NMHLD	10	0	1	96
NMTAP	10	96	0
NMTAP	10	192	1
NMTAP	10	240	1
NMTAP	10	288	0
NMTAP	10	288	1
NMHLD	11	0	6	96
NMTAP	11	96	7
NMTAP	11	192	6
NMTAP	11	240	6
NMTAP	11	288	6
NMTAP	11	288	7
NMHLD	12	0	1	96
NMTAP	12	96	0
NMTAP	12	192	1
NMTAP	12	240	1
NMTAP	12	288	0
NMTAP	12	288	1
EXTAP	13	0	2
EXTAP	13	36	2
EXTAP	13	72	2
EXTAP	13	144	1
EXTAP	13	144	3
EXTAP	13	180	1
EXTAP	13	180	3
EXTAP	13	216	1
EXTAP	13	216	3
EXTAP	14	0	5
EXTAP	14	36	5
EXTAP	14	72	5
EXTAP	14	144	4
EXTAP	14	144	6
EXTAP	14	180	4
EXTAP	14	180	6
EXTAP	14	216	4
EXTAP	14	216	6
NMTAP	15	0	3
NMTAP	15	48	2
NMTAP	15	96	1
NMTAP	15	144	0
NMTAP	15	192	7
NMTAP	15	240	6
NMTAP	15	288	5
NMTAP	15	336	4
NMHLD	16	0	3	384
NMHLD	16	0	4	384
NMTAP	18	0	2
NMTAP	18	24	2
NMTAP	18	48	2
NMTAP	18	96	1
NMTAP	18	120	1
NMTAP	18	144	1
NMTAP	18	192	0
NMTAP	18	216	0
NMTAP	18	240	0
NMTAP	18	288	6
NMTAP	18	288	7
NMTAP	19	0	5
NMTAP	19	24	5
NMTAP	19	48	5
NMTAP	19	96	6
NMTAP	19	120	6
NMTAP	19	144	6
NMTAP	19	192	7
NMTAP	19	216	7
NMTAP	19	240	7
NMTAP	19	288	0
NMTAP	19	288	1
NMTAP	20	0	1
NMTAP	20	24	1
NMTAP	20	48	1
NMTAP	20	96	2
NMTAP	20	120	2
NMTAP	20	144	2
NMTAP	20	192	3
NMTAP	20	216	3
NMTAP	20	240	3
NMTAP	20	288	4
NMTAP	20	288	5
NMTAP	21	0	6
NMTAP	21	24	6
NMTAP	21	48	6
NMTAP	21	96	5
NMTAP	21	120	5
NMTAP	21	144	5
NMTAP	21	192	4
NMTAP	21	216	4
NMTAP	21	240	4
NMTAP	21	288	2
NMTAP	21	288	3
NMTAP	22	0	2
NMTAP	22	24	2
NMTAP	22	48	2
NMTAP	22	48	3
NMTAP	22	96	1
NMTAP	22	120	1
NMTAP	22	144	0
NMTAP	22	144	1
NMTAP	22	192	7
NMTAP	22	216	7
NMTAP	22	240	6
NMTAP	22	240	7
NMTAP	22	288	0
NMTAP	22	288	5
NMTAP	23	0	5
NMTAP	23	24	5
NMTAP	23	48	4
NMTAP	23	48	5
NMTAP	23	96	6
NMTAP	23	120	6
NMTAP	23	144	6
NMTAP	23	144	7
NMTAP	23	192	0
NMTAP	23	216	0
NMTAP	23	240	0
NMTAP	23	240	1
NMTAP	23	288	2
NMTAP	23	288	7
NMTAP	24	0	1
NMTAP	24	24	1
NMTAP	24	48	0
NMTAP	24	48	1
NMTAP	24	96	2
NMTAP	24	120	2
NMTAP	24	144	2
NMTAP	24	144	3
NMTAP	24	192	5
NMTAP	24	216	5
NMTAP	24	240	4
NMTAP	24	240	5
NMTAP	24	288	3
NMTAP	24	288	6
NMTAP	25	0	6
NMTAP	25	24	6
NMTAP	25	48	6
NMTAP	25	48	7
NMTAP	25	96	1
NMTAP	25	120	1
NMTAP	25	144	0
NMTAP	25	144	1
NMTAP	25	192	0
NMTAP	25	192	7
NMTAP	25	240	1
NMTAP	25	240	6
NMTAP	25	288	2
NMTAP	25	288	5
NMTAP	25	336	3
NMTAP	25	336	4
NMHLD	26	0	2	96
NMHLD	26	96	3	96
NMHLD	26	192	4	96
NMTAP	26	288	5
NMHLD	27	0	5	96
NMHLD	27	96	4	96
NMHLD	27	192	3	96
NMTAP	27	288	2
NMHLD	28	0	1	96
NMHLD	28	96	2	96
NMHLD	28	192	3	96
NMTAP	28	288	4
NMHLD	29	0	6	96
NMHLD	29	96	5	96
NMHLD	29	192	4	96
NMTAP	29	288	3
NMTAP	30	0	2
NMTAP	30	0	3
NMTAP	30	24	2
NMTAP	30	24	3
NMTAP	30	48	2
NMTAP	30	48	3
NMTAP	30	96	1
NMTAP	30	96	4
NMTAP	30	192	4
NMTAP	30	192	5
NMTAP	30	216	4
NMTAP	30	216	5
NMTAP	30	240	4
NMTAP	30	240	5
NMTAP	30	288	3
NMTAP	30	288	6
NMTAP	31	0	6
NMTAP	31	0	7
NMTAP	31	24	6
NMTAP	31	24	7
NMTAP	31	48	6
NMTAP	31	48	7
NMTAP	31	96	0
NMTAP	31	96	5
NMTAP	31	192	0
NMTAP	31	192	1
NMTAP	31	216	0
NMTAP	31	216	1
NMTAP	31	240	0
NMTAP	31	240	1
NMTAP	31	288	2
NMTAP	31	288	7
NMSTR	32	0	0
NMSUR	32	0	0	48	240	3
NMSTR	33	0	4
NMSI_	33	0	4	48	144	7
NMTTP	34	0	1	B	0	L1
NMTTP	34	48	2	B	0	L1
NMTTP	34	96	3	B	0	L1
NMTTP	34	192	6	B	0	L1
NMTTP	34	240	5	B	0	L1
NMTTP	34	288	4	B	0	L1
NMTTP	35	0	0	B	0	L1
NMTTP	35	48	1	B	0	L1
NMTTP	35	96	2	B	0	L1
NMTTP	35	192	7	B	0	L1
NMTTP	35	240	6	B	0	L1
NMTTP	35	288	5	B	0	L1
NMTTP	36	0	0	B	0	L1
NMTTP	36	48	1	B	0	L1
NMTTP	36	96	2	B	0	L1
NMTTP	36	96	3	B	0	L1
NMTTP	36	192	7	B	0	L1
NMTTP	36	240	6	B	0	L1
NMTTP	36	288	4	B	0	L1
NMTTP	36	288	5	B	0	L1
NMTTP	37	0	1	B	0	L1
NMTTP	37	48	0	B	0	L1
NMTTP	37	96	7	B	0	L1
NMTTP	37	144	6	B	0	L1
NMTTP	37	192	0	C	0	L1
EXTAP	38	0	0
EXTAP	38	0	1
EXTAP	38	48	0
EXTAP	38	48	1
NMTAP	38	144	2
NMTAP	38	144	3
NMTAP	38	192	2
NMTAP	38	192	3
NMTAP	38	288	4
NMTAP	38	288	5
NMTAP	38	336	4
NMTAP	38	336	5
NMTAP	39	48	6
NMTAP	39	48	7
NMTAP	39	96	6
NMTAP	39	96	7
NMTAP	39	192	0
NMTAP	39	192	5
EXTAP	40	0	6
EXTAP	40	0	7
EXTAP	40	48	6
EXTAP	40	48	7
NMTAP	40	144	4
NMTAP	40	144	5
NMTAP	40	192	4
NMTAP	40	192	5
NMTAP	40	288	2
NMTAP	40	288	3
NMTAP	40	336	2
NMTAP	40	336	3
NMTAP	41	48	0
NMTAP	41	48	1
NMTAP	41	96	0
NMTAP	41	96	1
NMTAP	41	192	2
NMTAP	41	192	7
NMTAP	42	0	1
NMTAP	42	48	1
NMTAP	42	96	1
NMTAP	42	192	2
NMTAP	42	240	2
NMTAP	42	288	2
NMTAP	43	0	3
NMTAP	43	48	3
NMTAP	43	96	3
NMTAP	43	192	4
NMTAP	43	240	4
NMTAP	43	288	4
NMTAP	44	0	5
NMTAP	44	48	5
NMTAP	44	96	5
NMTAP	44	192	6
NMTAP	44	240	6
NMTAP	44	288	6
BXTAP	45	0	0
BXTAP	45	0	7
NMSTR	46	0	7
NMSUL	46	0	7	96	480	4
NMSTR	48	0	3
NMSI_	48	0	3	96	192	0
NMTAP	49	0	6
NMTAP	49	0	7
NMTAP	49	96	6
NMTAP	49	96	7
NMTAP	49	192	0
NMTAP	49	192	1
NMTAP	49	288	0
NMTAP	49	288	1
BXTAP	50	192	0
BXTAP	50	192	7
NMTAP	51	0	0
NMTAP	51	0	7
NMTAP	51	192	1
NMTAP	51	192	6
NMTAP	52	0	2
NMTAP	52	0	5
NMTAP	52	192	3
NMTAP	52	192	4
NMTAP	53	0	2
NMTAP	53	0	3
NMTAP	53	96	2
NMTAP	53	96	3
NMTAP	53	192	4
NMTAP	53	192	5
NMTAP	53	288	4
NMTAP	53	288	5
NMTAP	54	0	5
NMTAP	54	48	5
NMTAP	54	96	6
NMTAP	54	144	6
NMTAP	54	192	7
NMTAP	54	240	7
NMTAP	54	288	0
NMTAP	54	288	1
NMTAP	55	0	2
NMTAP	55	48	2
NMTAP	55	96	1
NMTAP	55	144	1
NMTAP	55	192	0
NMTAP	55	240	0
NMTAP	55	288	6
NMTAP	55	288	7
NMTAP	56	0	6
NMTAP	56	48	6
NMTAP	56	96	5
NMTAP	56	144	5
NMTAP	56	192	4
NMTAP	56	240	4
NMTAP	56	288	2
NMTAP	56	288	3
NMTAP	57	0	1
NMTAP	57	48	1
NMTAP	57	96	2
NMTAP	57	144	2
NMTAP	57	192	3
NMTAP	57	240	3
NMTAP	57	288	3
NMTAP	57	288	4
NMTAP	58	0	5
NMTAP	58	48	5
NMTAP	58	96	6
NMTAP	58	96	7
NMTAP	58	144	6
NMTAP	58	144	7
NMTAP	58	192	0
NMTAP	58	240	0
NMTAP	58	288	0
NMTAP	58	288	1
NMTAP	59	0	2
NMTAP	59	48	2
NMTAP	59	96	0
NMTAP	59	96	1
NMTAP	59	144	0
NMTAP	59	144	1
NMTAP	59	192	7
NMTAP	59	240	7
NMTAP	59	288	6
NMTAP	59	288	7
NMTAP	60	0	5
NMTAP	60	48	5
NMTAP	60	96	4
NMTAP	60	144	4
NMTAP	60	192	3
NMTAP	60	240	3
NMTAP	60	288	2
NMTAP	60	336	2
NMTAP	61	0	0
NMTAP	61	0	1
NMTAP	61	96	2
NMTAP	61	96	3
NMTAP	61	192	4
NMTAP	61	192	5
NMTAP	61	288	6
NMTAP	61	288	7
NMTAP	62	0	5
NMTAP	62	48	5
NMTAP	62	96	4
NMTAP	62	96	5
NMTAP	62	192	6
NMTAP	62	240	6
NMTAP	62	288	6
NMTAP	62	288	7
NMTAP	63	0	0
NMTAP	63	48	0
NMTAP	63	96	0
NMTAP	63	96	1
NMTAP	63	192	2
NMTAP	63	240	2
NMTAP	63	288	3
NMTAP	63	288	4
NMTAP	64	0	2
NMTAP	64	48	2
NMTAP	64	96	2
NMTAP	64	96	3
NMTAP	64	192	1
NMTAP	64	240	1
NMTAP	64	288	0
NMTAP	64	288	1
NMTAP	65	0	7
NMTAP	65	48	7
NMTAP	65	96	6
NMTAP	65	96	7
NMTAP	65	192	5
NMTAP	65	240	5
NMHLD	65	288	3	96
NMHLD	65	288	4	96
BRTAP	66	96	2
BRTAP	66	96	5
NMTAP	67	0	4
NMTAP	67	48	5
NMTAP	67	96	6
NMTAP	67	144	7
NMTAP	67	192	0
NMTAP	67	240	1
NMTAP	67	288	2
NMTAP	67	288	3
NMTAP	68	0	3
NMTAP	68	48	2
NMTAP	68	96	1
NMTAP	68	144	0
NMTAP	68	192	7
NMTAP	68	240	6
NMTAP	68	288	4
NMTAP	68	288	5
NMTAP	69	0	5
NMTAP	69	48	6
NMTAP	69	96	7
NMTAP	69	144	0
NMTAP	69	192	1
NMTAP	69	240	2
NMTAP	69	288	3
NMTAP	69	288	4
NMTAP	70	0	2
NMTAP	70	48	2
NMTAP	70	96	2
NMTAP	70	144	2
NMTAP	70	192	1
NMTAP	70	240	1
NMTAP	70	288	1
NMTAP	70	336	1
NMTAP	71	0	0
NMTAP	71	48	0
NMTAP	71	96	0
NMTAP	71	144	0
NMTAP	71	192	7
NMTAP	71	240	7
NMTAP	71	288	6
NMTAP	71	288	7
NMTAP	72	0	5
NMTAP	72	48	5
NMTAP	72	96	5
NMTAP	72	144	5
NMTAP	72	192	6
NMTAP	72	240	6
NMTAP	72	288	6
NMTAP	72	336	6
NMTAP	73	0	7
NMTAP	73	48	7
NMTAP	73	96	7
NMTAP	73	144	7
NMTAP	73	192	0
NMTAP	73	240	0
NMTAP	73	288	0
NMTAP	73	288	1
NMTAP	74	0	2
NMTAP	74	48	1
NMTAP	74	96	0
NMTAP	74	144	7
NMTAP	74	192	6
NMTAP	74	240	5
NMTAP	74	288	4
NMTAP	74	336	3
NMTAP	75	0	2
NMTAP	75	48	1
NMTAP	75	96	0
NMTAP	75	144	7
NMTAP	75	192	6
NMTAP	75	240	5
NMTAP	75	288	3
NMTAP	75	288	4
NMTAP	76	0	4
NMTAP	76	48	5
NMTAP	76	96	6
NMTAP	76	144	7
NMTAP	76	192	0
NMTAP	76	240	1
NMTAP	76	288	2
NMTAP	76	336	3
EXHLD	77	0	3	768
EXHLD	77	0	4	768

T_REC_TAP	444
T_REC_BRK	4
T_REC_XTP	26
T_REC_BXX	4
T_REC_HLD	26
T_REC_XHO	2
T_REC_BHO	0
T_REC_BXH	0
T_REC_STR	4
T_REC_BST	0
T_REC_XST	0
T_REC_XBS	0
T_REC_TTP	25
T_REC_THO	0
T_REC_SLD	4
T_REC_BSL	0
T_REC_ALL	539
T_NUM_TAP	499
T_NUM_BRK	8
T_NUM_HLD	28
T_NUM_SLD	4
T_NUM_ALL	539
T_JUDGE_TAP	507
T_JUDGE_HLD	250
T_JUDGE_SLD	4
T_JUDGE_ALL	761
TTM_EACHPAIRS	121
TTM_SCR_TAP	249500
TTM_SCR_BRK	20800
TTM_SCR_HLD	28000
TTM_SCR_SLD	6000
TTM_SCR_ALL	304300
TTM_SCR_S	294400
TTM_SCR_SS	303500
TTM_RAT_ACV	10026

