VERSION	0.00.00	1.04.00
FES_MODE	0
BPM_DEF	 88.800	 88.800	177.600	 38.800
MET_DEF	4	4
RESOLUTION	384
CLK_DEF	384
COMPATIBLE_CODE	MA2

BPM	0	0	 88.800
BPM	1	96	 78.800
BPM	1	288	 88.800
BPM	3	192	 78.800
BPM	3	288	 68.800
BPM	4	0	 88.800
BPM	15	288	 78.800
BPM	16	48	 68.800
BPM	16	96	 58.800
BPM	16	120	 48.800
BPM	16	144	 38.800
BPM	16	168	 88.800
BPM	38	0	177.600
BPM	77	0	 78.800
BPM	77	192	 58.800
BPM	78	0	 68.800
BPM	78	192	 58.800
BPM	78	288	 48.800
MET	0	0	4	4
MET	35	0	4	4

NMTAP	1	0	7
NMTAP	1	96	7
NMTAP	1	192	7
NMTAP	2	0	6
NMTAP	2	0	7
NMTAP	2	96	6
NMTAP	2	96	7
NMTAP	2	192	6
NMTAP	2	192	7
NMTAP	3	0	0
NMTAP	3	96	0
NMTAP	3	192	0
NMHLD	4	0	0	192
NMHLD	4	0	7	192
NMTAP	5	0	1
NMTAP	5	48	1
NMTAP	5	96	1
NMTAP	5	192	0
NMTAP	5	192	1
NMTAP	6	0	2
NMTAP	6	48	2
NMTAP	6	96	2
NMTAP	6	192	3
NMTAP	6	192	4
NMTAP	7	0	5
NMTAP	7	48	5
NMTAP	7	96	5
NMTAP	7	192	4
NMTAP	7	192	5
NMTAP	8	0	6
NMTAP	8	48	6
NMTAP	8	96	6
NMTAP	8	192	0
NMTAP	8	192	7
NMTAP	9	0	7
NMTAP	9	48	7
NMTAP	9	96	7
NMTAP	9	192	6
NMTAP	9	240	6
NMTAP	9	288	6
NMTAP	10	0	5
NMTAP	10	48	5
NMTAP	10	96	5
NMTAP	10	192	3
NMTAP	10	192	4
NMTAP	10	288	3
NMTAP	10	288	4
NMTAP	11	0	3
NMTAP	11	48	3
NMTAP	11	96	3
NMTAP	11	192	2
NMTAP	11	240	2
NMTAP	11	288	2
NMTAP	12	0	1
NMTAP	12	96	1
BRTAP	12	192	0
BRTAP	12	192	7
NMHLD	13	0	0	144
NMHLD	13	0	1	144
NMHLD	14	0	6	144
NMHLD	14	0	7	144
NMTTP	15	0	0	B	0	L1
NMTTP	15	0	7	B	0	L1
NMTTP	15	192	1	B	0	L1
NMTTP	15	192	6	B	0	L1
NMTHO	16	0	0	384	C	0	L1
NMTTP	16	0	2	B	0	L1
NMTTP	16	0	5	B	0	L1
NMSTR	18	0	0
NMSI_	18	0	0	96	144	3
NMSTR	18	0	7
NMSI_	18	0	7	96	144	4
EXTAP	19	0	3
NMTAP	19	48	3
NMTAP	19	96	3
NMTAP	19	144	3
NMTAP	19	192	2
NMTAP	19	240	2
NMTAP	19	288	2
NMTAP	19	288	3
NMTAP	20	0	1
NMTAP	20	48	1
NMTAP	20	96	1
NMTAP	20	144	1
NMTAP	20	192	0
NMTAP	20	240	0
NMTAP	20	288	0
NMTAP	20	288	7
NMTAP	21	0	7
NMTAP	21	48	7
NMTAP	21	96	0
NMTAP	21	144	0
NMTAP	21	192	0
NMTAP	21	192	7
NMTAP	21	240	0
NMTAP	21	240	7
NMTAP	21	288	1
NMTAP	21	288	6
NMTAP	22	0	7
NMTAP	22	48	7
NMTAP	22	96	7
NMTAP	22	144	7
NMTAP	22	192	6
NMTAP	22	240	6
NMTAP	22	288	6
NMTAP	22	288	7
NMTAP	23	0	4
NMTAP	23	0	5
NMTAP	23	96	4
NMTAP	23	96	5
EXTAP	23	192	4
EXTAP	23	192	5
NMTAP	24	0	3
NMTAP	24	48	3
NMTAP	24	96	3
NMTAP	24	144	3
NMTAP	24	192	4
NMTAP	24	240	4
NMTAP	24	288	4
NMTAP	24	336	4
NMTAP	25	0	3
NMTAP	25	0	4
NMTAP	25	48	3
NMTAP	25	48	4
NMTAP	25	96	3
NMTAP	25	96	4
NMTAP	25	144	3
NMTAP	25	144	4
NMTAP	25	192	2
NMTAP	25	192	5
NMSTR	26	0	3
NMSI_	26	0	3	96	144	0
NMSTR	27	0	7
NMSI_	27	0	7	96	144	4
NMSTR	28	0	2
NMSI_	28	0	2	96	144	5
NMSTR	29	0	6
NMSI_	29	0	6	96	144	1
EXTAP	30	0	0
EXTAP	30	48	0
EXTAP	30	96	0
NMTAP	30	192	1
NMTAP	30	192	7
NMTAP	30	288	1
NMTAP	30	288	7
EXTAP	31	0	7
EXTAP	31	48	7
EXTAP	31	96	7
NMTAP	31	192	0
NMTAP	31	192	6
NMTHO	32	0	0	384	C	0	L1
NMTTP	34	0	1	E	0	L1
NMTTP	34	192	2	E	0	L1
NMTTP	35	0	3	E	0	L1
NMTTP	35	192	4	E	0	L1
NMTTP	36	0	5	E	0	L1
NMTTP	36	192	6	E	0	L1
NMTTP	37	0	7	E	0	L1
NMTTP	37	192	0	C	0	L1
NMTAP	38	0	7
NMTAP	38	96	7
NMTAP	38	192	6
NMTAP	38	288	6
NMHLD	39	0	4	96
NMHLD	39	0	5	96
NMTAP	39	192	4
NMTAP	39	192	5
NMTAP	40	0	3
NMTAP	40	96	3
NMTAP	40	192	2
NMTAP	40	288	2
NMHLD	41	0	0	96
NMHLD	41	0	1	96
NMTAP	41	192	0
NMTAP	41	192	1
NMTAP	42	0	0
NMTAP	42	96	0
NMTAP	42	192	1
NMTAP	42	288	1
NMTAP	43	0	2
NMTAP	43	96	2
NMTAP	43	192	3
NMTAP	43	192	4
NMTAP	43	288	3
NMTAP	43	288	4
NMTAP	44	0	5
NMTAP	44	96	5
NMTAP	44	192	6
NMTAP	44	288	6
NMTAP	45	0	0
NMTAP	45	0	7
NMSTR	46	0	0
NMSCR	46	0	0	96	288	3
NMSTR	48	0	4
NMSCR	48	0	4	96	288	7
EXTAP	50	192	0
EXTAP	50	192	7
EXTAP	51	0	0
EXTAP	51	0	7
EXTAP	51	192	0
EXTAP	51	192	1
BRTAP	52	0	0
BRTAP	52	0	1
BRTAP	52	192	0
BRTAP	52	192	7
BRTAP	53	0	6
BRTAP	53	0	7
BRTAP	53	192	0
BRTAP	53	192	7
NMTAP	54	0	0
NMTAP	54	96	0
NMTAP	54	192	1
NMTAP	54	288	1
NMTAP	55	0	2
NMTAP	55	0	3
NMTAP	55	96	2
NMTAP	55	96	3
NMTAP	55	192	3
NMTAP	55	192	4
NMTAP	55	288	3
NMTAP	55	288	4
NMTAP	56	0	5
NMTAP	56	96	5
NMTAP	56	192	6
NMTAP	56	288	6
NMTAP	57	0	6
NMTAP	57	0	7
NMTAP	57	96	6
NMTAP	57	96	7
NMTAP	57	192	0
NMTAP	57	192	7
NMTAP	57	288	0
NMTAP	57	288	7
NMTAP	58	0	0
NMTAP	58	48	0
NMTAP	58	96	0
NMTAP	58	192	1
NMTAP	58	192	7
NMTAP	58	288	1
NMTAP	58	288	7
NMTAP	59	0	7
NMTAP	59	48	7
NMTAP	59	96	7
NMTAP	59	192	0
NMTAP	59	192	6
NMTAP	60	0	0
NMTAP	60	0	7
NMTAP	60	96	0
NMTAP	60	96	7
NMTAP	60	192	1
NMTAP	60	192	6
NMTAP	60	288	2
NMTAP	60	288	5
NMTAP	61	0	3
NMTAP	61	0	4
NMTAP	61	96	2
NMTAP	61	96	5
NMTAP	61	192	1
NMTAP	61	192	6
NMTAP	61	288	0
NMTAP	61	288	7
NMHLD	62	0	7	96
NMHLD	62	192	6	96
NMHLD	63	0	4	96
NMHLD	63	0	5	96
NMHLD	63	192	4	96
NMHLD	63	192	5	96
NMHLD	64	0	3	96
NMHLD	64	192	2	96
NMHLD	65	0	0	96
NMHLD	65	0	1	96
NMHLD	65	192	0	96
NMHLD	65	192	1	96
EXTAP	66	0	0
EXTAP	66	0	7
BXTAP	66	96	0
BXTAP	66	96	7
EXTAP	66	192	0
EXTAP	66	192	7
EXTAP	66	288	0
EXTAP	66	288	7
NMTAP	67	0	1
NMTAP	67	48	1
NMTAP	67	96	1
NMTAP	67	192	2
NMTAP	67	240	2
NMTAP	67	288	2
NMTAP	68	0	3
NMTAP	68	48	3
NMTAP	68	96	3
NMTAP	68	192	4
NMTAP	68	240	4
NMTAP	68	288	4
NMTAP	69	0	5
NMTAP	69	48	5
NMTAP	69	96	5
NMTAP	69	192	6
NMTAP	69	240	6
NMTAP	69	288	6
BRTAP	70	0	0
BRTAP	70	0	7
NMTAP	70	96	0
NMTAP	70	192	1
NMTAP	70	288	2
NMTAP	71	0	3
NMTAP	71	96	4
NMTAP	71	192	5
NMTAP	71	288	6
NMTAP	72	0	0
NMTAP	72	0	7
NMTAP	72	96	6
NMTAP	72	192	5
NMTAP	72	288	4
NMTAP	73	0	3
NMTAP	73	96	2
NMTAP	73	192	1
NMTAP	73	288	1
NMTAP	74	0	0
NMTAP	74	0	1
NMTAP	74	96	0
NMTAP	74	96	1
NMTAP	74	192	2
NMTAP	74	192	3
NMTAP	74	288	2
NMTAP	74	288	3
NMTAP	75	0	4
NMTAP	75	0	5
NMTAP	75	96	4
NMTAP	75	96	5
NMTAP	75	192	6
NMTAP	75	192	7
NMTAP	75	288	6
NMTAP	75	288	7
NMTAP	76	0	4
NMTAP	76	0	5
NMTAP	76	96	2
NMTAP	76	96	3
NMTAP	76	192	0
NMTAP	76	192	1
NMTAP	76	288	6
NMTAP	76	288	7
EXHLD	77	0	6	768
EXTAP	77	0	7
NMTHO	77	288	0	480	C	0	L1

T_REC_TAP	252
T_REC_BRK	12
T_REC_XTP	22
T_REC_BXX	2
T_REC_HLD	22
T_REC_XHO	1
T_REC_BHO	0
T_REC_BXH	0
T_REC_STR	8
T_REC_BST	0
T_REC_XST	0
T_REC_XBS	0
T_REC_TTP	14
T_REC_THO	3
T_REC_SLD	8
T_REC_BSL	0
T_REC_ALL	344
T_NUM_TAP	296
T_NUM_BRK	14
T_NUM_HLD	26
T_NUM_SLD	8
T_NUM_ALL	344
T_JUDGE_TAP	310
T_JUDGE_HLD	187
T_JUDGE_SLD	8
T_JUDGE_ALL	505
TTM_EACHPAIRS	87
TTM_SCR_TAP	148000
TTM_SCR_BRK	36400
TTM_SCR_HLD	26000
TTM_SCR_SLD	12000
TTM_SCR_ALL	222400
TTM_SCR_S	214400
TTM_SCR_SS	221000
TTM_RAT_ACV	10063

