VERSION	0.00.00	1.04.00
FES_MODE	0
BPM_DEF	230.000	230.000	339.000	230.000
MET_DEF	4	4
RESOLUTION	384
CLK_DEF	384
COMPATIBLE_CODE	MA2

BPM	0	0	230.000
BPM	60	192	240.000
BPM	61	192	250.000
BPM	62	192	260.000
BPM	63	192	270.000
BPM	72	192	230.000
BPM	104	192	230.000
BPM	136	192	230.000
BPM	138	96	238.000
BPM	140	0	246.000
BPM	141	288	252.000
BPM	143	192	258.000
BPM	145	96	266.000
BPM	147	0	288.000
BPM	148	0	298.000
BPM	149	0	308.000
BPM	150	0	318.000
BPM	151	0	339.000
MET	0	0	4	4
MET	50	0	8	7
MET	60	192	4	4
MET	136	192	8	7
MET	147	0	4	4

NMSTR	2	0	0
NMSI_	2	0	0	96	240	3
NMHLD	2	0	7	1968
CNSCL	2	336	3	0	48	2
CNSI_	3	0	2	0	336	5
CNSCL	3	336	5	0	48	4
CNSI_	4	0	4	0	336	7
CNSCL	4	336	7	0	48	6
CNSI_	5	0	6	0	240	1
CNSCL	5	240	1	0	48	0
NMTAP	6	0	0
NMTAP	6	144	1
NMTAP	6	288	2
NMHLD	7	48	3	1008
NMTHO	8	0	0	384	C	0	M1
NMTTP	9	0	0	B	0	M1
NMTTP	9	0	1	B	0	M1
NMSTR	9	288	7
BRSI_	9	288	7	96	48	3
BRTAP	10	0	7
NMTAP	10	96	2
NMTAP	10	96	4
NMTAP	10	168	1
NMSTR	10	192	3
NMSCR	10	192	3	96	48	6
NMTAP	10	240	3
NMSTR	10	288	0
NMSI_	10	288	0	96	48	4
NMTAP	10	336	0
NMTAP	11	0	7
NMTAP	11	96	3
NMTAP	11	96	5
NMTAP	11	168	6
NMSTR	11	192	4
NMSCL	11	192	4	96	48	1
NMTAP	11	240	4
NMSTR	11	288	7
NMSI_	11	288	7	96	48	3
NMTAP	11	336	7
NMTAP	12	0	0
NMTAP	12	96	2
NMTAP	12	96	4
NMTAP	12	168	1
NMTAP	12	192	3
NMTAP	12	240	3
NMTAP	12	288	2
NMHLD	12	288	4	96
NMTAP	13	0	3
NMTAP	13	24	2
NMTAP	13	48	1
NMTAP	13	72	0
NMTAP	13	96	7
NMTAP	13	120	6
NMTAP	13	144	5
NMTAP	13	168	4
NMTAP	13	192	7
NMTAP	13	216	6
NMTAP	13	240	5
NMTAP	13	264	4
NMTAP	13	288	7
NMTAP	13	312	6
NMTAP	13	336	5
NMTAP	13	360	4
BRTAP	14	0	3
NMTAP	14	24	2
NMTAP	14	48	1
NMTAP	14	72	0
NMTAP	14	96	7
NMTAP	14	120	6
BRTAP	14	144	5
NMTAP	14	168	4
NMTAP	14	192	7
NMTAP	14	216	6
NMTAP	14	240	5
NMTAP	14	264	4
NMTAP	14	288	7
NMTAP	14	312	6
BRTAP	14	336	5
NMTAP	14	360	4
NMTAP	15	0	0
NMTAP	15	24	1
BRTAP	15	48	2
NMTAP	15	72	3
BRTAP	15	96	4
NMTAP	15	120	5
NMTAP	15	144	6
NMTAP	15	168	7
BRTAP	15	192	4
NMTAP	15	216	5
NMTAP	15	240	6
NMTAP	15	264	7
NMTAP	15	288	4
NMTAP	15	312	5
BRTAP	15	336	6
NMTAP	15	360	7
NMTAP	16	0	0
NMTAP	16	24	1
BRTAP	16	48	2
NMTAP	16	72	3
NMTAP	16	96	4
NMTAP	16	120	5
NMTAP	16	144	6
NMTAP	16	168	7
NMTAP	16	192	4
NMTAP	16	216	5
BRTAP	16	240	6
NMTAP	16	264	7
NMTAP	16	288	4
NMTAP	16	312	5
NMTAP	16	336	6
NMTAP	16	360	7
NMHLD	17	0	0	96
NMTAP	17	96	4
NMHLD	17	144	1	24
NMHLD	17	144	5	24
NMTAP	17	240	3
NMTAP	17	240	7
NMTAP	17	288	3
NMSTR	17	288	7
BRSI_	17	288	7	96	48	3
NMHLD	18	0	0	24
BRTAP	18	0	7
NMTAP	18	96	2
NMTAP	18	96	4
NMTAP	18	168	1
NMSTR	18	192	3
NMSCR	18	192	3	96	48	6
NMTAP	18	240	3
NMSTR	18	288	0
NMSI_	18	288	0	96	48	4
NMTAP	18	336	0
NMTAP	19	0	7
NMTAP	19	96	3
NMTAP	19	96	5
NMTAP	19	168	6
NMSTR	19	192	4
NMSCL	19	192	4	96	48	1
NMTAP	19	240	4
NMSTR	19	288	7
NMSI_	19	288	7	96	48	3
NMTAP	19	336	7
NMTAP	20	0	0
NMTAP	20	96	2
NMTAP	20	96	4
NMTAP	20	168	5
NMTAP	20	192	3
NMTAP	20	240	3
NMHLD	20	288	3	96
NMTAP	20	288	4
NMTAP	21	0	4
NMTAP	21	24	5
NMTAP	21	48	6
NMTAP	21	72	7
NMTAP	21	96	0
NMTAP	21	120	1
NMTAP	21	144	2
NMTAP	21	168	3
NMTAP	21	192	0
NMTAP	21	216	1
NMTAP	21	240	2
NMTAP	21	264	3
NMTAP	21	288	0
NMTAP	21	312	1
NMTAP	21	336	2
NMTAP	21	360	3
BRTAP	22	0	4
NMTAP	22	24	5
NMTAP	22	48	6
NMTAP	22	72	7
NMTAP	22	96	0
NMTAP	22	120	1
BRTAP	22	144	2
NMTAP	22	168	3
NMTAP	22	192	0
NMTAP	22	216	1
NMTAP	22	240	2
NMTAP	22	264	3
NMTAP	22	288	0
NMTAP	22	312	1
BRTAP	22	336	2
NMTAP	22	360	3
NMTAP	23	0	7
NMTAP	23	24	6
BRTAP	23	48	5
NMTAP	23	72	4
BRTAP	23	96	3
NMTAP	23	120	2
NMTAP	23	144	1
NMTAP	23	168	0
BRTAP	23	192	3
NMTAP	23	216	2
NMTAP	23	240	1
NMTAP	23	264	0
NMTAP	23	288	3
NMTAP	23	312	2
BRTAP	23	336	1
NMTAP	23	360	0
NMTAP	24	0	3
NMSTR	24	0	7
NMSI_	24	0	7	96	48	3
NMSI_	24	0	7	96	48	3
CNSI_	24	144	3	0	48	1
CNSI_	24	144	3	0	48	5
NMTAP	24	288	0
NMTAP	24	288	6
NMTAP	25	0	3
NMTAP	25	0	7
NMTAP	25	48	7
NMTAP	25	96	2
NMTAP	25	96	6
NMTAP	25	144	2
NMTAP	25	192	1
NMTAP	25	192	5
NMTAP	25	240	5
NMTAP	25	288	0
NMTAP	25	288	4
NMTAP	25	336	0
NMHLD	26	0	3	288
NMHLD	26	0	7	144
NMHLD	27	0	0	144
NMHLD	27	0	2	288
NMHLD	28	0	2	144
NMHLD	28	144	3	144
NMHLD	28	288	4	288
NMHLD	29	48	5	240
NMHLD	30	0	6	288
NMHLD	30	0	7	144
NMHLD	31	0	5	288
NMHLD	31	0	6	144
NMHLD	32	0	4	144
NMHLD	32	144	3	144
NMHLD	32	288	2	144
NMTTP	33	192	1	E	0	M1
NMTTP	33	204	0	E	0	M1
NMTTP	33	216	7	E	0	M1
NMTTP	33	228	6	E	0	M1
NMTTP	33	240	5	E	0	M1
NMTTP	33	252	4	E	0	M1
NMTTP	33	264	3	E	0	M1
NMTTP	33	276	2	E	0	M1
NMTTP	33	288	1	E	0	M1
NMHLD	34	0	3	96
NMHLD	34	144	3	96
NMTAP	34	288	3
NMTAP	34	336	3
NMHLD	35	0	2	96
NMHLD	35	0	4	48
NMTAP	35	96	4
NMHLD	35	144	2	48
NMHLD	35	144	4	96
NMTAP	35	240	2
NMTAP	35	288	2
NMTAP	35	288	4
NMHLD	36	0	4	96
NMHLD	36	144	4	96
NMTAP	36	288	4
NMTAP	36	336	4
NMHLD	37	0	3	48
BRHLD	37	0	5	96
NMTAP	37	96	3
BRHLD	37	144	3	96
NMHLD	37	144	5	48
NMTAP	37	240	5
NMTAP	37	288	3
BRTAP	37	288	5
NMTAP	38	0	3
NMTAP	38	0	4
NMSTR	38	48	3
NMSV_	38	48	3	96	48	2
NMTAP	38	48	4
NMSTR	38	144	4
NMSV_	38	144	4	96	48	5
NMTAP	38	336	1
NMTAP	38	336	6
NMTAP	39	0	0
NMTAP	39	24	7
NMTAP	39	48	0
NMTAP	39	72	7
NMTAP	39	96	0
NMTAP	39	240	6
NMTAP	39	288	7
NMTAP	39	336	6
NMTAP	40	0	1
NMSTR	40	48	0
NMSI_	40	48	0	96	48	5
NMTAP	40	96	1
NMSTR	40	144	0
NMSI_	40	144	0	96	48	3
NMTAP	40	240	0
NMHLD	40	336	5	48
NMTAP	41	0	3
NMTAP	41	32	3
NMTAP	41	64	4
NMTAP	41	96	2
NMTAP	41	128	2
NMTAP	41	160	5
NMTAP	41	192	1
NMTAP	41	224	1
NMTAP	41	256	6
NMTAP	41	288	0
NMTAP	41	320	0
NMTAP	41	352	7
NMSTR	42	0	1
NMSI_	42	0	1	96	48	4
NMSTR	42	48	6
NMSI_	42	48	6	96	48	3
NMTAP	42	96	1
NMTAP	42	144	6
NMTAP	42	240	0
NMTAP	42	288	7
NMSTR	42	336	6
NMSCL	42	336	6	96	48	4
NMTAP	43	0	0
NMTAP	43	48	6
NMSTR	43	144	1
NMSCR	43	144	1	96	48	3
NMTAP	43	192	7
NMTAP	43	240	1
NMTAP	43	288	6
NMHLD	43	336	5	96
NMTAP	44	0	4
NMTAP	44	48	4
BRTAP	44	144	3
BRTAP	44	144	6
NMTAP	44	240	2
NMTAP	44	264	3
NMTAP	44	288	4
NMTAP	44	312	5
NMTAP	44	336	6
NMTAP	44	360	7
NMTAP	45	0	0
NMTAP	45	0	4
NMTAP	45	24	3
NMTAP	45	48	2
NMTAP	45	72	1
NMTAP	45	96	0
NMTAP	45	120	3
NMTAP	45	120	7
NMTAP	45	144	2
NMTAP	45	144	6
NMTAP	45	168	1
NMTAP	45	168	5
NMTAP	45	192	0
NMTAP	45	192	4
NMSTR	45	240	3
NMSCR	45	240	3	96	48	6
NMSTR	45	240	7
NMSCR	45	240	7	96	48	2
NMTAP	45	336	3
NMTAP	45	336	7
NMTAP	46	96	2
NMTAP	46	96	5
NMSTR	46	144	3
NMSI_	46	144	3	96	48	0
NMSTR	46	144	4
NMSI_	46	144	4	96	48	7
NMTAP	46	240	3
NMTAP	46	240	4
BRTAP	46	336	1
BRTAP	46	336	6
NMTAP	47	48	5
NMTAP	47	72	4
NMTAP	47	96	3
NMTAP	47	120	2
NMTAP	47	144	1
NMTAP	47	168	0
NMTAP	47	192	3
NMTAP	47	192	7
NMTAP	47	216	4
NMTAP	47	240	5
NMTAP	47	264	6
NMTAP	47	288	7
NMTAP	47	312	0
NMTAP	47	312	4
NMTAP	47	336	1
NMTAP	47	336	5
NMTAP	47	360	2
NMTAP	47	360	6
NMTAP	48	0	3
NMTAP	48	0	7
NMSTR	48	48	0
NMSI_	48	48	0	96	48	4
NMTAP	48	144	0
NMTAP	48	144	3
NMTAP	48	240	1
NMTAP	48	240	5
NMSTR	48	289	1
BRSI_	48	289	1	96	47	5
NMTTP	49	0	0	C	1	M1
BRTAP	49	0	7
BRTAP	49	48	7
BRTAP	49	96	7
BRTAP	49	144	7
BRTAP	49	192	1
BRTAP	49	192	7
BRTAP	49	240	1
BRTAP	49	240	7
BRTAP	49	288	1
BRTAP	49	288	7
BRTAP	49	336	1
BRTAP	49	336	7
NMSTR	50	0	0
NMSCR	50	0	0	96	48	2
NMTAP	50	48	7
NMTAP	50	96	0
NMSTR	50	144	6
NMSCL	50	144	6	96	48	4
NMTAP	50	192	0
NMTAP	50	240	6
NMSTR	50	288	7
NMSCR	50	288	7	96	48	1
NMTAP	50	336	6
NMTAP	51	0	7
NMTAP	51	48	4
NMTAP	51	96	4
NMTAP	51	144	1
NMTAP	51	144	4
NMTAP	51	192	2
NMTAP	51	216	3
NMTAP	51	240	2
NMTAP	51	264	3
NMSTR	51	288	2
NMSI_	51	288	2	96	48	0
NMTAP	51	336	4
NMTAP	52	0	2
NMSTR	52	48	7
NMSCL	52	48	7	96	48	5
NMTAP	52	96	2
NMTAP	52	144	7
NMSTR	52	192	2
NMSCR	52	192	2	96	48	4
NMTAP	52	240	7
NMTAP	52	288	2
NMSTR	52	336	6
NMSI_	52	336	6	96	48	2
NMTAP	53	0	2
NMTAP	53	48	6
BRTAP	53	96	0
NMSTR	53	192	1
NMSI_	53	192	1	96	48	5
NMTAP	53	240	0
NMTAP	53	288	1
NMSTR	53	336	0
NMSCL	53	336	0	96	48	6
NMTAP	54	0	1
NMTAP	54	48	0
NMSTR	54	96	2
NMSCR	54	96	2	96	48	4
NMTAP	54	144	0
NMTAP	54	192	2
NMTAP	54	240	6
NMTAP	54	288	6
NMTAP	54	336	3
NMTAP	54	336	6
NMTAP	55	0	5
NMTAP	55	24	4
NMTAP	55	48	5
NMTAP	55	72	4
NMSTR	55	96	5
NMSI_	55	96	5	96	48	1
NMTAP	55	144	3
NMTAP	55	192	5
NMSTR	55	240	4
NMSCL	55	240	4	96	48	2
NMTAP	55	288	6
NMTAP	55	336	4
NMSTR	56	0	6
NMSCR	56	0	6	96	48	0
NMTAP	56	48	4
NMTAP	56	96	6
NMSTR	56	144	1
NMSI_	56	144	1	96	48	5
NMTAP	56	192	3
NMTAP	56	240	1
BRTAP	56	288	7
NMSTR	57	0	6
NMSI_	57	0	6	96	48	3
NMTAP	57	48	4
NMTAP	57	96	6
NMSTR	57	144	2
NMSI_	57	144	2	96	48	7
NMTAP	57	192	4
NMTAP	57	240	2
NMSTR	57	288	5
NMSI_	57	288	5	96	48	2
NMTAP	57	336	0
NMTAP	58	0	5
NMTAP	58	48	1
NMTAP	58	96	1
NMTAP	58	144	1
NMTAP	58	144	7
NMTAP	58	192	6
NMTAP	58	216	0
NMTAP	58	240	6
NMTAP	58	264	0
NMSTR	58	288	6
NMSI_	58	288	6	96	48	4
NMTAP	58	336	7
NMTAP	59	0	6
NMSTR	59	48	1
NMSI_	59	48	1	96	48	7
NMTAP	59	96	3
NMTAP	59	144	1
NMSTR	59	192	5
NMSI_	59	192	5	96	48	3
NMTAP	59	240	0
NMTAP	59	288	5
NMTAP	59	336	1
NMTAP	60	0	1
NMTAP	60	48	1
BRTAP	60	96	0
BRTAP	60	96	7
NMTAP	60	192	4
NMTAP	60	192	6
NMTAP	60	256	4
NMTAP	60	256	6
NMTAP	60	320	4
NMTAP	60	320	6
NMTAP	61	0	2
NMTAP	61	0	4
NMTAP	61	64	2
NMTAP	61	64	4
NMTAP	61	128	2
NMTAP	61	128	4
NMTAP	61	192	0
NMTAP	61	192	2
NMTAP	61	256	0
NMTAP	61	256	2
NMTAP	61	320	0
NMTAP	61	320	2
NMTAP	62	0	0
NMTAP	62	0	7
NMTAP	62	64	0
NMTAP	62	64	7
NMTAP	62	128	0
NMTAP	62	128	7
NMTAP	62	192	0
NMTAP	62	192	7
NMTAP	62	256	1
NMTAP	62	256	3
NMTAP	62	320	3
NMTAP	62	320	4
NMTAP	63	0	4
NMTAP	63	0	6
NMTAP	63	64	0
NMTAP	63	64	7
NMTAP	63	128	1
NMTAP	63	128	3
NMHLD	63	192	1	32
NMHLD	63	192	3	32
NMHLD	63	256	0	32
NMHLD	63	256	7	32
NMHLD	63	320	4	32
NMHLD	63	320	6	32
NMHLD	64	0	3	32
NMHLD	64	0	4	32
NMHLD	64	64	1	32
NMHLD	64	64	3	32
NMHLD	64	128	0	32
NMHLD	64	128	7	32
BRHLD	64	192	0	2592
BRSTR	64	192	7
NMSCL	64	192	7	96	672	7
CNSCL	66	192	7	0	768	7
CNSCL	68	192	7	0	96	6
CNSI_	68	288	6	0	96	4
CNSCL	69	0	4	0	96	3
CNSI_	69	96	3	0	96	1
CNSCL	69	192	1	0	96	0
CNSI_	69	288	0	0	96	6
CNSCL	70	0	6	0	96	5
CNSI_	70	96	5	0	96	3
CNSCL	70	192	3	0	96	2
CNSI_	70	288	2	0	96	0
CNSCL	71	0	0	0	72	7
CNSI_	71	72	7	0	24	4
NMHLD	72	192	4	576
NMSTR	72	192	5
NMSCL	72	192	5	96	96	4
CNSI_	73	0	4	0	192	7
CNSCL	73	192	7	0	96	6
CNSI_	73	288	6	0	96	1
EXHLD	74	192	2	1344
NMSTR	74	192	3
NMSCL	74	192	3	96	96	2
CNSI_	75	0	2	0	192	5
CNSCL	75	192	5	0	96	4
CNSI_	75	288	4	0	96	7
NMTTP	76	192	4	B	0	M1
NMTTP	76	192	5	B	0	M1
NMTTP	76	192	5	E	0	M1
NMTTP	76	192	5	D	0	M1
NMTTP	76	336	3	E	0	M1
NMTTP	77	96	0	B	0	M1
NMTTP	77	96	1	B	0	M1
NMTTP	77	96	1	E	0	M1
NMTTP	77	96	2	E	0	M1
NMTTP	77	240	6	B	0	M1
NMTTP	77	240	7	B	0	M1
NMTTP	77	240	7	D	0	M1
NMTTP	78	0	4	B	0	M1
NMTTP	78	0	4	A	0	M1
NMTTP	78	0	5	B	0	M1
NMTTP	78	0	5	E	0	M1
NMTTP	78	192	0	C	0	M1
NMHLD	78	192	3	672
NMHLD	79	192	5	96
NMHLD	80	0	4	96
BRHLD	80	192	1	96
NMTAP	80	192	5
NMHLD	80	288	4	96
NMHLD	81	0	3	96
NMTAP	81	96	5
NMTAP	81	144	5
NMTAP	81	192	3
NMTAP	81	240	4
NMTAP	81	288	4
NMTAP	81	336	3
NMSTR	82	0	2
NMSV_	82	0	2	96	96	3
NMTAP	82	96	4
BRHLD	82	192	5	96
NMHLD	82	288	3	96
NMHLD	83	0	4	96
NMTAP	83	96	2
NMTAP	83	144	2
NMTAP	83	192	4
NMTAP	83	240	3
NMTAP	83	288	3
NMTAP	83	336	4
NMSTR	84	0	5
NMSV_	84	0	5	96	96	4
NMTAP	84	96	3
BRHLD	84	192	1	96
NMHLD	84	288	3	96
NMHLD	85	0	2	96
NMTAP	85	96	4
NMTAP	85	144	4
NMTAP	85	192	2
NMTAP	85	240	3
NMTAP	85	288	3
NMTAP	85	336	2
NMSTR	86	0	1
NMSV_	86	0	1	96	96	3
NMTAP	86	96	4
NMSTR	86	192	5
BRSUL	86	192	5	96	96	1
NMTAP	86	288	4
CNSCL	87	0	1	0	120	7
NMTAP	87	0	3
NMTAP	87	96	2
NMHLD	87	192	2	288
NMHLD	87	192	6	192
NMSTR	88	96	7
BRSI_	88	96	7	96	48	3
BRTAP	88	192	7
NMTAP	88	288	2
NMTAP	88	288	4
NMTAP	88	360	1
NMSTR	89	0	3
NMSCR	89	0	3	96	48	6
NMTAP	89	48	3
NMSTR	89	96	0
NMSI_	89	96	0	96	48	4
NMTAP	89	144	0
NMSTR	89	192	7
BRSI_	89	192	7	96	48	2
NMTAP	89	288	2
NMTAP	89	288	7
NMTAP	89	360	3
NMSTR	90	0	4
NMSV_	90	0	4	96	48	7
NMTAP	90	48	4
NMTAP	90	96	1
NMTAP	90	144	1
NMSTR	90	192	0
NMSI_	90	192	0	96	48	5
NMTAP	90	240	0
NMTAP	90	288	3
NMTAP	90	336	3
CNSI_	90	336	5	0	48	7
NMTAP	91	0	4
NMTAP	91	48	4
NMTAP	91	96	0
NMTAP	91	96	4
NMTAP	91	144	0
NMTAP	91	144	4
NMTAP	91	192	1
NMTAP	91	192	3
NMTAP	91	240	1
NMTAP	91	240	3
NMTAP	91	288	3
NMTAP	91	288	4
NMTAP	91	336	3
NMTAP	91	336	4
NMHLD	92	0	4	24
NMHLD	92	0	6	24
NMHLD	92	48	4	24
NMHLD	92	48	6	24
NMHLD	92	96	5	24
NMHLD	92	96	6	24
NMHLD	92	144	5	24
NMHLD	92	144	6	24
NMTAP	92	192	5
NMSTR	92	192	6
NMSCL	92	192	6	96	48	3
NMTAP	92	288	0
NMTAP	92	288	6
NMSTR	92	336	1
NMSI_	92	336	1	96	48	5
NMTAP	93	48	0
NMTAP	93	48	1
NMTAP	93	72	7
NMSTR	93	96	6
NMSI_	93	96	6	96	48	2
NMTAP	93	192	3
NMTAP	93	192	6
NMHLD	93	240	1	96
NMTAP	93	336	4
NMTAP	94	0	2
NMTAP	94	0	5
NMTAP	94	48	2
NMTAP	94	48	5
NMTAP	94	96	0
NMHLD	94	96	7	96
NMTAP	94	192	0
NMTAP	94	216	1
NMTAP	94	240	2
NMTAP	94	264	3
NMTAP	94	288	4
NMTAP	94	288	6
NMTAP	94	312	3
NMTAP	94	336	2
NMTAP	94	360	1
NMTAP	95	0	0
NMTAP	95	0	7
NMTAP	95	24	6
NMTAP	95	48	5
NMTAP	95	72	4
NMTAP	95	96	1
NMTAP	95	96	3
NMTAP	95	120	4
NMTAP	95	144	5
NMTAP	95	168	6
NMTAP	95	192	0
NMTAP	95	192	7
NMTAP	95	216	1
NMTAP	95	240	2
NMTAP	95	264	3
NMTAP	95	288	4
NMTAP	95	288	6
NMTAP	95	312	3
NMTAP	95	336	2
NMTAP	95	360	1
NMTAP	96	0	0
NMTAP	96	0	7
NMTAP	96	24	6
NMTAP	96	48	5
NMTAP	96	72	4
NMTAP	96	96	2
NMTAP	96	96	3
NMTAP	96	120	4
NMTAP	96	144	5
NMTAP	96	168	6
NMTAP	96	192	0
NMSTR	96	192	7
NMSI_	96	192	7	96	48	2
NMTAP	96	288	0
NMTAP	96	336	1
NMSTR	97	0	3
NMSI_	97	0	3	96	48	6
NMTAP	97	48	1
NMTAP	97	96	0
NMSTR	97	192	0
NMSV_	97	192	0	96	48	5
NMTAP	97	240	7
NMTAP	97	288	0
NMTAP	97	336	6
NMSTR	98	0	4
NMSV_	98	0	4	96	48	1
NMTAP	98	48	5
NMTAP	98	96	4
NMSTR	98	192	0
NMSI_	98	192	0	96	48	5
NMTAP	98	192	7
NMTAP	98	288	7
NMTAP	98	336	6
NMSTR	99	0	4
NMSI_	99	0	4	96	48	1
NMTAP	99	48	6
NMTAP	99	96	7
NMSTR	99	192	7
NMSV_	99	192	7	96	48	2
NMTAP	99	240	0
NMTAP	99	288	7
NMTAP	99	336	1
NMSTR	100	0	3
NMSV_	100	0	3	96	48	6
NMTAP	100	48	2
NMTAP	100	96	3
NMHLD	100	192	7	96
NMTAP	100	288	5
NMHLD	100	336	5	96
NMTAP	101	48	3
NMHLD	101	96	3	96
NMTAP	101	192	1
NMHLD	101	240	1	96
NMTAP	101	336	0
NMTAP	102	0	0
NMTAP	102	96	2
NMTAP	102	96	6
NMTAP	102	192	5
NMTAP	102	216	3
NMTAP	102	240	5
NMTAP	102	264	3
NMTAP	102	288	5
NMTAP	102	336	1
NMTAP	102	360	4
NMTAP	103	0	1
NMTAP	103	24	4
NMTAP	103	48	1
NMSTR	103	96	6
BRSI_	103	96	6	96	48	4
NMTAP	103	120	7
NMTAP	103	144	6
NMTAP	103	168	7
BRTAP	103	192	6
CNSI_	103	240	4	0	48	7
CNSI_	103	288	7	0	48	3
CNSI_	103	336	3	0	48	0
CNSI_	104	0	0	0	96	2
NMSTR	104	192	0
NMSI_	104	192	0	96	48	4
NMTAP	104	192	3
NMTAP	104	240	0
NMTAP	104	288	6
NMHLD	104	336	6	96
NMTAP	105	48	3
NMTAP	105	96	3
NMHLD	105	144	1	96
NMTAP	105	144	5
NMTAP	105	240	7
NMTAP	105	288	2
NMTAP	105	288	6
NMTAP	105	336	2
NMTAP	105	336	6
NMTAP	106	0	5
NMTAP	106	24	5
NMTAP	106	48	3
NMTAP	106	72	3
NMTAP	106	96	4
NMTAP	106	120	4
NMTAP	106	144	2
NMTAP	106	168	2
NMSTR	106	192	3
NMSCR	106	192	3	96	48	6
NMTAP	106	240	0
NMTAP	106	288	1
NMHLD	106	336	1	96
NMTAP	107	48	7
NMTAP	107	96	7
NMTAP	107	144	4
NMHLD	107	144	6	96
NMTAP	107	240	0
NMTAP	107	288	1
NMTAP	107	288	5
NMTAP	107	336	1
NMTAP	107	336	5
NMTAP	108	0	2
NMTAP	108	24	2
NMTAP	108	48	4
NMTAP	108	72	4
NMTAP	108	96	3
NMTAP	108	120	3
NMTAP	108	144	5
BRTAP	108	192	2
BRTAP	108	192	6
NMTAP	108	240	1
NMTAP	108	264	0
NMTAP	108	288	1
NMTAP	108	336	2
NMTAP	108	336	7
NMTAP	109	0	1
NMTAP	109	24	0
NMTAP	109	48	1
NMTAP	109	96	2
NMTAP	109	96	6
NMTAP	109	144	1
NMTAP	109	168	0
NMTAP	109	192	1
NMTAP	109	240	2
NMTAP	109	240	5
NMTAP	109	288	0
NMTAP	109	312	7
NMTAP	109	336	0
NMTAP	109	360	7
NMTAP	110	0	0
NMTAP	110	24	1
NMTAP	110	48	2
NMTAP	110	72	3
NMTAP	110	96	4
NMTAP	110	96	5
NMTAP	110	120	6
NMTAP	110	144	7
NMTAP	110	168	0
NMTAP	110	192	2
NMTAP	110	216	3
NMTAP	110	240	2
NMTAP	110	264	3
NMHLD	110	288	2	48
NMTAP	110	336	6
NMTAP	110	360	4
NMTAP	111	0	5
NMTAP	111	24	4
NMHLD	111	48	6	48
NMTAP	111	96	1
NMTAP	111	120	3
NMTAP	111	144	2
NMTAP	111	168	3
NMHLD	111	192	1	48
NMTAP	111	240	4
NMTAP	111	264	2
NMTAP	111	288	4
NMTAP	111	312	2
NMTAP	111	336	4
NMTAP	111	360	2
NMTAP	112	0	3
NMTAP	112	24	3
NMTAP	112	48	4
NMTAP	112	72	2
NMTAP	112	96	3
NMTAP	112	120	3
NMTAP	112	144	4
NMTAP	112	168	2
BRSTR	112	192	5
NMSI_	112	192	5	96	48	7
NMSTR	112	240	3
NMSI_	112	240	3	96	48	5
NMTAP	112	288	5
NMTAP	112	336	3
NMTAP	113	0	0
NMTAP	113	24	1
NMTAP	113	48	2
NMTAP	113	72	3
NMTAP	113	96	4
NMTAP	113	96	7
NMTAP	113	120	0
NMTAP	113	144	1
NMTAP	113	168	2
NMSTR	113	192	6
NMSI_	113	192	6	96	48	4
NMSTR	113	240	4
NMSI_	113	240	4	96	48	0
NMTAP	113	288	6
NMTAP	113	336	1
NMTAP	114	0	1
NMTAP	114	24	2
NMTAP	114	48	3
NMTAP	114	72	4
NMTAP	114	96	1
NMTAP	114	96	5
NMTAP	114	120	0
NMTAP	114	144	7
NMTAP	114	168	6
BRSTR	114	192	2
NMSI_	114	192	2	96	48	0
NMSTR	114	240	4
NMSI_	114	240	4	96	48	2
NMTAP	114	288	2
NMTAP	114	336	4
NMTAP	115	0	7
NMTAP	115	24	6
NMTAP	115	48	5
NMTAP	115	72	4
NMTAP	115	96	0
NMTAP	115	96	3
NMTAP	115	120	7
NMTAP	115	144	6
NMTAP	115	168	5
NMSTR	115	192	1
NMSI_	115	192	1	96	48	3
NMSTR	115	240	3
NMSI_	115	240	3	96	48	7
NMTAP	115	288	1
NMTAP	115	336	6
NMTAP	116	0	6
NMTAP	116	24	5
NMTAP	116	48	4
NMTAP	116	72	3
NMTAP	116	96	2
NMTAP	116	96	7
NMTAP	116	120	0
NMTAP	116	144	1
NMTAP	116	168	2
NMTAP	116	192	3
BRTAP	116	192	7
NMTAP	116	240	5
NMTAP	116	264	4
NMTAP	116	288	5
NMTAP	116	336	0
NMTAP	116	336	4
NMTAP	117	0	2
NMTAP	117	24	3
NMTAP	117	48	1
NMTAP	117	96	4
NMTAP	117	96	5
NMTAP	117	144	6
NMTAP	117	168	7
NMHLD	117	192	6	48
NMTAP	117	240	1
NMTAP	117	264	7
NMTAP	117	288	1
NMTAP	117	312	7
NMTAP	117	336	1
NMTAP	117	360	7
NMTAP	118	0	0
NMTAP	118	24	0
NMTAP	118	48	1
NMTAP	118	72	7
NMTAP	118	96	0
NMTAP	118	120	0
NMTAP	118	144	1
NMTAP	118	168	7
NMTAP	118	192	2
NMTAP	118	216	6
NMTAP	118	240	2
NMTAP	118	264	6
NMTAP	118	288	3
NMTAP	118	312	5
NMTAP	118	336	3
NMTAP	118	360	5
NMTAP	119	0	2
NMTAP	119	24	4
NMTAP	119	48	2
NMTAP	119	72	4
NMTAP	119	96	1
NMTAP	119	120	5
NMTAP	119	144	1
NMTAP	119	168	5
NMHLD	119	192	0	24
NMTAP	119	240	1
NMHLD	119	240	7	24
NMHLD	119	288	2	24
NMTAP	119	288	6
NMTAP	119	336	3
NMHLD	119	336	5	24
NMHLD	120	0	7	24
NMHLD	120	48	0	24
NMTAP	120	48	6
NMTAP	120	96	1
NMHLD	120	96	5	24
NMHLD	120	144	2	24
NMTAP	120	144	4
BRSTR	120	192	3
NMSI_	120	192	3	96	240	0
BRHLD	120	192	5	1440
CNSCR	121	144	0	0	48	1
CNSI_	121	192	1	0	336	6
CNSCR	122	144	6	0	48	7
CNSI_	122	192	7	0	336	4
CNSCR	123	144	4	0	48	5
CNSI_	123	192	5	0	240	2
CNSCR	124	48	2	0	48	3
NMTAP	124	192	5
NMTAP	124	240	5
NMTAP	124	288	4
NMHLD	124	288	6	144
NMTAP	125	48	4
NMTAP	125	96	3
NMTAP	125	96	5
NMTAP	125	192	2
NMTAP	125	240	2
NMHLD	125	288	1	144
NMTAP	125	288	3
NMTAP	126	48	3
NMTAP	126	96	2
NMTAP	126	96	4
NMTAP	126	192	5
NMTAP	126	240	5
NMTAP	126	288	3
NMHLD	126	288	6	144
NMTAP	127	48	7
NMSTR	127	96	7
NMSSR	127	96	7	96	192	3
NMTAP	128	96	2
NMTAP	128	96	4
NMTAP	128	192	5
NMTAP	128	240	5
NMTAP	128	288	4
NMHLD	128	336	6	96
NMTAP	129	48	3
NMTAP	129	72	5
NMTAP	129	96	3
NMTAP	129	120	5
NMTAP	129	144	3
NMTAP	129	192	2
NMTAP	129	192	4
NMTAP	129	240	2
NMTAP	129	288	3
NMHLD	129	336	1	96
NMTAP	130	48	4
NMTAP	130	72	2
NMTAP	130	96	4
NMTAP	130	120	2
NMTAP	130	144	4
NMTAP	130	192	3
NMTAP	130	192	5
NMTAP	130	240	5
NMTAP	130	288	4
NMHLD	130	336	6	96
NMTAP	131	48	4
NMTAP	131	72	5
NMTAP	131	96	3
NMTAP	131	120	5
NMTAP	131	144	3
NMTAP	131	192	2
NMTAP	131	192	4
NMTAP	131	240	2
NMTAP	131	288	3
NMHLD	131	336	1	96
NMTAP	132	48	3
NMTAP	132	72	2
NMTAP	132	96	4
NMTAP	132	120	2
NMTAP	132	144	4
NMTAP	132	192	3
NMTAP	132	192	5
NMHLD	132	240	3	24
NMHLD	132	240	5	48
NMTAP	132	336	2
NMTAP	132	336	4
NMHLD	133	0	2	48
NMHLD	133	0	4	24
NMTAP	133	96	3
NMTAP	133	96	5
NMHLD	133	144	3	24
NMHLD	133	144	5	48
NMTAP	133	240	3
NMTAP	133	240	4
NMHLD	133	288	3	24
NMHLD	133	288	4	48
NMHLD	134	0	3	48
NMHLD	134	0	5	24
NMHLD	134	96	2	48
NMHLD	134	96	6	24
NMTAP	134	192	1
NMTAP	134	192	7
NMTAP	134	240	1
NMTAP	134	288	2
NMTAP	134	288	3
NMTAP	134	336	1
NMTAP	135	0	0
NMTAP	135	0	6
NMTAP	135	48	6
NMTAP	135	96	4
NMTAP	135	96	5
NMTAP	135	144	3
BRTAP	135	192	2
BRTAP	135	192	4
NMTAP	135	240	2
NMTAP	135	240	4
NMTAP	135	288	1
NMTAP	135	288	5
NMTAP	135	336	1
NMTAP	135	336	5
NMTAP	136	0	0
NMTAP	136	0	6
NMTAP	136	48	0
NMTAP	136	48	6
NMTAP	136	96	7
NMTAP	136	120	1
NMTAP	136	144	7
NMTAP	136	168	1
BRSTR	136	192	0
NMSCL	136	192	0	96	48	5
NMTAP	136	240	1
NMTAP	136	288	2
NMSTR	136	336	3
NMSCL	136	336	3	96	48	0
NMTAP	137	0	4
NMTAP	137	48	5
NMSTR	137	96	6
NMSCL	137	96	6	96	48	3
NMTAP	137	144	7
NMTAP	137	192	0
NMSTR	137	240	1
NMSCL	137	240	1	96	48	6
NMTAP	137	288	2
NMTAP	137	336	3
NMHLD	138	0	4	24
NMHLD	138	48	4	24
BRSTR	138	96	4
NMSCR	138	96	4	96	48	7
NMTAP	138	144	3
NMTAP	138	192	2
NMSTR	138	240	1
NMSCR	138	240	1	96	48	4
NMTAP	138	288	0
NMTAP	138	336	7
NMSTR	139	0	6
NMSCR	139	0	6	96	48	1
NMTAP	139	48	5
NMTAP	139	96	4
NMSTR	139	144	3
NMSCR	139	144	3	96	48	6
NMTAP	139	192	2
NMTAP	139	240	1
BRTAP	139	288	0
BRSTR	140	0	1
NMSI_	140	0	1	96	48	6
NMTAP	140	48	2
NMTAP	140	96	3
NMSTR	140	144	4
NMSI_	140	144	4	96	48	1
NMTAP	140	192	5
NMTAP	140	240	6
NMSTR	140	288	7
NMSI_	140	288	7	96	48	4
NMTAP	140	336	0
NMTAP	141	0	1
NMSTR	141	48	2
NMSI_	141	48	2	96	48	7
NMTAP	141	96	3
NMTAP	141	144	4
NMHLD	141	192	5	24
NMHLD	141	240	5	24
BRSTR	141	288	5
NMSI_	141	288	5	96	48	0
NMTAP	141	336	4
NMTAP	142	0	3
NMSTR	142	48	2
NMSI_	142	48	2	96	48	5
NMTAP	142	96	1
NMTAP	142	144	0
NMSTR	142	192	7
NMSI_	142	192	7	96	48	2
NMTAP	142	240	6
NMTAP	142	288	5
NMSTR	142	336	4
NMSI_	142	336	4	96	48	7
NMTAP	143	0	3
NMTAP	143	48	2
BRTAP	143	96	1
BRSTR	143	192	5
NMSCL	143	192	5	96	24	4
NMTAP	143	240	6
NMTAP	143	288	7
CNSI_	143	312	4	0	24	2
NMSTR	143	336	0
NMSCL	143	336	0	96	24	7
NMTAP	144	0	1
NMTAP	144	48	2
CNSI_	144	72	7	0	24	5
NMSTR	144	96	3
NMSCL	144	96	3	96	24	2
NMTAP	144	144	4
NMTAP	144	192	5
CNSI_	144	216	2	0	24	0
NMSTR	144	240	6
NMSCL	144	240	6	96	24	5
NMTAP	144	288	7
NMTAP	144	336	0
CNSI_	144	360	5	0	24	3
NMHLD	145	0	1	24
NMHLD	145	48	1	24
BRSTR	145	96	1
NMSCR	145	96	1	96	24	2
NMTAP	145	144	0
NMTAP	145	192	7
CNSI_	145	216	2	0	24	4
NMSTR	145	240	6
NMSCR	145	240	6	96	24	7
NMTAP	145	288	5
NMTAP	145	336	4
CNSI_	145	360	7	0	24	1
NMSTR	146	0	3
NMSCR	146	0	3	96	24	4
NMTAP	146	48	2
NMTAP	146	96	1
CNSI_	146	120	4	0	24	6
NMTAP	146	144	0
NMTAP	146	192	7
NMTAP	146	240	6
NMTAP	146	288	0
BRHLD	146	288	5	96
BRTAP	147	0	7
NMTAP	147	24	0
NMTAP	147	48	1
NMTAP	147	72	2
NMTAP	147	96	7
NMTAP	147	120	0
NMTAP	147	144	1
NMTAP	147	168	2
NMTAP	147	192	7
NMTAP	147	216	0
NMTAP	147	240	1
NMTAP	147	264	2
NMTAP	147	288	7
NMTAP	147	312	0
NMTAP	147	336	1
NMTAP	147	360	2
EXTAP	148	0	3
BRTAP	148	0	7
NMTAP	148	24	6
NMTAP	148	48	5
NMTAP	148	72	4
NMTAP	148	96	7
NMTAP	148	120	6
NMTAP	148	144	5
NMTAP	148	168	4
NMTAP	148	192	7
NMTAP	148	216	6
NMTAP	148	240	5
NMTAP	148	264	4
NMTAP	148	288	7
NMTAP	148	312	6
NMTAP	148	336	5
NMTAP	148	360	4
EXTAP	149	0	3
BRTAP	149	0	7
NMTAP	149	19	0
NMTAP	149	38	1
NMTAP	149	57	2
NMTAP	149	76	3
NMTAP	149	96	7
NMTAP	149	115	0
NMTAP	149	134	1
NMTAP	149	153	2
NMTAP	149	172	3
NMTAP	149	192	7
NMTAP	149	211	0
NMTAP	149	230	1
NMTAP	149	249	2
NMTAP	149	268	3
NMTAP	149	288	7
NMTAP	149	307	0
NMTAP	149	326	1
NMTAP	149	345	2
NMTAP	149	364	3
EXTAP	150	0	4
BRTAP	150	0	7
NMTAP	150	19	6
NMTAP	150	38	5
NMTAP	150	57	4
NMTAP	150	76	3
NMTAP	150	96	7
NMTAP	150	115	6
NMTAP	150	134	5
NMTAP	150	153	4
NMTAP	150	172	3
NMTAP	150	192	7
NMTAP	150	211	6
NMTAP	150	230	5
NMTAP	150	249	4
NMTAP	150	268	3
NMTAP	150	288	7
NMTAP	150	307	6
NMTAP	150	326	5
NMTAP	150	345	4
NMTAP	150	364	3
NMSTR	151	0	2
NMSCL	151	0	2	96	48	1
NMSTR	151	0	6
NMSI_	151	0	6	96	240	3
CNSI_	151	144	1	0	192	4
CNSCR	151	336	3	0	48	4
CNSCL	151	336	4	0	48	3
CNSI_	152	0	3	0	336	6
CNSI_	152	0	4	0	336	1
CNSCR	152	336	1	0	48	2
CNSCL	152	336	6	0	48	5
CNSI_	153	0	2	0	336	7
CNSI_	153	0	5	0	336	0
CNSCL	153	336	0	0	48	7
CNSCR	153	336	7	0	48	0
CNSI_	154	0	0	0	240	5
CNSI_	154	0	7	0	1632	2
CNSCR	154	240	5	0	1392	6

T_REC_TAP	891
T_REC_BRK	52
T_REC_XTP	3
T_REC_BXX	0
T_REC_HLD	114
T_REC_XHO	1
T_REC_BHO	8
T_REC_BXH	0
T_REC_STR	98
T_REC_BST	10
T_REC_XST	0
T_REC_XBS	0
T_REC_TTP	29
T_REC_THO	1
T_REC_SLD	102
T_REC_BSL	7
T_REC_ALL	1316
T_NUM_TAP	1021
T_NUM_BRK	77
T_NUM_HLD	116
T_NUM_SLD	102
T_NUM_ALL	1316
T_JUDGE_TAP	1083
T_JUDGE_HLD	395
T_JUDGE_SLD	109
T_JUDGE_ALL	1587
TTM_EACHPAIRS	177
TTM_SCR_TAP	510500
TTM_SCR_BRK	200200
TTM_SCR_HLD	116000
TTM_SCR_SLD	153000
TTM_SCR_ALL	979700
TTM_SCR_S	942850
TTM_SCR_SS	972000
TTM_RAT_ACV	10079

