VERSION	0.00.00	1.04.00
FES_MODE	0
BPM_DEF	230.000	230.000	339.000	230.000
MET_DEF	4	4
RESOLUTION	384
CLK_DEF	384
COMPATIBLE_CODE	MA2

BPM	0	0	230.000
BPM	60	192	240.000
BPM	61	192	250.000
BPM	62	192	260.000
BPM	63	192	270.000
BPM	72	192	230.000
BPM	104	192	230.000
BPM	136	192	230.000
BPM	138	96	238.000
BPM	140	0	246.000
BPM	141	288	252.000
BPM	143	192	258.000
BPM	145	96	266.000
BPM	147	0	288.000
BPM	148	0	298.000
BPM	149	0	308.000
BPM	150	0	318.000
BPM	151	0	339.000
MET	0	0	4	4
MET	50	0	8	7
MET	60	192	4	4
MET	136	192	8	7
MET	147	0	4	4

NMHLD	2	0	2	2592
NMTAP	6	0	1
NMTAP	6	144	0
NMTAP	6	288	7
NMTAP	7	48	6
NMHLD	7	192	5	480
NMTAP	9	0	3
NMTAP	9	0	4
NMTAP	9	96	2
NMTAP	9	144	2
NMTAP	9	144	3
NMTAP	9	240	5
NMTAP	9	288	4
NMTAP	9	288	5
NMHLD	10	0	2	96
NMTAP	10	96	3
NMTAP	10	192	4
NMTAP	10	240	4
NMTAP	10	288	1
NMTAP	10	336	1
NMTAP	11	0	3
NMTAP	11	96	2
NMTAP	11	144	2
NMTAP	11	144	3
NMTAP	11	240	4
NMTAP	11	288	3
NMTAP	11	288	4
NMHLD	12	0	5	96
NMTAP	12	96	4
NMTAP	12	192	3
NMTAP	12	240	3
NMTAP	12	288	6
NMTAP	12	336	6
NMTAP	13	0	4
NMTAP	13	96	5
NMTAP	13	144	4
NMTAP	13	144	5
NMTAP	13	240	3
NMTAP	13	288	3
NMTAP	13	288	4
NMHLD	14	0	1	192
NMTAP	14	96	0
NMHLD	14	192	0	192
NMTAP	14	288	7
NMHLD	15	0	7	192
NMTAP	15	96	6
NMHLD	15	192	6	192
NMTAP	15	288	1
NMHLD	16	0	1	192
NMTAP	16	96	5
NMTAP	16	192	5
NMTAP	16	288	2
NMTAP	16	288	4
NMHLD	17	0	5	96
NMTAP	17	96	4
NMHLD	17	144	5	96
NMTAP	17	240	4
NMTAP	17	288	4
NMTAP	17	288	5
NMHLD	18	0	6	96
NMTAP	18	96	7
NMTAP	18	192	2
NMTAP	18	240	2
NMTAP	18	288	0
NMTAP	18	336	0
NMTAP	19	0	1
NMTAP	19	96	6
NMTAP	19	144	6
NMTAP	19	144	7
NMTAP	19	240	0
NMTAP	19	288	0
NMTAP	19	288	7
NMHLD	20	0	1	96
NMTAP	20	96	0
NMTAP	20	192	5
NMTAP	20	240	5
NMTAP	20	288	7
NMTAP	20	336	7
NMHLD	21	0	6	96
NMTAP	21	96	0
NMTAP	21	144	0
NMTAP	21	240	1
NMTAP	21	240	5
NMTAP	21	288	1
NMTAP	21	288	5
NMTAP	22	0	6
NMTAP	22	48	6
NMHLD	22	96	6	192
NMTAP	22	192	5
NMTAP	22	240	5
NMHLD	22	288	5	192
NMTAP	23	0	4
NMTAP	23	48	4
NMHLD	23	96	4	192
NMTAP	23	192	3
NMTAP	23	240	3
NMTAP	23	288	3
NMHLD	24	0	2	96
NMTAP	24	96	3
NMTAP	24	144	3
NMTAP	24	240	3
NMTAP	24	240	4
NMTAP	24	288	3
NMTAP	24	288	4
NMTAP	25	0	4
NMTAP	25	0	5
NMTAP	25	48	4
NMTAP	25	48	5
NMTAP	25	96	3
NMTAP	25	96	6
NMTAP	25	144	3
NMTAP	25	144	6
NMTAP	25	192	2
NMTAP	25	192	7
NMTAP	25	240	2
NMTAP	25	240	7
NMTAP	25	288	0
NMSTR	25	288	1
NMSCR	25	288	1	96	768	6
NMTTP	26	0	0	E	0	M1
NMTTP	27	0	2	B	0	M1
NMTTP	28	0	5	B	0	M1
NMTAP	29	192	6
NMTTP	29	288	0	E	0	M1
NMSTR	29	288	6
NMSCL	29	288	6	96	768	1
NMTTP	31	0	5	B	0	M1
NMTTP	32	0	2	B	0	M1
NMTAP	33	0	0
NMTAP	33	0	7
NMTTP	33	192	7	A	0	M1
NMTTP	33	204	7	D	0	M1
NMTTP	33	216	6	A	0	M1
NMTTP	33	228	6	D	0	M1
NMTTP	33	240	5	A	0	M1
NMTTP	33	252	5	D	0	M1
NMTTP	33	264	4	A	0	M1
NMTTP	33	288	0	A	0	M1
NMTTP	33	300	1	D	0	M1
NMTTP	33	312	1	A	0	M1
NMTTP	33	324	2	D	0	M1
NMTTP	33	336	2	A	0	M1
NMTTP	33	348	3	D	0	M1
NMTTP	33	360	3	A	0	M1
EXHLD	34	0	5	96
EXTAP	34	96	4
EXTAP	34	144	4
NMTAP	34	240	5
NMTAP	34	288	5
NMTAP	34	336	3
NMHLD	35	0	2	96
NMTAP	35	96	3
NMTAP	35	144	3
NMTAP	35	240	2
NMTAP	35	288	2
NMTAP	35	336	4
NMHLD	36	0	5	96
NMTAP	36	96	4
NMTAP	36	144	4
NMTAP	36	240	2
NMTAP	36	288	2
NMTAP	36	336	1
NMTAP	36	336	3
NMHLD	37	0	1	96
NMHLD	37	0	3	96
NMHLD	37	144	3	96
NMHLD	37	144	5	96
NMTAP	37	288	3
NMTAP	37	288	5
NMHLD	38	0	6	96
NMTAP	38	96	7
NMTAP	38	144	7
NMTAP	38	240	6
NMTAP	38	288	6
NMTAP	38	336	0
NMHLD	39	0	1	96
NMTAP	39	96	0
NMTAP	39	144	0
NMTAP	39	240	1
NMTAP	39	288	1
NMTAP	39	336	7
NMHLD	40	0	6	96
NMTAP	40	96	7
NMTAP	40	144	7
NMTAP	40	240	1
NMTAP	40	240	4
NMTAP	40	288	1
NMSTR	40	288	4
BRSI_	40	288	4	96	96	6
CNSI_	41	96	6	0	96	3
CNSXR	41	192	3	0	96	1
NMHLD	42	0	0	96
NMHLD	42	0	2	96
NMTAP	42	144	0
NMTAP	42	144	2
NMTAP	42	240	7
NMTAP	42	288	7
NMTAP	42	336	6
NMHLD	43	0	4	96
NMHLD	43	0	5	96
NMTAP	43	144	3
NMTAP	43	144	4
NMTAP	43	240	1
NMTAP	43	288	1
NMTAP	43	336	0
NMHLD	44	0	6	96
NMHLD	44	0	7	96
NMTAP	44	144	0
NMTAP	44	144	7
NMTAP	44	240	1
NMTAP	44	288	1
NMTAP	44	336	3
NMHLD	45	0	0	96
NMTAP	45	96	6
NMTAP	45	144	6
NMTAP	45	240	1
NMTAP	45	240	5
NMTAP	45	288	1
NMTAP	45	288	5
NMTAP	46	0	6
NMTAP	46	48	7
NMTAP	46	96	0
NMHLD	46	144	1	96
NMHLD	46	144	3	96
NMTAP	46	288	2
NMTAP	46	288	3
NMTAP	47	0	1
NMTAP	47	48	0
NMTAP	47	96	7
NMHLD	47	144	4	96
NMHLD	47	144	6	96
NMTAP	47	288	4
NMTAP	47	288	5
NMTAP	48	0	7
NMTAP	48	48	6
NMTAP	48	96	0
NMHLD	48	144	1	96
NMTAP	48	240	0
NMTAP	48	288	0
NMTAP	48	288	1
NMTAP	49	0	2
NMTAP	49	0	6
NMTAP	49	48	2
NMTAP	49	48	6
NMTAP	49	96	2
NMTAP	49	96	6
NMTAP	49	144	2
NMTAP	49	144	6
NMTAP	49	192	3
NMTAP	49	192	5
NMTAP	49	240	3
NMTAP	49	240	5
NMTAP	49	288	3
NMTAP	49	288	5
NMTAP	50	0	6
NMTAP	50	48	6
NMTAP	50	96	6
NMTAP	50	144	4
NMTAP	50	192	4
NMTAP	50	240	4
NMTAP	50	288	7
NMTAP	50	336	7
NMTAP	51	0	7
NMSTR	51	48	2
NMSI_	51	48	2	96	48	0
NMTAP	51	96	2
CNSI_	51	192	0	0	48	6
NMTAP	51	288	5
NMTAP	51	336	5
NMTAP	52	0	5
NMTAP	52	48	4
NMTAP	52	96	4
NMTAP	52	144	4
NMTAP	52	192	7
NMTAP	52	240	7
NMTAP	52	288	7
NMSTR	52	336	4
NMSI_	52	336	4	96	48	2
NMTAP	53	0	4
CNSI_	53	96	2	0	48	0
NMTAP	53	192	5
NMTAP	53	240	5
NMTAP	53	288	5
NMTAP	53	336	0
NMTAP	54	0	0
NMTAP	54	48	0
NMTAP	54	96	3
NMTAP	54	144	3
NMTAP	54	192	3
NMSTR	54	240	1
NMSI_	54	240	1	96	48	3
NMTAP	54	288	1
CNSI_	55	0	3	0	48	0
NMTAP	55	96	7
NMTAP	55	144	7
NMTAP	55	192	7
NMTAP	55	240	0
NMTAP	55	288	0
NMTAP	55	336	0
NMTAP	56	0	3
NMTAP	56	48	3
NMTAP	56	96	3
NMSTR	56	144	2
NMSI_	56	144	2	96	48	4
NMTAP	56	192	2
CNSI_	56	288	4	0	48	0
NMTAP	57	0	7
NMTAP	57	48	7
NMTAP	57	96	7
NMTAP	57	144	2
NMTAP	57	192	2
NMTAP	57	240	2
NMTAP	57	288	3
NMTAP	57	336	3
NMTAP	58	0	3
NMSTR	58	48	1
NMSI_	58	48	1	96	48	4
NMTAP	58	96	1
CNSI_	58	192	4	0	48	0
NMTAP	58	288	6
NMTAP	58	336	6
NMTAP	59	0	6
NMTAP	59	48	4
NMTAP	59	96	4
NMTAP	59	144	4
NMTAP	59	192	7
NMTAP	59	240	7
NMTAP	59	288	7
NMTAP	59	336	2
NMTAP	60	0	2
NMTAP	60	48	2
NMTAP	60	96	2
NMTAP	60	96	3
NMTTP	60	192	0	B	0	M1
NMTTP	60	192	1	B	0	M1
NMTTP	60	192	1	E	0	M1
NMTTP	61	0	2	B	0	M1
NMTTP	61	0	3	B	0	M1
NMTTP	61	0	3	E	0	M1
NMTTP	61	192	4	B	0	M1
NMTTP	61	192	5	B	0	M1
NMTTP	61	192	5	E	0	M1
NMTTP	62	0	6	B	0	M1
NMTTP	62	0	7	B	0	M1
NMTTP	62	0	7	E	0	M1
NMTTP	62	192	1	E	0	M1
NMTTP	62	256	2	E	0	M1
NMTTP	62	320	3	E	0	M1
NMTTP	63	0	5	E	0	M1
NMTTP	63	64	6	E	0	M1
NMTTP	63	128	7	E	0	M1
NMTTP	63	192	0	A	0	M1
NMTTP	63	216	1	D	0	M1
NMTTP	63	240	1	A	0	M1
NMTTP	63	264	2	D	0	M1
NMTTP	63	288	2	A	0	M1
NMTTP	63	312	3	D	0	M1
NMTTP	63	336	3	A	0	M1
NMTTP	63	360	4	D	0	M1
NMTTP	64	0	4	A	0	M1
NMTTP	64	24	5	D	0	M1
NMTTP	64	48	5	A	0	M1
NMTTP	64	72	6	D	0	M1
NMTTP	64	96	6	A	0	M1
NMTTP	64	120	7	D	0	M1
NMTTP	64	144	7	A	0	M1
NMTTP	64	168	0	D	0	M1
EXHLD	64	192	0	2688
NMTTP	72	192	0	C	0	M1
NMTTP	72	192	5	D	0	M1
NMTTP	72	192	6	E	0	M1
NMTTP	72	192	7	D	0	M1
NMTTP	73	192	0	C	0	M1
NMTTP	74	192	0	E	0	M1
NMTTP	74	192	5	D	0	M1
NMTTP	74	192	6	E	0	M1
NMTTP	74	192	7	D	0	M1
NMTTP	75	192	3	B	0	M1
NMTTP	75	192	4	B	0	M1
NMTTP	75	192	7	B	0	M1
NMTTP	76	192	0	C	0	M1
NMTTP	76	192	0	E	0	M1
NMTTP	76	192	5	D	0	M1
NMTTP	76	192	6	E	0	M1
NMTTP	77	192	0	C	0	M1
NMSTR	78	192	0
BRSCL	78	192	0	96	480	4
BRSCR	78	192	0	96	480	4
NMTAP	80	192	2
NMTAP	80	192	4
NMHLD	80	288	2	576
NMTAP	80	288	3
NMTAP	81	0	4
NMTAP	81	96	3
NMTAP	81	144	3
NMTAP	81	192	3
NMTAP	81	288	4
NMTAP	82	0	3
NMTAP	82	48	4
NMTAP	82	96	5
NMTAP	82	192	3
NMTAP	82	192	5
NMTAP	82	288	4
NMHLD	82	288	5	576
NMTAP	83	0	3
NMTAP	83	96	4
NMTAP	83	144	4
NMTAP	83	192	4
NMTAP	83	288	3
NMTAP	84	0	4
NMTAP	84	48	3
NMTAP	84	96	2
NMHLD	84	192	1	96
NMTAP	84	288	3
NMHLD	84	336	3	96
NMTAP	85	48	4
NMTAP	85	96	4
NMHLD	85	192	6	96
NMTAP	85	288	4
NMHLD	85	336	4	96
NMTAP	86	48	3
NMTAP	86	96	3
NMTAP	86	192	2
NMTAP	86	240	2
NMTAP	86	288	4
NMTAP	86	336	3
NMTAP	87	0	5
NMTAP	87	48	5
NMTAP	87	96	3
NMHLD	87	144	4	240
NMHLD	87	192	2	192
BRTAP	88	96	2
BRTAP	88	96	4
NMHLD	88	192	0	96
NMTAP	88	192	7
NMTAP	88	288	4
NMTAP	89	0	1
NMTAP	89	0	3
NMTAP	89	48	4
NMTAP	89	96	3
NMTAP	89	96	5
NMTAP	89	192	0
NMHLD	89	192	7	96
NMTAP	89	288	3
NMTAP	90	0	4
NMTAP	90	0	6
NMTAP	90	48	3
NMTAP	90	96	2
NMTAP	90	96	4
NMHLD	90	192	0	96
NMTAP	90	288	3
NMHLD	90	336	4	96
NMTAP	91	48	3
NMHLD	91	96	2	384
NMTAP	91	192	4
NMTAP	91	240	4
NMTAP	91	288	4
NMTAP	92	0	5
NMTAP	92	96	6
NMHLD	92	192	7	96
NMTAP	92	288	5
NMHLD	92	336	7	96
NMTAP	93	48	0
NMTAP	93	96	0
NMTAP	93	96	7
NMHLD	93	192	0	96
NMTAP	93	288	2
NMHLD	93	336	0	96
NMTAP	94	48	7
BRSTR	94	96	0
NMSCR	94	96	0	96	288	3
NMTAP	94	96	7
NMTAP	94	192	6
NMTAP	94	288	4
NMTAP	95	0	5
NMSTR	95	96	4
NMSCR	95	96	4	96	288	7
NMTAP	95	192	2
NMTAP	95	288	0
NMTAP	96	0	1
NMTAP	96	96	0
NMTAP	96	192	2
NMHLD	96	192	6	96
NMTAP	96	288	4
NMTAP	97	0	5
NMTAP	97	24	4
NMTAP	97	48	5
NMTAP	97	72	4
BRTAP	97	96	5
NMTAP	97	192	1
NMHLD	97	192	3	96
NMTAP	97	288	2
NMTAP	98	0	2
NMTAP	98	24	3
NMTAP	98	48	2
NMTAP	98	72	3
BRTAP	98	96	2
NMTAP	98	192	3
NMHLD	98	192	4	96
NMTAP	98	288	3
NMTAP	99	0	3
NMTAP	99	24	4
NMTAP	99	48	3
NMTAP	99	72	4
BRTAP	99	96	2
NMHLD	99	192	1	288
NMTAP	99	192	3
NMTAP	99	240	3
NMTAP	99	288	3
NMTAP	100	0	5
NMTAP	100	48	5
NMTAP	100	96	4
NMTAP	100	192	2
NMHLD	100	192	3	96
NMTAP	100	288	2
NMTAP	101	0	1
NMTAP	101	24	0
NMTAP	101	48	1
NMTAP	101	72	0
BRTAP	101	96	1
NMTAP	101	192	4
NMHLD	101	192	5	96
NMTAP	101	288	4
NMTAP	102	0	6
NMTAP	102	24	7
NMTAP	102	48	6
NMTAP	102	72	7
BRTAP	102	96	5
EXHLD	102	192	0	96
NMTAP	102	288	6
EXHLD	102	336	6	96
NMTAP	103	48	2
NMTAP	103	96	2
NMHLD	103	192	4	32
NMHLD	103	192	5	32
NMHLD	103	288	2	32
NMHLD	103	288	3	32
NMHLD	104	0	4	32
NMHLD	104	0	6	32
NMHLD	104	96	1	32
NMHLD	104	96	3	32
NMTAP	104	192	6
NMTAP	104	240	6
NMTAP	104	288	0
NMHLD	104	336	0	576
NMTAP	105	48	4
NMTAP	105	144	3
NMTAP	105	240	2
NMTAP	105	288	2
NMTTP	106	0	3	D	0	M1
NMTTP	106	16	3	A	0	M1
NMTTP	106	32	4	D	0	M1
NMTTP	106	48	4	A	0	M1
NMTTP	106	64	5	D	0	M1
NMTTP	106	80	5	A	0	M1
NMTTP	106	96	6	D	0	M1
NMTTP	106	112	6	A	0	M1
NMTTP	106	128	7	D	0	M1
NMTTP	106	144	7	A	0	M1
NMTAP	106	192	1
NMTAP	106	240	1
NMTAP	106	288	0
NMHLD	106	336	1	576
NMTAP	107	48	5
NMTAP	107	144	4
NMTAP	107	240	3
NMTAP	107	288	3
NMTTP	108	0	4	D	0	M1
NMTTP	108	16	4	A	0	M1
NMTTP	108	32	5	D	0	M1
NMTTP	108	48	5	A	0	M1
NMTTP	108	64	6	D	0	M1
NMTTP	108	80	6	A	0	M1
NMTTP	108	96	7	D	0	M1
NMTTP	108	112	7	A	0	M1
NMTTP	108	128	0	D	0	M1
NMTTP	108	144	0	A	0	M1
NMTAP	108	192	2
NMTAP	108	240	3
NMTAP	108	288	1
NMTAP	108	336	5
NMTAP	109	0	4
NMTAP	109	48	6
NMTAP	109	96	1
NMTAP	109	144	1
NMTAP	109	192	6
NMTAP	109	240	7
NMTAP	109	288	5
NMTAP	109	336	1
NMTAP	110	0	0
NMTAP	110	48	2
NMTAP	110	96	7
NMTAP	110	144	7
NMTAP	110	192	1
NMHLD	110	240	1	96
NMTAP	110	288	0
NMHLD	110	336	0	96
NMTAP	111	0	7
NMTAP	111	48	7
NMTAP	111	96	6
NMTAP	111	192	3
NMTAP	111	192	5
NMTAP	111	240	3
NMTAP	111	240	5
NMTAP	111	288	3
NMTAP	111	288	5
NMTAP	111	336	3
NMTAP	111	336	5
NMTAP	112	0	2
NMTAP	112	0	4
NMTAP	112	48	2
NMTAP	112	48	4
NMTAP	112	96	2
NMTAP	112	96	4
NMTAP	112	192	1
NMTAP	112	192	5
NMTAP	112	240	1
NMTAP	112	240	5
NMTAP	112	336	3
NMTAP	112	336	6
NMTAP	113	0	3
NMTAP	113	0	6
NMTAP	113	96	4
NMTAP	113	96	5
BRTAP	113	192	3
BRTAP	113	192	6
BRTAP	113	240	6
BRTAP	113	288	4
BRTAP	113	288	6
BRTAP	113	336	6
BRTAP	114	0	3
BRTAP	114	0	6
BRTAP	114	48	6
BRTAP	114	96	4
BRTAP	114	96	6
NMTAP	114	192	3
NMTAP	114	192	5
NMTAP	114	240	3
NMTAP	114	240	5
NMTAP	114	336	1
NMTAP	114	336	3
NMTAP	115	0	1
NMTAP	115	0	3
NMTAP	115	96	0
NMTAP	115	96	4
BRTAP	115	192	1
BRTAP	115	192	3
BRTAP	115	240	1
BRTAP	115	240	3
BRTAP	115	288	1
BRTAP	115	288	3
BRTAP	115	336	1
BRTAP	115	336	3
BRTAP	116	0	1
BRTAP	116	0	3
BRTAP	116	96	0
BRTAP	116	96	4
NMTAP	116	192	2
NMHLD	116	240	2	96
NMTAP	116	288	3
NMHLD	116	336	3	96
NMTAP	117	0	4
NMHLD	117	48	4	96
NMTAP	117	96	5
NMHLD	117	144	5	96
NMTAP	117	192	6
NMHLD	117	240	6	96
NMTAP	117	288	7
NMHLD	117	336	7	96
NMTAP	118	0	0
NMHLD	118	48	0	96
NMTAP	118	96	1
NMTAP	118	144	1
NMTAP	118	192	2
NMTAP	118	240	2
NMTAP	118	288	3
NMTAP	118	336	3
NMTAP	119	0	0
NMTAP	119	48	0
NMTAP	119	96	7
NMTAP	119	144	7
NMTAP	119	192	0
NMTAP	119	192	7
NMTAP	119	240	0
NMTAP	119	240	7
NMTAP	119	288	0
NMTAP	119	288	7
NMTAP	119	336	0
NMTAP	119	336	7
BRTAP	120	0	6
BRTAP	120	24	1
BRTAP	120	48	6
BRTAP	120	72	1
BRTAP	120	96	6
BRHLD	120	192	2	1056
BRHLD	120	192	5	1056
EXTAP	123	192	6
EXTAP	123	240	7
EXTAP	123	288	0
EXTAP	123	336	1
BRTAP	124	48	0
BRTAP	124	48	7
BRTAP	124	96	0
BRTAP	124	96	7
NMTAP	124	192	0
NMSTR	124	288	0
NMSI_	124	288	0	96	96	4
NMTAP	125	0	1
NMSTR	125	96	1
NMSI_	125	96	1	96	96	5
NMTAP	125	192	2
NMSTR	125	288	2
NMSI_	125	288	2	96	96	6
NMTAP	126	0	3
NMSTR	126	96	3
NMSI_	126	96	3	96	96	7
NMTAP	126	192	4
NMSTR	126	288	4
NMSI_	126	288	4	96	96	0
NMTAP	127	0	5
EXSTR	127	192	7
NMSI_	127	192	7	96	96	3
EXTAP	127	240	6
EXSTR	127	288	5
NMSI_	127	288	5	96	96	1
NMTAP	128	192	2
NMTAP	128	240	2
NMTAP	128	288	3
NMHLD	128	336	1	96
NMTAP	129	48	3
NMTAP	129	96	4
NMHLD	129	144	5	96
NMTAP	129	240	4
NMTAP	129	288	4
NMHLD	129	336	6	96
NMTAP	130	48	4
NMTAP	130	96	4
NMTAP	130	96	5
NMTAP	130	192	3
NMTAP	130	240	2
NMTAP	130	288	4
NMHLD	130	336	5	96
NMTAP	131	48	3
NMTAP	131	96	3
EXTAP	131	192	1
EXTAP	131	240	0
EXTAP	131	288	7
EXTAP	131	336	6
BRTAP	132	48	0
BRTAP	132	48	7
BRTAP	132	96	0
BRTAP	132	96	7
NMTAP	132	192	7
NMSTR	132	288	7
NMSI_	132	288	7	96	96	3
NMTAP	133	0	6
NMSTR	133	96	6
NMSI_	133	96	6	96	96	2
NMTAP	133	192	5
NMSTR	133	288	5
NMSI_	133	288	5	96	96	1
NMTAP	134	0	4
NMSTR	134	96	4
NMSI_	134	96	4	96	96	0
NMTAP	134	192	3
NMSTR	134	288	3
NMSI_	134	288	3	96	96	7
NMTAP	135	0	2
EXSTR	135	192	0
NMSI_	135	192	0	96	96	4
EXTAP	135	240	1
EXSTR	135	288	2
NMSI_	135	288	2	96	96	6
BRTAP	136	192	5
NMTAP	136	240	5
NMTAP	136	288	5
NMTAP	136	336	4
NMTAP	137	0	4
NMTAP	137	48	4
NMTAP	137	96	7
NMTAP	137	144	7
NMTAP	137	192	7
NMSTR	137	240	3
NMSI_	137	240	3	96	48	1
NMSTR	137	288	3
NMSI_	137	288	3	96	48	5
BRTAP	138	96	0
NMTAP	138	144	0
NMTAP	138	192	0
NMTAP	138	240	6
NMTAP	138	288	6
NMTAP	138	336	6
NMTAP	139	0	1
NMTAP	139	48	1
NMTAP	139	96	1
NMSTR	139	144	3
NMSI_	139	144	3	96	48	5
NMSTR	139	192	3
NMSI_	139	192	3	96	48	1
BRTAP	140	0	7
NMTAP	140	48	7
NMTAP	140	96	7
NMTAP	140	144	2
NMTAP	140	192	2
NMTAP	140	240	2
NMTAP	140	288	3
NMTAP	140	336	3
NMTAP	141	0	3
NMSTR	141	48	0
NMSI_	141	48	0	96	48	2
NMSTR	141	96	0
NMSI_	141	96	0	96	48	5
BRTAP	141	288	3
NMTAP	141	336	3
NMTAP	142	0	3
NMTAP	142	48	6
NMTAP	142	96	6
NMTAP	142	144	6
NMTAP	142	192	4
NMTAP	142	240	4
NMTAP	142	288	4
NMSTR	142	336	7
NMSI_	142	336	7	96	48	5
NMSTR	143	0	7
NMSI_	143	0	7	96	48	2
BRTAP	143	192	4
NMTAP	143	240	4
NMTAP	143	288	4
NMTAP	143	336	0
NMTAP	144	0	0
NMTAP	144	48	0
NMTAP	144	96	3
NMTAP	144	144	3
NMTAP	144	192	3
NMSTR	144	240	2
NMSI_	144	240	2	96	48	0
NMSTR	144	288	2
NMSI_	144	288	2	96	48	5
BRTAP	145	96	1
NMTAP	145	144	1
NMTAP	145	192	1
NMTAP	145	240	6
NMTAP	145	288	6
NMTAP	145	336	6
NMTAP	146	0	0
NMTAP	146	48	0
NMTAP	146	96	0
NMTAP	146	96	7
NMTAP	146	192	1
NMTAP	146	192	6
BRTAP	146	288	2
BRTAP	146	288	5
BRTAP	147	0	3
NMTAP	147	32	4
NMTAP	147	64	3
NMTAP	147	96	4
NMTAP	147	128	3
NMTAP	147	160	4
NMTAP	147	192	3
NMTAP	147	224	4
NMTAP	147	256	3
NMTAP	147	288	4
BRTAP	148	0	2
NMTAP	148	32	5
NMTAP	148	64	2
NMTAP	148	96	5
NMTAP	148	128	2
NMTAP	148	160	5
NMTAP	148	192	2
NMTAP	148	224	5
NMTAP	148	256	2
NMTAP	148	288	5
BRTAP	149	0	1
NMTAP	149	32	6
NMTAP	149	64	1
NMTAP	149	96	6
NMTAP	149	128	1
NMTAP	149	160	6
NMTAP	149	192	1
NMTAP	149	224	6
NMTAP	149	256	1
NMTAP	149	288	6
BRTAP	150	0	0
NMTAP	150	32	7
NMTAP	150	64	0
NMTAP	150	96	7
NMTAP	150	128	0
NMTAP	150	160	7
NMTAP	150	192	0
NMTAP	150	224	7
NMTAP	150	256	0
BXSTR	150	288	7
BRSI_	150	288	7	96	2784	3
NMTAP	150	320	0
NMTAP	150	352	7

T_REC_TAP	566
T_REC_BRK	55
T_REC_XTP	12
T_REC_BXX	0
T_REC_HLD	85
T_REC_XHO	4
T_REC_BHO	2
T_REC_BXH	0
T_REC_STR	30
T_REC_BST	1
T_REC_XST	4
T_REC_XBS	1
T_REC_TTP	91
T_REC_THO	0
T_REC_SLD	33
T_REC_BSL	4
T_REC_ALL	888
T_NUM_TAP	703
T_NUM_BRK	63
T_NUM_HLD	89
T_NUM_SLD	33
T_NUM_ALL	888
T_JUDGE_TAP	760
T_JUDGE_HLD	371
T_JUDGE_SLD	37
T_JUDGE_ALL	1168
TTM_EACHPAIRS	113
TTM_SCR_TAP	351500
TTM_SCR_BRK	163800
TTM_SCR_HLD	89000
TTM_SCR_SLD	49500
TTM_SCR_ALL	653800
TTM_SCR_S	628100
TTM_SCR_SS	647500
TTM_RAT_ACV	10097

