VERSION	0.00.00	1.04.00
FES_MODE	0
BPM_DEF	230.000	230.000	339.000	230.000
MET_DEF	4	4
RESOLUTION	384
CLK_DEF	384
COMPATIBLE_CODE	MA2

BPM	0	0	230.000
BPM	60	192	240.000
BPM	61	192	250.000
BPM	62	192	260.000
BPM	63	192	270.000
BPM	72	192	230.000
BPM	104	192	230.000
BPM	136	192	230.000
BPM	138	96	238.000
BPM	140	0	246.000
BPM	141	288	252.000
BPM	143	192	258.000
BPM	145	96	266.000
BPM	147	0	288.000
BPM	148	0	298.000
BPM	149	0	308.000
BPM	150	0	318.000
BPM	151	0	339.000
MET	0	0	4	4
MET	50	0	8	7
MET	60	192	4	4
MET	136	192	8	7
MET	147	0	4	4

NMTAP	2	0	0
NMTAP	2	192	0
NMTAP	3	0	1
NMTAP	3	192	1
NMTAP	4	0	2
NMTAP	4	192	2
NMTAP	5	0	3
NMTAP	5	192	3
NMTAP	6	0	4
NMTAP	6	192	4
NMTAP	7	0	5
NMTAP	7	192	5
NMTAP	8	0	6
NMTAP	8	192	6
EXTAP	9	0	0
EXTAP	9	0	7
NMTAP	10	0	6
NMTAP	10	96	6
NMTAP	10	192	6
NMTAP	11	0	5
NMTAP	11	96	5
NMTAP	11	192	5
NMTAP	12	0	4
NMTAP	12	96	4
NMTAP	12	192	4
NMTAP	13	0	2
NMTAP	13	0	3
NMTAP	14	0	1
NMTAP	14	96	1
NMTAP	14	192	1
NMTAP	15	0	2
NMTAP	15	96	2
NMTAP	15	192	2
NMTAP	16	0	3
NMTAP	16	96	3
NMTAP	16	192	3
NMTAP	17	0	4
NMTAP	17	0	5
NMTAP	18	0	5
NMTAP	18	96	5
NMTAP	18	192	5
NMTAP	19	0	6
NMTAP	19	96	6
NMTAP	19	192	6
NMTAP	20	0	7
NMTAP	20	96	7
NMTAP	20	192	7
NMTAP	21	0	0
NMTAP	21	0	1
NMTAP	22	0	2
NMTAP	22	96	2
NMTAP	22	192	2
NMTAP	23	0	1
NMTAP	23	96	1
NMTAP	23	192	1
NMTAP	24	0	0
NMTAP	24	96	0
NMTAP	24	192	0
NMTAP	25	0	6
NMTAP	25	0	7
NMHLD	26	0	5	384
NMHLD	27	0	4	384
NMHLD	28	0	3	384
NMTAP	29	0	2
NMHLD	30	0	2	384
NMHLD	31	0	3	384
NMHLD	32	0	4	384
NMTAP	33	0	5
NMHLD	34	0	6	384
NMHLD	35	0	5	384
NMHLD	36	0	4	384
NMTAP	37	0	3
NMHLD	38	0	1	384
NMHLD	39	0	2	384
NMHLD	40	0	3	384
BRTAP	41	0	4
NMTAP	42	0	2
NMTAP	42	96	2
NMTAP	42	192	1
NMTAP	42	288	1
NMTAP	43	0	0
NMTAP	43	96	0
NMTAP	43	192	6
NMTAP	43	192	7
NMTAP	44	0	5
NMTAP	44	96	5
NMTAP	44	192	6
NMTAP	44	288	6
NMTAP	45	0	7
NMTAP	45	96	7
NMTAP	45	192	0
NMTAP	45	192	1
NMTAP	46	0	1
NMTAP	46	96	1
NMTAP	46	192	2
NMTAP	46	288	2
NMTAP	47	0	3
NMTAP	47	96	3
NMTAP	47	192	4
NMTAP	47	192	5
NMTAP	48	0	6
NMTAP	48	96	6
NMTAP	48	192	5
NMTAP	48	288	5
NMTAP	49	0	4
NMTAP	49	96	4
NMTAP	49	192	2
NMTAP	49	192	3
NMSTR	50	0	1
NMSI_	50	0	1	96	288	4
NMSTR	51	288	5
NMSI_	51	288	5	96	288	2
NMSTR	53	192	1
NMSI_	53	192	1	96	288	5
NMSTR	55	96	6
NMSI_	55	96	6	96	288	3
NMSTR	57	0	2
NMSI_	57	0	2	96	288	5
NMSTR	58	288	6
NMSSL	58	288	6	96	384	2
EXHLD	60	192	0	192
EXHLD	60	192	1	192
EXHLD	61	192	2	192
EXHLD	61	192	7	192
EXHLD	62	192	3	192
EXHLD	62	192	6	192
EXHLD	63	192	4	192
EXHLD	63	192	5	192
NMTHO	64	192	0	2688	C	1	L1
NMTTP	72	192	1	B	0	L1
NMTTP	73	0	2	B	0	L1
NMTTP	73	192	3	B	0	L1
NMTTP	74	192	6	B	0	L1
NMTTP	75	0	5	B	0	L1
NMTTP	75	192	4	B	0	L1
NMTTP	76	192	1	B	0	L1
NMTTP	77	0	2	B	0	L1
NMTTP	77	192	3	B	0	L1
NMTTP	78	0	4	B	0	L1
NMTTP	78	192	5	B	0	L1
NMTTP	79	0	6	B	0	L1
NMTTP	79	192	0	B	0	L1
NMTTP	79	192	7	B	0	L1
NMTTP	80	192	3	B	0	L1
NMTTP	81	0	2	B	0	L1
NMTTP	81	192	0	B	0	L1
NMTTP	81	192	1	B	0	L1
NMTTP	82	192	4	B	0	L1
NMTTP	83	0	5	B	0	L1
NMTTP	83	192	6	B	0	L1
NMTTP	83	192	7	B	0	L1
NMTTP	84	192	2	B	0	L1
NMTTP	85	0	1	B	0	L1
NMTTP	85	192	0	B	0	L1
NMTTP	86	0	7	B	0	L1
NMTTP	86	192	6	B	0	L1
NMTTP	87	0	5	B	0	L1
NMTTP	87	192	3	B	0	L1
NMTTP	87	192	4	B	0	L1
NMTAP	88	192	2
NMTAP	88	288	2
NMTAP	89	0	2
NMTAP	89	0	3
NMTAP	89	192	1
NMTAP	89	288	1
NMTAP	90	0	0
NMTAP	90	0	1
NMTAP	90	192	7
NMTAP	90	288	7
NMTAP	91	0	6
NMTAP	91	0	7
NMTAP	91	192	4
NMTAP	91	192	5
NMTAP	91	288	4
NMTAP	91	288	5
NMTAP	92	0	3
NMTAP	92	0	6
NMTAP	92	192	5
NMTAP	92	288	5
NMTAP	93	0	4
NMTAP	93	0	5
NMTAP	93	192	6
NMTAP	93	288	6
NMTAP	94	0	6
NMTAP	94	0	7
NMTAP	94	192	0
NMTAP	94	288	0
NMTAP	95	0	0
NMTAP	95	0	1
NMTAP	95	192	2
NMTAP	95	192	3
NMTAP	95	288	2
NMTAP	95	288	3
NMTAP	96	0	1
NMTAP	96	0	4
NMTAP	96	192	0
NMTAP	96	192	1
NMTAP	96	288	0
NMTAP	96	288	1
NMTAP	97	0	0
NMTAP	97	0	1
NMTAP	97	192	2
NMTAP	97	192	7
NMTAP	97	288	2
NMTAP	97	288	7
NMTAP	98	0	2
NMTAP	98	0	7
NMTAP	98	192	3
NMTAP	98	192	6
NMTAP	98	288	3
NMTAP	98	288	6
NMTAP	99	0	3
NMTAP	99	0	6
NMTAP	99	192	4
NMTAP	99	192	5
NMTAP	99	288	4
NMTAP	99	288	5
NMTAP	100	0	4
NMTAP	100	0	5
NMTAP	100	192	6
NMTAP	100	192	7
NMTAP	100	288	6
NMTAP	100	288	7
NMTAP	101	0	6
NMTAP	101	0	7
NMTAP	101	192	0
NMTAP	101	192	5
NMTAP	101	288	0
NMTAP	101	288	5
NMTAP	102	0	0
NMTAP	102	0	5
NMTAP	102	192	1
NMTAP	102	192	4
NMTAP	102	288	1
NMTAP	102	288	4
NMTAP	103	0	1
NMTAP	103	0	4
EXTAP	103	192	2
EXTAP	103	192	3
EXTAP	103	288	2
EXTAP	103	288	3
EXTAP	104	0	2
EXTAP	104	0	3
NMTAP	104	192	2
NMTAP	104	288	2
NMTAP	105	0	0
NMTAP	105	0	1
NMTAP	105	96	0
NMTAP	105	96	1
NMTAP	105	192	7
NMTAP	105	288	7
NMTAP	106	0	6
NMTAP	106	0	7
NMTAP	106	192	5
NMTAP	106	288	5
NMTAP	107	0	6
NMTAP	107	0	7
NMTAP	107	96	6
NMTAP	107	96	7
NMTAP	107	192	0
NMTAP	107	288	0
NMTAP	108	0	0
NMTAP	108	0	1
NMTAP	108	192	1
NMTAP	108	288	1
NMTAP	109	0	2
NMTAP	109	0	3
NMTAP	109	96	2
NMTAP	109	96	3
NMTAP	109	192	4
NMTAP	109	288	4
NMTAP	110	0	4
NMTAP	110	0	5
NMTAP	110	192	6
NMTAP	110	288	6
NMTAP	111	0	4
NMTAP	111	0	5
NMTAP	111	96	4
NMTAP	111	96	5
NMTAP	111	192	3
NMTAP	111	288	3
NMTAP	112	0	2
NMTAP	112	0	3
NMTAP	112	192	3
NMTAP	112	288	2
NMTAP	113	0	0
NMTAP	113	0	1
NMTAP	113	96	0
NMTAP	113	96	1
NMTAP	113	192	7
NMTAP	113	288	6
NMTAP	114	0	4
NMTAP	114	0	5
NMTAP	114	192	4
NMTAP	114	288	5
NMTAP	115	0	6
NMTAP	115	0	7
NMTAP	115	96	6
NMTAP	115	96	7
NMTAP	115	192	0
NMTAP	115	288	1
NMTAP	116	0	2
NMTAP	116	0	3
NMTAP	116	192	1
NMTAP	116	288	2
NMTAP	117	0	3
NMTAP	117	0	4
NMTAP	117	96	3
NMTAP	117	96	4
NMTAP	117	192	5
NMTAP	117	288	6
NMTAP	118	0	0
NMTAP	118	0	7
NMTAP	118	192	6
NMTAP	118	288	5
NMTAP	119	0	3
NMTAP	119	0	4
NMTAP	119	96	3
NMTAP	119	96	4
NMTAP	119	192	2
NMTAP	119	288	1
NMTAP	120	0	0
NMTAP	120	0	7
NMTAP	120	192	1
NMTAP	120	288	1
NMTAP	121	0	0
NMTAP	121	0	1
NMTAP	121	96	0
NMTAP	121	96	1
NMTAP	121	192	2
NMTAP	121	288	2
NMTAP	122	0	2
NMTAP	122	0	3
NMTAP	122	96	2
NMTAP	122	96	3
NMTAP	122	192	4
NMTAP	122	288	4
NMTAP	123	0	4
NMTAP	123	0	5
NMTAP	123	96	4
NMTAP	123	96	5
NMTAP	123	192	6
NMTAP	123	192	7
NMTAP	123	288	6
NMTAP	123	288	7
NMTAP	124	0	0
NMTAP	124	0	5
NMTAP	124	192	6
NMTAP	124	288	6
NMTAP	125	0	6
NMTAP	125	0	7
NMTAP	125	96	6
NMTAP	125	96	7
NMTAP	125	192	5
NMTAP	125	288	5
NMTAP	126	0	4
NMTAP	126	0	5
NMTAP	126	96	4
NMTAP	126	96	5
NMTAP	126	192	3
NMTAP	126	288	3
NMTAP	127	0	2
NMTAP	127	0	3
NMTAP	127	96	2
NMTAP	127	96	3
NMTAP	127	192	0
NMTAP	127	192	1
NMTAP	127	288	0
NMTAP	127	288	1
NMTAP	128	0	2
NMTAP	128	0	7
NMTAP	128	192	0
NMTAP	128	288	1
NMTAP	129	0	2
NMTAP	129	96	3
NMTAP	129	192	4
NMTAP	129	288	5
NMTAP	130	0	6
NMTAP	130	96	7
NMTAP	130	192	0
NMTAP	130	288	1
NMTAP	131	0	2
NMTAP	131	96	3
NMTAP	131	192	4
NMTAP	131	288	5
NMTAP	132	0	6
NMTAP	132	0	7
NMTAP	132	192	6
NMTAP	132	288	5
NMTAP	133	0	4
NMTAP	133	96	3
NMTAP	133	192	2
NMTAP	133	288	1
NMTAP	134	0	0
NMTAP	134	96	7
NMTAP	134	192	6
NMTAP	134	288	5
NMTAP	135	0	4
NMTAP	135	96	3
NMTAP	135	192	2
NMTAP	135	288	1
NMTAP	136	0	0
NMTAP	136	0	7
NMSTR	136	192	6
NMSI_	136	192	6	96	288	3
NMSTR	138	96	2
NMSI_	138	96	2	96	288	5
NMSTR	140	0	6
NMSI_	140	0	6	96	288	2
NMSTR	141	288	1
NMSI_	141	288	1	96	288	4
NMSTR	143	192	5
NMSI_	143	192	5	96	288	2
NMSTR	145	96	1
NMSSR	145	96	1	96	384	5
EXHLD	147	0	6	192
EXHLD	147	0	7	192
EXHLD	148	0	0	192
EXHLD	148	0	5	192
EXHLD	149	0	1	192
EXHLD	149	0	4	192
EXHLD	150	0	2	192
EXHLD	150	0	3	192
NMTHO	151	0	0	2688	C	1	L1

T_REC_TAP	331
T_REC_BRK	1
T_REC_XTP	8
T_REC_BXX	0
T_REC_HLD	12
T_REC_XHO	16
T_REC_BHO	0
T_REC_BXH	0
T_REC_STR	12
T_REC_BST	0
T_REC_XST	0
T_REC_XBS	0
T_REC_TTP	30
T_REC_THO	2
T_REC_SLD	12
T_REC_BSL	0
T_REC_ALL	424
T_NUM_TAP	381
T_NUM_BRK	1
T_NUM_HLD	30
T_NUM_SLD	12
T_NUM_ALL	424
T_JUDGE_TAP	382
T_JUDGE_HLD	184
T_JUDGE_SLD	12
T_JUDGE_ALL	578
TTM_EACHPAIRS	97
TTM_SCR_TAP	190500
TTM_SCR_BRK	2600
TTM_SCR_HLD	30000
TTM_SCR_SLD	18000
TTM_SCR_ALL	241100
TTM_SCR_S	233800
TTM_SCR_SS	241000
TTM_RAT_ACV	10004

