VERSION	0.00.00	1.04.00
FES_MODE	0
BPM_DEF	230.000	230.000	339.000	230.000
MET_DEF	4	4
RESOLUTION	384
CLK_DEF	384
COMPATIBLE_CODE	MA2

BPM	0	0	230.000
BPM	60	192	240.000
BPM	61	192	250.000
BPM	62	192	260.000
BPM	63	192	270.000
BPM	72	192	230.000
BPM	104	192	230.000
BPM	136	192	230.000
BPM	138	96	238.000
BPM	140	0	246.000
BPM	141	288	252.000
BPM	143	192	258.000
BPM	145	96	266.000
BPM	147	0	288.000
BPM	148	0	298.000
BPM	149	0	308.000
BPM	150	0	318.000
BPM	151	0	339.000
MET	0	0	4	4
MET	50	0	8	7
MET	60	192	4	4
MET	136	192	8	7
MET	147	0	4	4

NMSTR	2	0	0
NMSI_	2	0	0	96	480	3
NMTAP	5	0	4
NMSTR	6	0	4
NMSI_	6	0	4	96	480	7
NMTAP	9	0	0
NMTAP	9	0	7
NMTAP	10	0	0
NMTAP	10	96	0
NMTAP	10	192	0
NMTAP	11	0	1
NMTAP	11	96	1
NMTAP	11	192	1
NMTAP	12	0	2
NMTAP	12	96	2
NMTAP	12	192	2
NMTAP	13	0	3
NMTAP	13	0	4
NMTAP	13	192	3
NMTAP	13	192	4
NMTAP	14	0	4
NMTAP	14	96	4
NMTAP	14	192	4
NMTAP	15	0	5
NMTAP	15	96	5
NMTAP	15	192	5
NMTAP	16	0	6
NMTAP	16	96	6
NMTAP	16	192	6
NMTAP	17	0	0
NMTAP	17	0	7
NMTAP	18	0	7
NMTAP	18	96	7
NMTAP	18	192	7
NMTAP	19	0	6
NMTAP	19	96	6
NMTAP	19	192	6
NMTAP	20	0	5
NMTAP	20	96	5
NMTAP	20	192	5
NMTAP	21	0	3
NMTAP	21	0	4
NMTAP	21	192	3
NMTAP	21	192	4
NMTAP	22	0	3
NMTAP	22	96	3
NMTAP	22	192	3
NMTAP	23	0	2
NMTAP	23	96	2
NMTAP	23	192	2
NMTAP	24	0	1
NMTAP	24	96	1
NMTAP	24	192	1
BRTAP	25	0	0
BRTAP	25	0	7
NMTTP	26	0	0	B	0	L1
NMTTP	27	0	7	B	0	L1
NMTTP	28	0	1	B	0	L1
NMTTP	29	0	6	B	0	L1
NMTTP	30	0	2	B	0	L1
NMTTP	31	0	5	B	0	L1
NMTTP	32	0	3	B	0	L1
NMTTP	33	0	0	C	0	L1
NMHLD	34	0	0	192
NMHLD	34	0	1	192
NMTAP	35	0	0
NMTAP	35	0	1
NMHLD	36	0	2	192
NMHLD	36	0	3	192
NMTAP	37	0	2
NMTAP	37	0	3
NMHLD	38	0	4	192
NMHLD	38	0	5	192
NMTAP	39	0	4
NMTAP	39	0	5
NMHLD	40	0	6	192
NMHLD	40	0	7	192
NMTAP	41	0	6
NMTAP	41	0	7
NMTAP	42	0	6
NMTAP	42	96	6
NMTAP	42	192	6
NMTAP	43	0	6
NMTAP	43	0	7
NMTAP	43	96	6
NMTAP	43	96	7
NMTAP	43	192	6
NMTAP	43	192	7
NMTAP	44	0	5
NMTAP	44	96	5
NMTAP	44	192	5
NMTAP	45	0	4
NMTAP	45	0	5
NMTAP	45	96	4
NMTAP	45	96	5
NMTAP	45	192	4
NMTAP	45	192	5
NMTAP	46	0	2
NMTAP	46	96	2
NMTAP	46	192	2
NMTAP	47	0	2
NMTAP	47	0	3
NMTAP	47	96	2
NMTAP	47	96	3
NMTAP	47	192	2
NMTAP	47	192	3
NMTAP	48	0	1
NMTAP	48	96	1
NMTAP	48	192	1
BRTAP	49	0	0
BRTAP	49	0	1
NMSTR	50	0	7
NMSI_	50	0	7	96	576	3
NMSTR	53	192	1
NMSI_	53	192	1	96	576	5
NMSTR	57	0	6
NMSI_	57	0	6	96	576	2
NMSTR	60	192	0
NMSI_	60	192	0	96	672	3
NMSTR	60	192	7
NMSI_	60	192	7	96	672	4
NMTHO	64	192	0	3072	C	0	L1
NMTTP	74	192	0	B	0	L1
NMTTP	74	192	7	B	0	L1
NMTTP	76	192	1	B	0	L1
NMTTP	76	192	6	B	0	L1
NMTTP	78	192	2	B	0	L1
NMTTP	78	192	5	B	0	L1
NMTTP	80	192	3	E	0	L1
NMTTP	81	192	2	E	0	L1
NMTTP	82	192	1	E	0	L1
NMTTP	83	192	0	E	0	L1
NMTTP	84	192	7	E	0	L1
NMTTP	85	192	6	E	0	L1
NMTTP	86	192	5	E	0	L1
NMTTP	87	192	0	C	0	L1
NMTAP	88	192	0
NMTAP	88	288	0
NMTAP	89	0	0
NMTAP	89	96	0
NMTAP	89	192	1
NMTAP	89	288	1
NMTAP	90	0	0
NMTAP	90	0	1
NMTAP	90	192	2
NMTAP	90	288	2
NMTAP	91	0	2
NMTAP	91	96	2
NMTAP	91	192	3
NMTAP	91	288	3
NMTAP	92	0	3
NMTAP	92	0	4
NMTAP	92	192	4
NMTAP	92	288	4
NMTAP	93	0	4
NMTAP	93	96	4
NMTAP	93	192	5
NMTAP	93	288	5
NMTAP	94	0	4
NMTAP	94	0	5
NMTAP	94	192	6
NMTAP	94	288	6
NMTAP	95	0	6
NMTAP	95	96	6
NMTAP	95	192	0
NMTAP	95	192	7
NMTAP	95	288	0
NMTAP	95	288	7
NMTAP	96	0	0
NMTAP	96	0	7
NMTAP	96	192	7
NMTAP	96	288	7
NMTAP	97	0	7
NMTAP	97	96	7
NMTAP	97	192	6
NMTAP	97	192	7
NMTAP	97	288	6
NMTAP	97	288	7
NMTAP	98	0	6
NMTAP	98	0	7
NMTAP	98	192	5
NMTAP	98	288	5
NMTAP	99	0	5
NMTAP	99	96	5
NMTAP	99	192	3
NMTAP	99	192	4
NMTAP	99	288	3
NMTAP	99	288	4
NMTAP	100	0	3
NMTAP	100	0	4
NMTAP	100	192	3
NMTAP	100	288	3
NMTAP	101	0	3
NMTAP	101	96	3
NMTAP	101	192	2
NMTAP	101	192	3
NMTAP	101	288	2
NMTAP	101	288	3
NMTAP	102	0	2
NMTAP	102	0	3
NMTAP	102	192	1
NMTAP	102	288	1
NMTAP	103	0	1
NMTAP	103	96	1
BRTAP	103	192	0
BRTAP	103	192	7
NMTAP	104	192	0
NMTAP	104	288	0
NMTAP	105	0	1
NMTAP	105	96	1
NMTAP	105	192	2
NMTAP	105	288	2
NMTAP	106	0	2
NMTAP	106	0	3
NMTAP	106	192	4
NMTAP	106	288	4
NMTAP	107	0	5
NMTAP	107	96	5
NMTAP	107	192	6
NMTAP	107	288	6
NMTAP	108	0	6
NMTAP	108	0	7
NMTAP	108	192	7
NMTAP	108	288	7
NMTAP	109	0	6
NMTAP	109	96	6
NMTAP	109	192	5
NMTAP	109	288	5
NMTAP	110	0	4
NMTAP	110	0	5
NMTAP	110	192	3
NMTAP	110	288	3
NMTAP	111	0	2
NMTAP	111	96	2
NMTAP	111	192	1
NMTAP	111	288	1
NMTAP	112	0	0
NMTAP	112	0	7
NMTAP	112	192	0
NMTAP	112	288	0
NMTAP	113	0	1
NMTAP	113	96	1
NMTAP	113	192	2
NMTAP	113	192	3
NMTAP	113	288	2
NMTAP	113	288	3
NMTAP	114	0	2
NMTAP	114	0	3
NMTAP	114	96	2
NMTAP	114	96	3
NMTAP	114	192	4
NMTAP	114	288	4
NMTAP	115	0	5
NMTAP	115	96	5
NMTAP	115	192	6
NMTAP	115	192	7
NMTAP	115	288	6
NMTAP	115	288	7
NMTAP	116	0	6
NMTAP	116	0	7
NMTAP	116	96	6
NMTAP	116	96	7
NMTAP	116	192	7
NMTAP	116	288	7
NMTAP	117	0	6
NMTAP	117	96	6
NMTAP	117	192	5
NMTAP	117	288	5
NMTAP	118	0	4
NMTAP	118	96	4
NMTAP	118	192	3
NMTAP	118	288	3
NMTAP	119	0	2
NMTAP	119	96	2
NMTAP	119	192	1
NMTAP	119	288	1
BRTAP	120	0	0
BRTAP	120	0	7
EXHLD	120	192	0	192
NMTAP	121	192	1
NMTAP	122	0	1
NMHLD	122	192	2	192
NMTAP	123	192	3
NMTAP	123	192	4
NMTAP	124	0	3
NMTAP	124	0	4
NMHLD	124	192	4	192
NMTAP	125	192	5
NMTAP	126	0	5
NMHLD	126	192	6	192
NMTAP	127	192	0
NMTAP	127	192	7
NMTAP	128	192	7
NMTAP	128	288	7
NMTAP	129	0	7
NMTAP	129	96	7
NMTAP	129	192	6
NMTAP	129	288	6
NMTAP	130	0	6
NMTAP	130	96	6
NMTAP	130	192	5
NMTAP	130	288	5
NMTAP	131	0	5
NMTAP	131	96	5
NMTAP	131	192	3
NMTAP	131	192	4
NMTAP	131	288	3
NMTAP	131	288	4
NMTAP	132	0	3
NMTAP	132	0	4
NMTAP	132	192	3
NMTAP	132	288	3
NMTAP	133	0	3
NMTAP	133	96	3
NMTAP	133	192	2
NMTAP	133	288	2
NMTAP	134	0	2
NMTAP	134	96	2
NMTAP	134	192	1
NMTAP	134	288	1
NMTAP	135	0	1
NMTAP	135	96	1
BRTAP	135	192	0
BRTAP	135	192	7
NMSTR	136	192	0
NMSI_	136	192	0	96	576	5
NMSTR	140	0	6
NMSI_	140	0	6	96	576	3
NMSTR	143	192	0
NMSI_	143	192	0	96	576	4
NMSTR	147	0	3
NMSI_	147	0	3	96	672	0
NMSTR	147	0	4
NMSI_	147	0	4	96	672	7
NMTTP	151	0	0	B	0	L1
NMTHO	151	0	0	2784	C	0	L1
NMTTP	151	0	1	B	0	L1
NMTTP	151	0	6	B	0	L1
NMTTP	151	0	7	B	0	L1

T_REC_TAP	265
T_REC_BRK	10
T_REC_XTP	0
T_REC_BXX	0
T_REC_HLD	11
T_REC_XHO	1
T_REC_BHO	0
T_REC_BXH	0
T_REC_STR	12
T_REC_BST	0
T_REC_XST	0
T_REC_XBS	0
T_REC_TTP	26
T_REC_THO	2
T_REC_SLD	12
T_REC_BSL	0
T_REC_ALL	339
T_NUM_TAP	303
T_NUM_BRK	10
T_NUM_HLD	14
T_NUM_SLD	12
T_NUM_ALL	339
T_JUDGE_TAP	313
T_JUDGE_HLD	109
T_JUDGE_SLD	12
T_JUDGE_ALL	434
TTM_EACHPAIRS	63
TTM_SCR_TAP	151500
TTM_SCR_BRK	26000
TTM_SCR_HLD	14000
TTM_SCR_SLD	18000
TTM_SCR_ALL	209500
TTM_SCR_S	202250
TTM_SCR_SS	208500
TTM_RAT_ACV	10047

