VERSION	0.00.00	1.04.00
FES_MODE	1
BPM_DEF	274.000	274.000	339.000	200.000
MET_DEF	4	4
RESOLUTION	384
CLK_DEF	384
COMPATIBLE_CODE	MA2

BPM	0	0	274.000
BPM	58	0	210.000
BPM	72	0	220.000
BPM	75	192	230.000
BPM	77	96	240.000
BPM	79	0	250.000
BPM	82	192	260.000
BPM	84	192	274.000
BPM	148	192	200.000
BPM	149	96	240.000
BPM	152	288	250.000
BPM	156	96	270.000
BPM	158	0	285.000
BPM	159	288	300.000
BPM	161	192	315.000
BPM	163	96	339.000
BPM	172	0	339.000
MET	0	0	4	4
MET	58	0	4	7
MET	82	192	4	4
MET	148	192	4	3
MET	149	96	4	7

NMTAP	9	0	4
NMTAP	9	96	4
NMTAP	9	192	4
NMTAP	9	288	3
NMTAP	9	288	4
NMTAP	10	0	3
NMTAP	10	48	3
NMTAP	10	96	5
NMTAP	10	144	2
NMTAP	10	192	4
NMTAP	10	240	4
NMTAP	10	288	2
NMTAP	10	336	3
NMHLD	11	0	1	96
NMTAP	11	96	3
NMTAP	11	128	2
NMTAP	11	160	3
NMHLD	11	192	2	96
NMTAP	11	288	0
NMTAP	11	320	1
NMTAP	11	352	0
NMTAP	12	0	1
NMTAP	12	48	7
NMTAP	12	96	2
NMTAP	12	144	6
NMTAP	12	192	3
NMTAP	12	240	5
NMTAP	12	288	4
NMTAP	12	336	6
NMTAP	13	0	3
NMTAP	13	48	5
NMTAP	13	96	2
NMTAP	13	144	4
NMSTR	13	192	1
NMSI_	13	192	1	96	48	3
NMTAP	13	288	0
NMTAP	14	0	6
NMTAP	14	48	6
NMTAP	14	96	4
NMTAP	14	144	5
NMTAP	14	192	3
NMTAP	14	240	3
NMTAP	14	288	4
NMTAP	14	336	2
NMSTR	15	0	3
NMSV_	15	0	3	96	48	4
NMTAP	15	96	1
NMSTR	15	192	7
NMSV_	15	192	7	96	48	0
NMTAP	15	288	6
NMSTR	16	0	5
NMSI_	16	0	5	96	48	7
NMTAP	16	96	1
NMSTR	16	144	1
NMSI_	16	144	1	96	48	3
NMTAP	16	240	0
NMTAP	16	288	0
NMSTR	17	0	6
NMSI_	17	0	6	96	48	4
NMTAP	17	48	7
NMSTR	17	96	6
NMSI_	17	96	6	96	48	0
CNSV_	17	240	0	0	96	2
NMTAP	18	0	4
NMTAP	18	48	4
NMTAP	18	96	2
NMTAP	18	144	3
NMTAP	18	192	1
NMTAP	18	240	1
NMTAP	18	288	3
NMTAP	18	336	2
NMHLD	19	0	0	96
NMTAP	19	96	1
NMTAP	19	128	7
NMTAP	19	160	1
NMHLD	19	192	7	96
NMTAP	19	288	5
NMTAP	19	320	6
NMTAP	19	352	5
NMTAP	20	0	6
NMTAP	20	48	4
NMTAP	20	96	7
NMTAP	20	144	3
NMTAP	20	192	0
NMTAP	20	240	2
NMTAP	20	288	3
NMTAP	20	336	1
NMTAP	21	0	4
NMTAP	21	48	0
NMTAP	21	96	5
NMTAP	21	144	7
NMSTR	21	192	6
NMSI_	21	192	6	96	48	4
NMTAP	21	288	3
NMTAP	22	0	1
NMTAP	22	48	1
NMTAP	22	96	0
NMTAP	22	144	2
NMTAP	22	192	7
NMTAP	22	240	7
NMTAP	22	288	0
NMTAP	22	336	6
NMSTR	23	0	7
NMSV_	23	0	7	96	48	0
NMTAP	23	96	5
NMSTR	23	192	3
NMSV_	23	192	3	96	48	4
NMTAP	23	288	2
NMSTR	24	0	1
NMSI_	24	0	1	96	48	3
NMTAP	24	96	5
NMSTR	24	144	5
NMSI_	24	144	5	96	48	7
NMTAP	24	240	4
NMTAP	24	288	4
NMTAP	25	0	1
NMTAP	25	48	1
NMTAP	25	96	7
NMTAP	25	144	7
NMTAP	25	192	2
NMTAP	25	192	6
NMSTR	26	0	5
NMSCL	26	0	5	96	96	3
NMSCL	26	0	5	96	96	3
NMSTR	26	96	3
NMSCL	26	96	3	96	192	7
NMSCL	26	96	3	96	192	7
NMTTP	26	192	0	C	0	M1
NMSTR	26	288	7
NMSCL	26	288	7	96	192	3
NMSCL	26	288	7	96	192	3
NMSTR	27	96	3
NMSCL	27	96	3	96	96	1
NMSCL	27	96	3	96	96	1
NMTTP	27	192	0	C	0	M1
NMTAP	27	288	7
NMTTP	28	0	5	B	0	M1
NMTTP	28	48	4	B	0	M1
NMTTP	28	96	3	B	0	M1
NMTTP	28	144	2	B	0	M1
NMTTP	28	192	1	B	0	M1
NMTTP	28	288	5	E	0	M1
NMTTP	28	336	4	E	0	M1
NMTTP	29	0	3	E	0	M1
NMTTP	29	48	2	E	0	M1
NMTTP	29	96	1	E	0	M1
NMTAP	29	192	7
NMTAP	29	288	0
NMTAP	29	288	6
NMSTR	30	0	1
NMSCR	30	0	1	96	96	3
NMSCR	30	0	1	96	96	3
NMSTR	30	96	3
NMSCR	30	96	3	96	192	7
NMSCR	30	96	3	96	192	7
NMTTP	30	192	0	C	0	M1
NMSTR	30	288	7
NMSCR	30	288	7	96	192	3
NMSCR	30	288	7	96	192	3
NMSTR	31	96	3
NMSCR	31	96	3	96	96	5
NMSCR	31	96	3	96	96	5
NMTTP	31	192	0	C	0	M1
NMTAP	31	288	7
NMHLD	32	0	7	96
NMTAP	32	96	0
NMHLD	32	144	6	96
NMTAP	32	240	7
NMHLD	32	288	5	96
NMTAP	33	0	3
NMTAP	33	48	3
NMTAP	33	96	4
NMTAP	33	192	2
NMTAP	33	192	4
NMTAP	33	288	3
NMTAP	33	288	5
NMSTR	34	0	6
NMSCR	34	0	6	96	96	0
NMSCR	34	0	6	96	96	0
NMSTR	34	96	0
NMSCR	34	96	0	96	192	4
NMSCR	34	96	0	96	192	4
NMTTP	34	192	0	C	0	M1
NMSTR	34	288	4
NMSCR	34	288	4	96	192	0
NMSCR	34	288	4	96	192	0
NMSTR	35	96	0
NMSCR	35	96	0	96	96	2
NMSCR	35	96	0	96	96	2
NMTTP	35	192	0	C	0	M1
NMTAP	35	288	4
NMTTP	36	0	7	E	0	M1
NMTTP	36	48	0	E	0	M1
NMTTP	36	96	1	E	0	M1
NMTTP	36	144	2	E	0	M1
NMTTP	36	192	3	E	0	M1
NMTTP	36	288	6	A	0	M1
NMTTP	36	336	7	A	0	M1
NMTTP	37	0	0	A	0	M1
NMTTP	37	48	1	A	0	M1
NMTTP	37	96	2	A	0	M1
NMTAP	37	192	4
NMTAP	37	288	3
NMTAP	37	288	5
NMSTR	38	0	2
NMSCL	38	0	2	96	96	0
NMSCL	38	0	2	96	96	0
NMSTR	38	96	0
NMSCL	38	96	0	96	192	4
NMSCL	38	96	0	96	192	4
NMTTP	38	192	0	C	0	M1
NMSTR	38	288	4
NMSCL	38	288	4	96	192	0
NMSCL	38	288	4	96	192	0
NMSTR	39	96	0
NMSCL	39	96	0	96	96	6
NMSCL	39	96	0	96	96	6
NMTTP	39	192	0	C	0	M1
NMTAP	39	288	4
NMHLD	40	0	4	96
NMTAP	40	96	3
NMHLD	40	144	5	96
NMTAP	40	240	4
NMHLD	40	288	6	96
NMTAP	41	0	0
NMTAP	41	48	0
NMTAP	41	96	7
NMTAP	41	144	7
NMTAP	41	192	1
NMTAP	41	288	0
NMTAP	41	288	2
NMHLD	42	0	1	24
NMHLD	42	0	3	24
NMHLD	42	144	3	24
NMHLD	42	144	5	24
NMHLD	42	288	3	24
NMHLD	42	288	5	24
NMTAP	43	0	4
NMTAP	43	48	4
NMTAP	43	96	4
NMTAP	43	144	4
NMTAP	43	192	4
NMTAP	43	240	4
NMTAP	43	288	4
NMTAP	43	336	4
NMHLD	44	0	3	24
NMHLD	44	0	5	24
NMHLD	44	144	1	24
NMHLD	44	144	3	24
NMHLD	44	288	1	24
NMHLD	44	288	3	24
NMTAP	45	0	2
NMTAP	45	48	2
NMTAP	45	96	2
NMTAP	45	144	2
NMTAP	45	192	2
NMTAP	45	240	2
NMTAP	45	288	2
NMTAP	45	336	2
NMHLD	46	0	1	24
NMHLD	46	0	3	24
NMHLD	46	144	0	24
NMHLD	46	144	6	24
NMHLD	46	288	0	24
NMHLD	46	288	6	24
NMTAP	47	0	7
NMTAP	47	48	7
NMTAP	47	96	7
NMTAP	47	144	7
NMTAP	47	192	7
NMTAP	47	240	7
NMTAP	47	288	7
NMTAP	47	336	7
NMHLD	48	0	0	192
NMTAP	48	0	6
NMTAP	48	32	5
NMTAP	48	64	4
NMTAP	48	96	3
NMTAP	48	128	2
NMTAP	48	160	1
NMTAP	48	224	7
NMTAP	48	256	6
NMTAP	48	288	5
NMTAP	48	320	4
NMHLD	48	352	3	128
NMTAP	49	0	0
NMTAP	49	32	1
NMTAP	49	64	2
NMTAP	49	128	4
NMTAP	49	160	5
NMTAP	49	192	6
NMTAP	49	224	7
NMTAP	49	256	0
NMTAP	49	288	1
NMTAP	49	320	2
NMTAP	49	352	3
NMHLD	50	0	4	24
NMHLD	50	0	5	24
NMHLD	50	144	0	24
NMHLD	50	144	7	24
NMHLD	50	288	1	24
NMHLD	50	288	3	24
NMTAP	51	0	2
NMTAP	51	48	2
NMTAP	51	96	2
NMTAP	51	144	2
NMTAP	51	192	2
NMTAP	51	240	2
NMTAP	51	288	2
NMTAP	51	336	2
NMHLD	52	0	1	24
NMHLD	52	0	3	24
NMHLD	52	144	3	24
NMHLD	52	144	5	24
NMHLD	52	288	5	24
NMHLD	52	288	7	24
NMTAP	53	0	6
NMTAP	53	48	6
NMTAP	53	96	6
NMTAP	53	144	6
NMTAP	53	192	6
NMTAP	53	240	6
NMTAP	53	288	6
NMTAP	53	336	6
NMTAP	54	0	6
NMTAP	54	0	7
NMTAP	54	48	7
NMTAP	54	96	7
NMTAP	54	144	7
NMTAP	54	192	7
NMTAP	54	240	7
NMTAP	54	288	7
NMTAP	54	336	7
NMTAP	55	0	0
NMTAP	55	0	7
NMTAP	55	48	0
NMTAP	55	96	0
NMTAP	55	144	0
NMTAP	55	192	0
NMTAP	55	240	0
NMTAP	55	288	0
NMTAP	55	336	0
NMTAP	56	0	1
NMTAP	56	48	1
NMTAP	56	96	1
NMTAP	56	144	1
NMTAP	56	192	2
NMTAP	56	240	2
NMTAP	56	288	2
NMTAP	56	336	2
NMTAP	57	0	3
NMTAP	57	48	3
NMTAP	57	96	3
NMTAP	57	144	3
NMTAP	57	192	4
NMTAP	57	240	4
NMTAP	57	288	4
NMSTR	57	336	4
NMSI_	57	336	4	96	3096	0
NMTAP	61	192	2
NMTAP	61	240	2
NMTAP	61	288	3
NMHLD	61	336	1	24
NMHLD	62	0	1	24
NMTAP	62	48	3
NMTAP	62	96	3
NMTAP	62	144	2
NMHLD	62	192	1	24
NMHLD	62	240	1	24
NMTAP	62	288	2
NMTAP	62	336	3
NMTAP	63	0	4
NMTAP	63	48	5
NMTAP	63	96	6
NMTAP	63	144	6
NMTAP	63	192	4
NMHLD	63	240	5	24
NMHLD	63	288	5	24
NMTAP	63	336	4
NMTAP	64	0	4
NMTAP	64	48	5
NMHLD	64	96	6	24
NMHLD	64	144	6	24
NMSTR	64	192	4
BRSI_	64	192	4	96	48	0
NMTAP	64	240	7
BRTAP	64	288	4
NMTAP	65	0	7
NMTAP	65	48	7
NMTAP	65	96	1
NMTAP	65	144	1
NMTAP	65	192	6
NMTAP	65	216	5
NMTAP	65	240	4
NMTAP	65	288	7
NMTAP	65	336	7
NMTAP	66	0	5
NMTAP	66	48	5
NMSTR	66	96	6
NMSLL	66	96	6	96	96	0
NMTAP	66	120	7
NMTAP	66	144	0
NMTAP	66	288	1
NMHLD	66	336	1	48
NMTAP	67	0	7
NMTAP	67	48	7
NMTAP	67	96	1
NMTAP	67	120	2
NMTAP	67	144	3
NMTAP	67	192	0
NMTAP	67	240	0
NMTAP	67	288	2
NMTAP	67	336	2
NMSTR	68	0	1
NMSI_	68	0	1	96	48	5
NMTAP	68	24	0
NMTAP	68	48	7
NMTAP	68	192	6
NMHLD	68	240	6	48
NMTAP	68	288	0
NMHLD	68	336	0	48
NMTAP	69	0	5
NMTAP	69	24	4
NMTAP	69	48	3
NMTAP	69	96	7
NMTAP	69	144	7
NMTAP	69	192	2
NMTAP	69	240	2
NMSTR	69	288	6
NMSV_	69	288	6	96	48	0
NMTAP	69	312	5
NMTAP	69	336	4
NMTAP	70	96	1
NMHLD	70	144	1	48
NMTAP	70	192	7
NMHLD	70	240	7	48
NMTAP	70	288	2
NMTAP	70	312	3
NMTAP	70	336	4
NMTAP	71	0	0
NMHLD	71	48	0	48
NMTAP	71	96	5
NMTAP	71	144	5
NMSTR	71	192	1
NMSI_	71	192	1	96	48	7
NMTAP	71	216	2
NMTAP	71	240	3
NMTAP	72	0	6
NMHLD	72	48	6	48
NMTAP	72	96	0
NMHLD	72	144	0	48
NMTAP	72	192	7
NMTAP	72	216	6
NMTAP	72	240	5
NMTAP	72	264	4
NMTAP	72	288	1
NMTAP	72	288	3
NMHLD	72	336	1	48
NMTAP	73	0	4
NMHLD	73	48	4	48
NMSTR	73	96	7
NMSI_	73	96	7	96	48	4
NMTAP	73	120	0
NMTAP	73	144	1
NMTAP	73	168	2
NMTAP	73	192	3
CNSI_	73	240	4	0	48	6
NMTAP	73	288	1
NMHLD	73	336	1	48
NMTAP	74	0	7
NMHLD	74	48	7	48
NMTAP	74	96	0
NMTAP	74	120	1
NMTAP	74	144	2
NMTAP	74	168	3
NMTAP	74	192	4
NMTAP	74	192	6
NMHLD	74	240	6	48
NMTAP	74	288	2
NMHLD	74	336	2	48
NMSTR	75	0	0
NMSLR	75	0	0	96	72	4
NMTAP	75	24	7
NMTAP	75	48	6
NMTAP	75	72	5
NMTAP	75	96	4
NMTAP	75	192	6
NMHLD	75	240	6	48
NMTAP	75	288	4
NMHLD	75	336	4	48
NMTAP	76	0	2
NMTAP	76	24	1
NMTAP	76	48	0
NMTAP	76	72	7
NMTAP	76	96	2
NMTAP	76	96	6
NMHLD	76	144	2	48
NMTAP	76	192	4
NMHLD	76	240	4	48
NMSTR	76	288	6
NMSLL	76	288	6	96	96	0
NMTAP	76	312	7
NMTAP	76	336	0
NMTAP	76	360	1
NMTAP	77	0	2
NMTAP	77	96	3
NMHLD	77	144	3	48
NMTAP	77	192	7
NMHLD	77	240	7	48
NMTAP	77	288	5
NMTAP	77	312	4
NMTAP	77	336	3
NMTAP	77	360	2
NMTAP	78	0	1
NMTAP	78	0	5
NMHLD	78	48	5	48
NMTAP	78	96	3
NMHLD	78	144	3	48
NMTAP	78	192	1
NMTAP	78	216	0
NMTAP	78	240	7
NMTAP	78	264	6
BRTAP	78	288	1
NMTAP	78	288	5
NMTAP	79	0	0
NMTAP	79	24	4
NMTAP	79	48	0
NMTAP	79	72	4
NMTAP	79	96	0
NMTAP	79	120	4
NMTAP	79	144	0
NMTAP	79	168	4
NMTAP	79	192	0
NMTAP	79	216	4
NMTAP	79	240	0
NMTAP	79	264	4
NMTAP	79	288	0
NMTAP	79	312	4
NMTAP	79	336	0
NMTAP	79	360	4
NMTAP	80	0	0
NMTAP	80	24	4
NMTAP	80	48	0
NMTAP	80	72	4
NMTAP	80	96	7
NMTAP	80	120	3
NMTAP	80	144	7
NMTAP	80	168	3
NMTAP	80	192	7
NMTAP	80	216	3
NMTAP	80	240	7
NMTAP	80	264	3
BXSTR	80	288	6
BRSCR	80	288	6	672	384	6
BXSTR	80	312	2
BRSCR	80	312	2	648	384	2
BXTAP	80	336	6
BXTAP	80	360	2
BXTAP	81	0	6
BXTAP	81	24	2
BXTAP	81	48	6
BXTAP	81	72	2
BXTAP	81	96	6
BXTAP	81	120	2
BXTAP	81	144	6
BXTAP	81	168	2
BXTAP	81	192	6
BXTAP	81	216	2
BXTAP	81	240	6
BXTAP	81	264	2
BXTAP	81	288	6
BXTAP	81	312	2
BXTAP	81	336	6
BXTAP	81	360	2
BXTAP	82	0	6
BXTAP	82	24	2
BXTAP	82	48	6
BXTAP	82	72	2
BXTAP	82	96	6
BXTAP	82	120	2
BXTAP	82	144	6
BXTAP	82	168	2
CNSUL	83	192	2	0	336	2
CNSUL	83	192	6	0	336	6
NMHLD	92	192	4	96
NMHLD	92	336	4	96
NMTAP	93	96	3
NMTAP	93	96	4
NMHLD	93	192	2	96
NMHLD	93	336	2	96
NMTAP	94	96	2
NMTAP	94	96	3
NMHLD	94	192	4	96
NMHLD	94	336	3	96
NMHLD	94	336	5	96
NMTAP	95	96	4
NMTAP	95	96	5
NMHLD	95	192	3	96
NMHLD	95	336	2	96
NMHLD	95	336	4	96
NMTAP	96	96	2
NMTAP	96	96	3
NMTAP	96	192	4
NMTAP	96	240	4
NMTAP	96	288	2
NMTAP	96	336	2
NMTAP	97	0	5
NMTAP	97	48	5
NMTAP	97	96	3
NMTAP	97	144	3
NMTAP	97	192	2
NMTAP	97	192	5
NMTAP	97	240	2
NMTAP	97	240	5
NMTAP	97	288	2
NMTAP	97	288	5
NMTAP	97	336	2
NMTAP	97	336	5
NMTAP	98	0	3
NMTAP	98	0	4
NMTAP	98	48	3
NMTAP	98	48	4
NMTAP	98	96	3
NMTAP	98	96	4
NMHLD	98	144	3	240
NMHLD	98	144	4	432
NMTAP	99	192	2
NMTAP	99	224	1
NMTAP	99	256	0
NMTAP	99	288	7
NMTAP	99	320	6
NMTAP	99	352	5
NMTAP	100	0	2
NMTAP	100	32	1
NMTAP	100	64	0
NMTAP	100	96	7
NMTAP	100	128	6
NMTAP	100	160	5
NMSTR	100	192	2
BRSUL	100	192	2	96	96	4
NMSTR	100	288	4
BRSCR	100	288	4	96	144	2
NMTAP	100	336	4
NMTAP	101	48	3
NMTAP	101	96	3
NMSTR	101	192	6
BRSUL	101	192	6	96	96	0
NMSTR	101	288	0
BRSCR	101	288	0	96	144	6
NMTAP	101	336	0
NMTAP	102	48	7
NMTAP	102	96	7
NMTAP	102	192	0
NMTAP	102	240	7
NMTAP	102	288	0
NMHLD	102	288	6	96
NMTAP	103	0	0
NMHLD	103	48	4	96
NMTAP	103	96	0
NMTAP	103	192	0
NMHLD	103	192	2	96
NMTAP	103	288	0
NMHLD	103	336	4	96
NMTAP	104	0	0
NMTAP	104	96	0
NMTAP	104	96	6
NMTAP	104	192	6
NMSTR	104	192	7
BRSUR	104	192	7	96	96	5
NMSTR	104	288	5
BRSCL	104	288	5	96	144	7
NMTAP	104	336	5
NMTAP	105	48	6
NMTAP	105	96	6
NMSTR	105	192	3
BRSUR	105	192	3	96	96	1
NMSTR	105	288	1
BRSCL	105	288	1	96	144	3
NMTAP	105	336	1
NMTAP	106	48	2
NMTAP	106	96	2
NMTAP	106	192	0
NMTAP	106	216	7
NMTAP	106	240	6
NMTAP	106	288	4
NMTAP	106	336	0
NMTAP	106	360	1
NMTAP	107	0	2
NMTAP	107	48	5
NMTAP	107	96	4
NMTAP	107	96	5
NMSTR	107	192	6
NMSI_	107	192	6	96	48	4
NMTAP	107	240	7
NMSTR	107	288	6
NMSI_	107	288	6	96	48	0
CNSV_	108	48	0	0	96	2
NMSTR	108	192	4
NMSI_	108	192	4	96	48	6
NMSTR	108	288	3
NMSI_	108	288	3	96	48	5
NMTAP	108	336	3
CNSV_	108	336	6	0	48	3
NMTAP	109	48	2
CNSLR	109	48	5	0	96	1
NMTAP	109	96	2
NMSTR	109	192	3
NMSI_	109	192	3	96	48	1
NMSTR	109	288	4
NMSI_	109	288	4	96	48	2
CNSV_	109	336	1	0	48	4
NMTAP	109	336	4
CNSLL	110	48	2	0	96	6
NMTAP	110	48	5
NMTAP	110	96	5
NMTAP	110	192	4
NMTAP	110	240	5
NMTAP	110	288	4
NMHLD	110	288	6	96
NMTAP	111	0	4
NMHLD	111	48	0	96
NMTAP	111	96	4
NMHLD	111	192	2	96
NMTAP	111	192	4
NMTAP	111	288	4
NMHLD	111	336	0	96
NMTAP	112	0	4
NMTAP	112	96	4
NMTAP	112	96	6
NMSTR	112	192	7
NMSI_	112	192	7	96	48	5
NMSTR	112	288	0
NMSI_	112	288	0	96	48	6
NMTAP	112	336	0
CNSV_	112	336	5	0	48	0
NMTAP	113	48	1
CNSLL	113	48	6	0	96	2
NMTAP	113	96	1
NMSTR	113	192	7
NMSI_	113	192	7	96	48	1
NMSTR	113	288	6
NMSI_	113	288	6	96	48	0
CNSV_	113	336	1	0	48	6
NMTAP	113	336	6
CNSLR	114	48	0	0	96	4
NMTAP	114	48	5
NMTAP	114	96	5
NMTAP	114	192	6
NMTAP	114	216	7
NMTAP	114	240	0
NMTAP	114	288	3
NMTAP	114	336	6
NMTAP	114	360	5
NMTAP	115	0	4
NMTAP	115	48	2
NMTAP	115	96	2
NMTAP	115	96	3
NMSTR	115	192	1
NMSI_	115	192	1	96	48	5
NMTAP	115	240	0
NMTAP	115	288	1
NMSTR	115	288	7
NMSI_	115	288	7	96	48	3
NMTAP	116	0	2
NMTAP	116	0	7
NMTAP	116	192	5
NMTAP	116	240	4
NMTAP	116	288	5
NMTAP	116	336	2
NMTAP	117	0	3
NMTAP	117	48	2
NMTAP	117	96	4
NMTAP	117	144	4
NMSTR	117	192	1
NMSCR	117	192	1	96	48	3
NMTAP	117	240	1
NMSTR	117	288	7
NMSI_	117	288	7	96	48	3
NMTAP	117	336	7
NMSTR	118	0	0
NMSI_	118	0	0	96	48	4
NMTAP	118	48	0
NMSTR	118	96	6
NMSCL	118	96	6	96	48	4
NMTAP	118	144	6
NMTAP	118	192	2
NMTAP	118	240	2
NMTAP	118	288	3
NMTAP	118	336	1
NMTAP	119	0	4
NMTAP	119	48	0
NMTAP	119	96	5
NMTAP	119	144	5
NMTAP	119	192	4
NMTAP	119	240	6
NMTAP	119	288	3
NMTAP	119	336	7
NMTAP	120	0	2
NMTAP	120	48	2
NMTAP	120	96	0
NMTAP	120	96	2
NMTAP	120	192	1
NMTAP	120	240	7
NMTAP	120	288	1
NMTAP	120	336	6
NMTAP	121	0	0
NMTAP	121	48	6
NMTAP	121	96	7
NMTAP	121	144	7
NMSTR	121	192	6
BRSCL	121	192	6	96	48	4
NMTAP	121	240	6
NMSTR	121	288	0
BRSI_	121	288	0	96	48	4
NMTAP	121	336	0
NMSTR	122	0	7
BRSI_	122	0	7	96	48	3
NMTAP	122	48	7
NMSTR	122	96	1
BRSCR	122	96	1	96	48	3
NMTAP	122	144	1
NMTAP	122	192	6
NMTAP	122	240	6
NMTAP	122	288	4
NMTAP	122	336	4
NMTAP	123	0	1
NMTAP	123	48	1
NMTAP	123	96	3
NMTAP	123	144	3
NMTAP	123	192	4
NMTAP	123	240	4
NMTAP	123	288	4
NMTAP	123	336	4
NMTAP	124	0	4
NMTAP	124	48	4
NMTAP	124	96	3
NMTAP	124	96	5
NMTAP	124	192	6
NMTAP	124	240	4
NMTAP	124	288	5
NMTAP	124	336	1
NMTAP	125	0	3
NMTAP	125	48	2
NMTAP	125	96	6
NMTAP	125	144	6
NMSTR	125	192	0
NMSI_	125	192	0	96	48	2
NMTAP	125	240	0
NMSTR	125	288	7
NMSI_	125	288	7	96	48	3
NMTAP	125	336	7
NMSTR	126	0	6
NMSI_	126	0	6	96	48	2
NMTAP	126	48	6
NMSTR	126	96	5
NMSI_	126	96	5	96	48	3
NMTAP	126	144	5
NMTAP	126	192	1
NMTAP	126	240	1
NMTAP	126	288	0
NMTAP	126	336	2
NMTAP	127	0	7
NMTAP	127	48	3
NMTAP	127	96	6
NMTAP	127	144	6
NMTAP	127	192	7
NMTAP	127	240	5
NMTAP	127	288	0
NMTAP	127	336	4
NMTAP	128	0	1
NMTAP	128	48	1
NMTAP	128	96	1
NMTAP	128	96	3
NMTAP	128	192	2
NMTAP	128	240	0
NMTAP	128	288	1
NMTAP	128	336	5
NMTAP	129	0	7
NMTAP	129	48	6
NMTAP	129	96	2
NMTAP	129	144	2
NMSTR	129	192	7
BRSI_	129	192	7	96	48	5
NMTAP	129	240	7
NMSTR	129	288	0
BRSI_	129	288	0	96	48	4
NMTAP	129	336	0
NMSTR	130	0	1
BRSI_	130	0	1	96	48	5
NMTAP	130	48	1
NMSTR	130	96	2
BRSI_	130	96	2	96	48	4
NMTAP	130	144	2
NMTAP	130	192	7
NMTAP	130	240	7
NMTAP	130	288	5
NMTAP	130	336	5
NMTAP	131	0	3
NMTAP	131	48	3
NMTAP	131	96	1
NMTAP	131	144	1
NMTAP	131	192	7
NMTAP	131	240	7
NMTAP	131	288	7
NMTAP	131	336	7
NMTAP	132	0	0
NMTAP	132	0	6
NMTAP	132	96	2
NMTAP	132	96	4
NMSTR	132	192	1
NMSCL	132	192	1	96	96	6
NMSTR	132	288	6
NMSCL	132	288	6	96	96	3
NMSTR	133	0	3
NMSCL	133	0	3	96	96	0
NMSTR	133	96	0
NMSCL	133	96	0	96	96	5
NMSTR	133	192	5
NMSCL	133	192	5	96	96	2
NMSTR	133	288	2
NMSCL	133	288	2	96	96	7
NMSTR	134	0	7
NMSCL	134	0	7	96	96	4
NMSTR	134	96	4
NMSCL	134	96	4	96	96	1
NMSTR	134	192	1
NMSCL	134	192	1	96	168	4
NMTTP	135	96	4	E	0	M1
NMTTP	135	120	3	E	0	M1
NMTTP	135	144	2	E	0	M1
NMTTP	135	168	1	E	0	M1
NMTTP	135	192	0	E	0	M1
NMTTP	135	216	7	E	0	M1
NMTTP	135	240	6	E	0	M1
NMTTP	135	264	5	E	0	M1
NMTTP	135	288	4	E	0	M1
NMTAP	136	0	6
NMTAP	136	48	6
NMTAP	136	96	6
NMTAP	136	96	7
NMTAP	136	192	0
NMTAP	136	216	1
NMTAP	136	240	2
NMTAP	136	264	3
NMTAP	136	288	0
NMTAP	136	312	1
NMTAP	136	336	2
NMTAP	136	360	3
NMTAP	137	0	7
NMTAP	137	24	0
NMTAP	137	48	1
NMTAP	137	72	2
NMTAP	137	96	7
NMTAP	137	120	0
NMTAP	137	144	1
NMTAP	137	168	2
NMTAP	137	192	6
NMTAP	137	216	5
NMTAP	137	240	4
NMTAP	137	264	3
NMTAP	137	288	6
NMTAP	137	312	5
NMTAP	137	336	4
NMTAP	137	360	3
NMTAP	138	0	7
NMTAP	138	24	6
NMTAP	138	48	5
NMTAP	138	72	4
NMTAP	138	96	7
NMTAP	138	120	6
NMTAP	138	144	5
NMTAP	138	168	4
NMHLD	138	192	0	144
NMHLD	138	336	3	144
NMHLD	139	96	1	96
NMTAP	139	240	7
NMTAP	139	264	0
NMTAP	139	288	7
NMTAP	139	312	0
NMTAP	139	336	7
NMTAP	139	360	0
NMTAP	140	0	7
NMTAP	140	96	2
NMTAP	140	96	5
NMSTR	140	192	6
NMSI_	140	192	6	96	48	3
NMTAP	140	240	7
NMTAP	140	288	6
NMSTR	140	336	0
NMSI_	140	336	0	96	48	4
NMTAP	141	0	5
NMTAP	141	48	0
NMSTR	141	96	7
NMSI_	141	96	7	96	48	3
NMTAP	141	144	2
NMTAP	141	192	7
NMSTR	141	240	1
NMSI_	141	240	1	96	48	4
NMTAP	141	288	0
NMTAP	141	336	1
NMTAP	142	0	7
NMTAP	142	96	0
NMTAP	142	96	6
NMSTR	142	192	1
NMSI_	142	192	1	96	48	4
NMTAP	142	240	0
NMTAP	142	288	1
NMSTR	142	336	7
NMSI_	142	336	7	96	48	3
NMTAP	143	0	2
NMTAP	143	48	7
NMSTR	143	96	0
NMSI_	143	96	0	96	48	4
NMTAP	143	144	5
NMTAP	143	192	0
NMSTR	143	240	6
NMSI_	143	240	6	96	48	3
NMTAP	143	288	7
NMTAP	143	336	6
NMTAP	144	0	0
NMTAP	144	96	1
NMTAP	144	96	7
BRSTR	144	192	6
BRSI_	144	192	6	96	48	3
NMTAP	144	240	2
NMTAP	144	288	6
BRSTR	144	336	0
BRSI_	144	336	0	96	48	5
NMTAP	145	0	4
NMTAP	145	48	0
BRSTR	145	96	3
BRSI_	145	96	3	96	48	6
NMTAP	145	144	2
NMTAP	145	192	3
BRSTR	145	240	1
BRSI_	145	240	1	96	48	4
NMTAP	145	288	0
NMTAP	145	336	1
BRTAP	146	0	7
NMTAP	146	48	7
NMTAP	146	96	7
NMTAP	146	144	7
BRSTR	146	192	4
BRSI_	146	192	4	96	48	1
NMTAP	146	240	5
NMTAP	146	288	4
BRSTR	146	336	6
BRSI_	146	336	6	96	48	3
NMTAP	147	0	7
NMTAP	147	48	6
BRSTR	147	96	0
BRSI_	147	96	0	96	48	4
NMTAP	147	144	2
NMTAP	147	192	0
BRSTR	147	240	3
BRSI_	147	240	3	96	48	7
NMTAP	147	288	1
NMTAP	147	336	3
BRSTR	148	0	0
BRSF_	148	0	0	96	48	4
BRTAP	148	96	0
NMTAP	149	96	3
NMHLD	149	96	4	96
NMTAP	149	144	3
NMTAP	149	192	3
NMTAP	149	240	5
NMTAP	149	288	5
NMTAP	149	336	5
NMTAP	150	0	4
NMTAP	150	48	4
NMTAP	150	96	4
NMTAP	150	144	5
NMTAP	150	192	5
NMTAP	150	240	5
NMTAP	150	288	4
NMTAP	150	288	5
NMHLD	151	0	3	96
NMTAP	151	0	4
NMTAP	151	48	4
NMTAP	151	96	4
NMTAP	151	144	2
NMTAP	151	192	2
NMTAP	151	240	2
NMTAP	151	288	3
NMTAP	151	336	3
NMTAP	152	0	3
NMTAP	152	48	2
NMTAP	152	96	2
NMTAP	152	144	2
NMTAP	152	192	1
NMTAP	152	192	3
NMHLD	152	288	2	96
NMTAP	152	288	3
NMTAP	152	336	3
NMTAP	153	0	3
NMTAP	153	48	4
NMTAP	153	96	4
NMTAP	153	144	4
NMTAP	153	192	3
NMTAP	153	240	3
NMTAP	153	288	3
NMTAP	153	336	5
NMTAP	154	0	5
NMTAP	154	48	5
NMTAP	154	96	4
NMTAP	154	96	6
NMTAP	154	192	5
NMHLD	154	192	6	96
NMTAP	154	240	5
NMTAP	154	288	5
NMTAP	154	336	4
NMTAP	155	0	4
NMTAP	155	48	4
NMTAP	155	96	3
NMTAP	155	144	3
NMTAP	155	192	3
NMTAP	155	240	2
NMTAP	155	288	2
NMTAP	155	336	2
NMTAP	156	0	1
NMTAP	156	0	3
BRTAP	156	96	0
NMHLD	156	96	1	96
NMTAP	156	120	7
NMTAP	156	144	6
NMTAP	156	168	5
NMHLD	156	240	0	96
BRTAP	156	240	7
NMTAP	156	264	6
NMTAP	156	288	5
NMTAP	156	312	4
BRTAP	157	0	6
NMHLD	157	0	7	96
NMTAP	157	24	5
NMTAP	157	48	4
NMTAP	157	72	3
NMHLD	157	144	0	48
NMHLD	157	192	3	48
NMHLD	157	240	2	48
NMHLD	157	288	5	48
NMHLD	158	0	6	96
BRTAP	158	0	7
NMTAP	158	24	0
NMTAP	158	48	1
NMTAP	158	72	2
BRTAP	158	144	0
NMHLD	158	144	7	96
NMTAP	158	168	1
NMTAP	158	192	2
NMTAP	158	216	3
NMHLD	158	288	0	96
BRTAP	158	288	1
NMTAP	158	312	2
NMTAP	158	336	3
NMTAP	158	360	4
NMHLD	159	48	7	48
NMHLD	159	96	4	48
NMHLD	159	144	5	48
NMHLD	159	192	2	48
BRTAP	159	288	7
NMTAP	159	336	6
NMTAP	160	0	5
NMTAP	160	48	4
NMTAP	160	96	3
NMTAP	160	144	2
BRTAP	160	192	1
NMTAP	160	224	2
NMTAP	160	256	3
NMTAP	160	288	4
NMTAP	160	320	5
NMTAP	160	352	6
NMTAP	161	0	7
NMTAP	161	32	0
NMTAP	161	64	1
NMTAP	161	96	2
NMTAP	161	128	3
NMTAP	161	160	4
BRTAP	161	192	7
NMTAP	161	216	6
NMTAP	161	240	5
NMTAP	161	264	4
NMTAP	161	288	3
NMTAP	161	312	2
NMTAP	161	336	1
NMTAP	161	360	0
NMTAP	162	0	7
NMTAP	162	24	6
NMTAP	162	48	5
NMTAP	162	72	4
BRTAP	162	96	1
NMTAP	162	112	2
NMTAP	162	128	3
NMTAP	162	144	4
NMTAP	162	160	5
NMTAP	162	176	6
NMTAP	162	192	7
NMTAP	162	208	0
NMTTP	162	224	1	A	0	M1
NMTTP	162	224	2	D	0	M1
NMTTP	162	240	2	A	0	M1
NMTTP	162	240	3	D	0	M1
NMTTP	162	256	3	A	0	M1
NMTTP	162	256	4	D	0	M1
NMTTP	162	272	4	A	0	M1
NMTTP	162	272	5	D	0	M1
NMTTP	162	288	5	A	0	M1
NMTTP	162	288	6	D	0	M1
NMTTP	162	304	6	A	0	M1
NMTTP	162	304	7	D	0	M1
NMTTP	162	320	0	D	0	M1
NMTTP	162	320	7	A	0	M1
NMTTP	162	336	0	A	0	M1
NMTTP	162	336	1	D	0	M1
BXTAP	162	352	1
BXTAP	162	368	2
BXTAP	163	0	3
BXTAP	163	16	4
BXTAP	163	32	5
BXTAP	163	48	6
BXTAP	163	64	7
BXTAP	163	80	0
BXSTR	163	96	1
NMSCL	163	96	1	96	1632	1
BRSCL	163	96	1	96	1680	1
CNSCR	167	336	1	0	1584	1

T_REC_TAP	776
T_REC_BRK	14
T_REC_XTP	0
T_REC_BXX	34
T_REC_HLD	113
T_REC_XHO	0
T_REC_BHO	0
T_REC_BXH	0
T_REC_STR	90
T_REC_BST	9
T_REC_XST	0
T_REC_XBS	3
T_REC_TTP	53
T_REC_THO	0
T_REC_SLD	90
T_REC_BSL	29
T_REC_ALL	1211
T_NUM_TAP	919
T_NUM_BRK	89
T_NUM_HLD	113
T_NUM_SLD	90
T_NUM_ALL	1211
T_JUDGE_TAP	979
T_JUDGE_HLD	123
T_JUDGE_SLD	119
T_JUDGE_ALL	1221
TTM_EACHPAIRS	78
TTM_SCR_TAP	459500
TTM_SCR_BRK	231400
TTM_SCR_HLD	113000
TTM_SCR_SLD	135000
TTM_SCR_ALL	938900
TTM_SCR_S	902100
TTM_SCR_SS	930000
TTM_RAT_ACV	10095

