VERSION	0.00.00	1.04.00
FES_MODE	0
BPM_DEF	274.000	274.000	339.000	200.000
MET_DEF	4	4
RESOLUTION	384
CLK_DEF	384
COMPATIBLE_CODE	MA2

BPM	0	0	274.000
BPM	58	0	210.000
BPM	72	0	220.000
BPM	75	192	230.000
BPM	77	96	240.000
BPM	79	0	250.000
BPM	82	192	260.000
BPM	84	192	274.000
BPM	148	192	200.000
BPM	149	96	240.000
BPM	152	288	250.000
BPM	156	96	270.000
BPM	158	0	285.000
BPM	159	288	300.000
BPM	161	192	315.000
BPM	163	96	339.000
BPM	172	0	339.000
MET	0	0	4	4
MET	58	0	4	7
MET	82	192	4	4
MET	148	192	4	3
MET	149	96	4	7

NMTAP	10	0	5
NMTAP	10	96	4
NMTAP	10	96	5
NMTAP	10	192	5
NMTAP	10	288	4
NMTAP	10	288	5
NMTAP	11	0	2
NMTAP	11	96	2
NMTAP	11	96	3
NMTAP	11	192	2
NMTAP	11	288	2
NMTAP	11	288	3
NMHLD	12	0	1	192
NMTAP	12	96	3
NMHLD	12	192	5	192
NMTAP	12	288	3
NMHLD	13	0	0	192
NMTAP	13	96	3
NMHLD	13	192	6	96
NMTAP	13	288	3
NMTAP	14	0	6
NMTAP	14	96	6
NMTAP	14	96	7
NMTAP	14	192	6
NMTAP	14	288	6
NMTAP	14	288	7
NMTAP	15	0	1
NMTAP	15	96	0
NMTAP	15	96	1
NMTAP	15	192	1
NMTAP	15	288	1
NMTAP	15	288	7
NMTAP	16	0	2
NMTAP	16	0	6
NMTAP	16	96	3
NMTAP	16	96	5
NMTAP	16	144	3
NMTAP	16	144	5
NMTAP	16	240	2
NMTAP	16	240	4
NMTAP	16	288	2
NMTAP	16	288	4
NMTAP	17	0	5
NMTAP	17	96	6
NMTAP	17	192	0
NMTAP	17	192	7
NMTAP	18	0	2
NMTAP	18	96	2
NMTAP	18	96	3
NMTAP	18	192	2
NMTAP	18	288	2
NMTAP	18	288	3
NMTAP	19	0	5
NMTAP	19	96	4
NMTAP	19	96	5
NMTAP	19	192	5
NMTAP	19	288	4
NMTAP	19	288	5
NMHLD	20	0	6	192
NMTAP	20	96	4
NMHLD	20	192	2	192
NMTAP	20	288	4
NMHLD	21	0	7	192
NMTAP	21	96	4
NMHLD	21	192	1	96
NMTAP	21	288	4
NMTAP	22	0	1
NMTAP	22	96	0
NMTAP	22	96	1
NMTAP	22	192	1
NMTAP	22	288	0
NMTAP	22	288	1
NMTAP	23	0	6
NMTAP	23	96	6
NMTAP	23	96	7
NMTAP	23	192	6
NMTAP	23	288	0
NMTAP	23	288	6
NMTAP	24	0	1
NMTAP	24	0	5
NMTAP	24	96	2
NMTAP	24	96	4
NMTAP	24	144	2
NMTAP	24	144	4
NMTAP	24	240	3
NMTAP	24	240	5
NMTAP	24	288	3
NMTAP	24	288	5
NMTAP	25	0	3
NMTAP	25	48	4
NMTAP	25	96	3
NMTAP	25	144	4
NMTAP	25	192	2
NMTAP	25	240	5
NMTAP	25	288	2
NMTAP	25	336	5
NMSTR	26	0	1
NMSI_	26	0	1	96	96	5
NMSTR	26	192	6
NMSI_	26	192	6	96	96	2
NMSTR	27	0	0
NMSI_	27	0	0	96	96	4
NMSTR	27	192	7
NMSI_	27	192	7	96	96	3
NMTAP	28	0	2
NMHLD	28	96	2	96
NMTAP	28	192	3
NMHLD	28	288	3	96
NMTAP	29	0	4
NMHLD	29	96	4	96
NMTAP	29	192	5
NMTAP	29	288	5
NMSTR	30	0	6
NMSI_	30	0	6	96	96	2
NMSTR	30	192	1
NMSI_	30	192	1	96	96	5
NMSTR	31	0	7
NMSI_	31	0	7	96	96	3
NMSTR	31	192	0
NMSI_	31	192	0	96	96	4
NMTAP	32	0	6
NMTAP	32	96	3
NMTAP	32	96	5
NMTAP	32	144	3
NMTAP	32	144	5
NMTAP	32	240	2
NMTAP	32	240	4
NMTAP	32	288	2
NMTAP	32	288	4
NMTAP	33	0	5
NMTAP	33	96	6
NMTAP	33	192	0
NMTAP	33	192	7
NMSTR	34	0	2
NMSI_	34	0	2	96	96	7
NMSTR	34	192	5
NMSI_	34	192	5	96	96	0
NMSTR	35	0	3
NMSI_	35	0	3	96	96	7
NMSTR	35	192	4
NMSI_	35	192	4	96	96	0
NMTAP	36	0	1
NMHLD	36	96	1	96
NMTAP	36	192	2
NMHLD	36	288	2	96
NMTAP	37	0	3
NMHLD	37	96	3	96
NMTAP	37	192	4
NMTAP	37	288	4
NMSTR	38	0	5
NMSI_	38	0	5	96	96	0
NMSTR	38	192	2
NMSI_	38	192	2	96	96	7
NMSTR	39	0	4
NMSI_	39	0	4	96	96	0
NMSTR	39	192	3
NMSI_	39	192	3	96	96	7
NMTAP	40	0	6
NMTAP	40	96	0
NMTAP	40	96	6
NMTAP	40	144	0
NMTAP	40	144	6
NMTAP	40	240	1
NMTAP	40	240	7
NMTAP	40	288	1
NMTAP	40	288	7
NMTAP	41	0	1
NMTAP	41	48	6
NMTAP	41	96	1
NMTAP	41	144	6
NMTAP	41	192	2
NMTAP	41	240	5
NMTAP	41	288	2
NMTAP	41	336	5
NMTAP	42	0	3
NMTAP	42	144	3
NMTAP	42	144	4
NMTAP	42	288	2
NMTAP	42	288	3
NMTAP	43	0	2
NMTAP	43	48	3
NMTAP	43	96	2
NMTAP	43	144	3
NMTAP	43	192	1
NMTAP	43	240	4
NMTAP	43	288	1
NMTAP	43	336	4
NMTAP	44	0	2
NMTAP	44	144	3
NMTAP	44	144	4
NMTAP	44	288	4
NMTAP	44	288	5
NMTAP	45	0	5
NMTAP	45	48	4
NMTAP	45	96	5
NMTAP	45	144	4
NMTAP	45	192	6
NMTAP	45	240	3
NMTAP	45	288	6
NMTAP	45	336	3
NMTAP	46	0	5
NMTAP	46	144	3
NMTAP	46	144	6
NMTAP	46	288	2
NMTAP	46	288	7
NMTAP	47	0	1
NMTAP	47	48	0
NMTAP	47	96	1
NMTAP	47	144	0
NMTAP	47	192	2
NMTAP	47	240	7
NMTAP	47	288	2
NMTAP	47	336	7
NMSTR	48	0	1
NMSXR	48	0	1	96	288	4
NMSTR	49	0	6
NMSXL	49	0	6	96	288	3
NMTAP	50	0	2
NMTAP	50	144	0
NMTAP	50	144	1
NMTAP	50	288	0
NMTAP	50	288	7
NMTAP	51	0	6
NMTAP	51	48	7
NMTAP	51	96	5
NMTAP	51	144	0
NMTAP	51	192	6
NMTAP	51	240	7
NMTAP	51	288	5
NMTAP	51	336	0
NMTAP	52	0	6
NMTAP	52	144	6
NMTAP	52	144	7
NMTAP	52	288	0
NMTAP	52	288	7
NMTAP	53	0	1
NMTAP	53	48	7
NMTAP	53	96	1
NMTAP	53	144	7
NMTAP	53	192	1
NMTAP	53	240	7
NMTAP	53	288	1
NMTAP	53	336	7
NMTAP	54	0	2
NMTAP	54	48	7
NMTAP	54	96	2
NMTAP	54	144	7
NMTAP	54	192	2
NMTAP	54	240	7
NMTAP	54	288	2
NMTAP	54	336	7
NMTAP	55	0	3
NMTAP	55	48	7
NMTAP	55	96	3
NMTAP	55	144	7
NMTAP	55	192	3
NMTAP	55	240	7
NMTAP	55	288	3
NMTAP	55	336	7
NMTAP	56	0	4
NMTAP	56	48	7
NMTAP	56	96	4
NMTAP	56	144	7
NMTAP	56	192	4
NMTAP	56	240	7
NMTAP	56	288	4
NMTAP	56	336	7
NMTAP	57	0	5
NMTAP	57	48	7
NMTAP	57	96	5
NMTAP	57	144	7
NMTAP	57	192	5
NMTAP	57	240	7
NMSTR	57	288	5
NMSI_	57	288	5	96	48	0
NMTAP	57	336	7
NMTTP	61	192	1	E	0	M1
NMTTP	61	288	2	E	0	M1
NMTTP	62	0	3	E	0	M1
NMTTP	62	96	1	D	0	M1
NMTTP	62	192	2	D	0	M1
NMTTP	62	288	3	D	0	M1
NMTTP	63	0	4	E	0	M1
NMTTP	63	96	7	E	0	M1
NMTTP	63	192	6	E	0	M1
NMTTP	63	288	5	E	0	M1
NMTTP	64	0	7	D	0	M1
NMTTP	64	96	6	D	0	M1
NMTTP	64	192	5	D	0	M1
NMTTP	64	288	0	C	0	M1
NMTAP	65	0	2
NMHLD	65	48	2	96
NMTAP	65	144	3
NMHLD	65	192	3	96
NMTAP	65	288	4
NMHLD	65	336	4	96
NMTAP	66	48	5
NMTAP	66	96	5
NMTAP	66	192	4
NMTAP	66	192	6
NMTAP	66	288	5
NMHLD	66	336	5	96
NMTAP	67	48	4
NMHLD	67	96	4	96
NMTAP	67	192	3
NMHLD	67	240	3	96
NMTAP	67	336	2
NMTAP	68	0	2
NMTAP	68	96	1
NMTAP	68	96	3
NMTAP	68	192	1
NMHLD	68	240	1	96
NMTAP	68	336	3
NMHLD	69	0	3	96
NMTAP	69	96	4
NMHLD	69	144	4	96
NMTAP	69	240	6
NMTAP	69	288	6
NMTAP	70	0	4
NMTAP	70	0	7
NMTAP	70	96	6
NMHLD	70	144	6	96
NMTAP	70	240	4
NMHLD	70	288	4	96
NMTAP	71	0	2
NMHLD	71	48	2	96
NMTAP	71	144	0
NMTAP	71	192	0
BRTAP	71	288	0
BRTAP	71	288	6
NMHLD	72	0	6	480
NMTAP	72	0	7
NMTAP	72	48	7
NMTAP	72	144	5
NMTAP	72	192	5
NMTAP	72	288	0
NMTAP	72	336	0
NMTAP	73	48	3
NMTAP	73	96	3
NMTAP	73	192	2
NMTAP	73	192	4
NMTAP	73	288	0
NMHLD	73	288	1	480
NMTAP	73	336	0
NMTAP	74	48	2
NMTAP	74	96	2
NMTAP	74	192	7
NMTAP	74	240	7
NMTAP	74	336	4
NMTAP	75	0	4
NMTAP	75	96	3
NMTAP	75	96	5
NMTAP	75	192	0
NMHLD	75	192	6	480
NMTAP	75	240	0
NMTAP	75	336	5
NMTAP	76	0	5
NMTAP	76	96	1
NMTAP	76	144	1
NMTAP	76	240	4
NMTAP	76	288	4
NMTAP	77	0	3
NMTAP	77	0	5
NMHLD	77	96	1	480
NMTAP	77	96	7
NMTAP	77	144	7
NMTAP	77	240	2
NMTAP	77	288	2
NMTAP	78	0	6
NMTAP	78	48	6
NMTAP	78	144	3
NMTAP	78	192	3
NMTAP	78	288	1
NMTAP	78	288	4
EXTAP	79	0	0
EXTAP	79	24	7
EXTAP	79	48	6
EXTAP	79	72	5
EXTAP	79	96	4
EXTAP	79	120	3
EXTAP	79	144	2
EXTAP	79	168	1
EXTAP	79	192	0
EXTAP	79	216	7
EXTAP	79	240	6
EXTAP	79	264	5
EXTAP	79	288	4
EXTAP	79	312	3
EXTAP	79	336	2
EXTAP	79	360	1
EXTAP	80	0	0
EXTAP	80	24	7
EXTAP	80	48	6
EXTAP	80	72	5
EXTAP	80	96	4
EXTAP	80	120	3
EXTAP	80	144	2
EXTAP	80	168	1
EXTAP	80	192	0
EXTAP	80	216	7
EXTAP	80	240	6
EXTAP	80	264	5
EXTAP	80	288	4
EXTAP	80	312	3
EXTAP	80	336	2
EXTAP	80	360	1
EXTAP	81	0	0
EXTAP	81	24	7
EXTAP	81	48	6
EXTAP	81	72	5
EXTAP	81	96	4
EXTAP	81	120	3
EXTAP	81	144	2
EXTAP	81	168	1
EXTAP	81	192	0
EXTAP	81	216	7
EXTAP	81	240	6
EXTAP	81	264	5
EXTAP	81	288	4
EXTAP	81	312	3
EXTAP	81	336	2
EXTAP	81	360	1
EXTAP	82	0	0
EXTAP	82	24	7
EXTAP	82	48	6
EXTAP	82	72	5
EXTAP	82	96	4
EXTAP	82	120	3
EXTAP	82	144	2
EXTAP	82	168	1
EXSTR	82	192	0
NMSUL	82	192	0	96	480	5
NMSUR	82	192	0	96	480	3
NMHLD	84	192	5	1536
NMTAP	85	192	3
NMTAP	86	0	4
NMTAP	86	192	6
NMTTP	87	0	7	A	0	M1
NMTTP	87	192	0	A	0	M1
NMTTP	88	0	1	A	0	M1
NMHLD	88	192	2	1152
NMTAP	89	192	4
NMTAP	90	0	3
NMTAP	90	192	1
NMTAP	91	0	0
NMTAP	91	192	7
NMTAP	92	0	0
NMTAP	92	0	6
NMHLD	92	192	5	144
NMTAP	92	336	4
NMTAP	93	96	3
NMTAP	93	96	6
NMHLD	93	192	2	144
NMTAP	93	336	3
NMTAP	94	96	1
NMTAP	94	96	4
NMHLD	94	192	6	144
NMTAP	94	336	7
NMTAP	95	96	0
NMTAP	95	96	5
NMHLD	95	192	1	144
NMTAP	95	336	0
NMTAP	96	96	2
NMTAP	96	96	7
NMTAP	96	192	6
NMTAP	96	288	6
NMTAP	97	0	3
NMTAP	97	96	3
NMTAP	97	192	5
NMTAP	97	240	4
NMTAP	97	288	5
NMTAP	97	336	4
NMTAP	98	0	6
NMTAP	98	48	4
NMTAP	98	96	6
NMTAP	98	144	4
NMSTR	98	192	7
NMSCL	98	192	7	96	288	0
NMSUL	98	192	7	96	288	0
BRTAP	100	0	0
BRTAP	100	0	7
NMTAP	100	192	4
NMTAP	100	192	5
NMTAP	100	288	6
NMHLD	100	336	6	144
NMTAP	101	48	7
NMTAP	101	96	7
NMTAP	101	192	2
NMTAP	101	192	3
NMTAP	101	288	1
NMHLD	101	336	1	144
NMTAP	102	48	0
NMTAP	102	96	0
NMTAP	102	192	4
NMTAP	102	192	5
NMTAP	102	288	6
NMHLD	102	336	6	144
NMTAP	103	48	0
NMTAP	103	96	0
NMTAP	103	192	2
NMTAP	103	192	3
NMTAP	103	288	1
NMHLD	103	336	1	144
NMTAP	104	48	7
NMTAP	104	96	7
NMTAP	104	192	4
NMTAP	104	192	6
NMTAP	104	288	6
NMHLD	104	336	6	144
NMTAP	105	48	7
NMTAP	105	96	7
NMTAP	105	192	1
NMTAP	105	192	3
NMTAP	105	288	1
NMHLD	105	336	1	144
NMTAP	106	48	0
NMTAP	106	96	0
NMTAP	106	192	4
NMTAP	106	192	6
NMTAP	106	288	3
NMTAP	106	288	4
NMTAP	107	0	1
NMTAP	107	0	3
NMTAP	107	96	0
NMTAP	107	96	7
NMTAP	107	192	4
NMTAP	107	192	6
NMTAP	107	288	3
NMTAP	107	288	4
BRTAP	108	0	1
BRTAP	108	0	6
NMTAP	108	192	6
NMTAP	108	192	7
NMTAP	108	288	5
NMHLD	108	336	5	144
NMTAP	109	48	4
NMTAP	109	96	4
NMTAP	109	192	0
NMTAP	109	192	1
NMTAP	109	288	2
NMHLD	109	336	2	144
NMTAP	110	48	3
NMTAP	110	96	3
NMTAP	110	192	6
NMTAP	110	192	7
NMTAP	110	288	5
NMHLD	110	336	5	144
NMTAP	111	48	3
NMTAP	111	96	3
NMTAP	111	192	0
NMTAP	111	192	1
NMTAP	111	288	2
NMHLD	111	336	2	144
NMTAP	112	48	4
NMTAP	112	96	4
NMTAP	112	192	5
NMTAP	112	192	7
NMTAP	112	288	5
NMHLD	112	336	5	144
NMTAP	113	48	4
NMTAP	113	96	4
NMTAP	113	192	0
NMTAP	113	192	2
NMTAP	113	288	2
NMHLD	113	336	2	144
NMTAP	114	48	3
NMTAP	114	96	3
NMSTR	114	192	6
NMSXL	114	192	6	96	192	7
NMTAP	114	192	7
CNSI_	115	96	7	0	72	5
CNSCL	115	168	5	0	24	4
NMSTR	115	192	1
NMSXR	115	192	1	96	192	0
CNSI_	116	96	0	0	72	2
CNSCR	116	168	2	0	24	3
NMTAP	116	192	5
NMTAP	116	288	3
NMTAP	116	288	6
NMTAP	117	0	2
NMTAP	117	0	5
NMTAP	117	96	1
NMTAP	117	96	4
NMTAP	117	192	2
NMTAP	117	240	2
NMTAP	117	288	3
NMTAP	117	336	3
NMTAP	118	0	1
NMTAP	118	48	1
NMTAP	118	96	4
NMTAP	118	144	4
NMSTR	118	192	0
NMSI_	118	192	0	96	48	2
NMSTR	118	288	6
NMSI_	118	288	6	96	48	4
NMTAP	119	0	3
NMTAP	119	96	2
NMSTR	119	192	1
NMSI_	119	192	1	96	48	3
NMSTR	119	288	7
NMSI_	119	288	7	96	48	5
NMTAP	120	0	4
NMTAP	120	96	3
NMTAP	120	192	2
NMTAP	120	288	1
NMTAP	120	288	4
NMTAP	121	0	2
NMTAP	121	0	5
NMTAP	121	96	3
NMTAP	121	96	6
NMTAP	121	192	5
NMTAP	121	240	5
NMTAP	121	288	4
NMTAP	121	336	4
NMTAP	122	0	6
NMTAP	122	48	6
NMTAP	122	96	3
NMTAP	122	144	3
NMSTR	122	192	7
NMSI_	122	192	7	96	48	5
NMSTR	122	288	1
NMSI_	122	288	1	96	48	3
NMTAP	123	0	4
NMTAP	123	96	5
NMSTR	123	192	6
NMSI_	123	192	6	96	48	4
NMSTR	123	288	0
NMSI_	123	288	0	96	48	2
NMTAP	124	0	3
NMTAP	124	96	4
NMTAP	124	192	5
NMTAP	124	288	4
NMTAP	124	288	6
NMTAP	125	0	5
NMTAP	125	0	7
NMTAP	125	96	0
NMTAP	125	96	6
NMTAP	125	192	1
NMTAP	125	240	1
NMTAP	125	288	7
NMTAP	125	336	7
NMTAP	126	0	0
NMTAP	126	48	0
NMTAP	126	96	6
NMTAP	126	144	6
NMSTR	126	192	7
NMSI_	126	192	7	96	48	3
NMSTR	126	288	6
NMSI_	126	288	6	96	48	4
NMTAP	127	0	2
NMTAP	127	96	1
NMSTR	127	192	0
NMSI_	127	192	0	96	48	4
NMSTR	127	288	7
NMSI_	127	288	7	96	48	5
NMTAP	128	0	2
NMTAP	128	96	1
NMTAP	128	192	0
NMTAP	128	288	1
NMTAP	128	288	7
NMTAP	129	0	0
NMTAP	129	0	6
NMTAP	129	96	5
NMTAP	129	96	7
NMTAP	129	192	5
NMTAP	129	240	5
NMTAP	129	288	3
NMTAP	129	336	3
NMTAP	130	0	4
NMTAP	130	48	4
NMTAP	130	96	2
NMTAP	130	144	2
NMSTR	130	192	3
NMSV_	130	192	3	96	144	0
NMSV_	130	192	3	96	144	6
CNSI_	131	48	0	0	96	2
CNSI_	131	48	6	0	96	4
CNSI_	131	144	2	0	144	7
CNSI_	131	144	4	0	144	7
BRTAP	132	0	0
BRTAP	132	0	6
NMHLD	132	192	0	144
NMHLD	132	336	2	144
NMHLD	133	96	4	144
NMHLD	133	240	6	144
NMTAP	134	0	0
NMSTR	134	96	0
NMSSL	134	96	0	96	240	4
CNSSL	135	48	4	0	240	0
EXTAP	136	192	0
EXTAP	136	224	1
EXTAP	136	256	2
EXTAP	136	288	3
EXTAP	137	0	7
EXTAP	137	32	6
EXTAP	137	64	5
EXTAP	137	96	4
EXTAP	137	192	0
EXTAP	137	224	1
EXTAP	137	256	2
EXTAP	137	288	3
EXTAP	138	0	7
EXTAP	138	32	6
EXTAP	138	64	5
EXTAP	138	96	4
EXSTR	138	192	2
NMSI_	138	192	2	96	96	0
CNSI_	139	0	0	0	96	4
CNSI_	139	96	4	0	96	7
CNSI_	139	192	7	0	96	3
BRTAP	140	0	0
BRTAP	140	0	7
NMTAP	140	192	6
NMTAP	140	240	6
NMTAP	140	288	5
NMTAP	140	336	5
NMTAP	141	0	4
NMTAP	141	48	4
NMTAP	141	96	3
NMTAP	141	144	3
NMTAP	141	192	2
NMTAP	141	240	2
NMTAP	141	288	1
NMTAP	141	336	1
NMTAP	142	0	0
NMTAP	142	48	0
NMTAP	142	96	0
NMTAP	142	96	1
NMTAP	142	192	1
NMTAP	142	240	1
NMTAP	142	288	2
NMTAP	142	336	2
NMTAP	143	0	3
NMTAP	143	48	3
NMTAP	143	96	4
NMTAP	143	144	4
NMTAP	143	192	5
NMTAP	143	240	5
NMTAP	143	288	6
NMTAP	143	336	6
NMTAP	144	0	7
NMTAP	144	48	7
NMTAP	144	96	6
NMTAP	144	96	7
NMTAP	144	192	0
NMTAP	144	240	0
NMTAP	144	288	1
NMTAP	144	336	1
NMTAP	145	0	2
NMTAP	145	48	2
NMTAP	145	96	3
NMTAP	145	144	3
NMTAP	145	192	4
NMTAP	145	240	4
NMTAP	145	288	5
NMTAP	145	336	5
NMTAP	146	0	6
NMTAP	146	48	6
NMTAP	146	96	7
NMTAP	146	144	7
NMTAP	146	192	1
NMTAP	146	240	1
NMTAP	146	288	3
NMTAP	146	336	3
NMTAP	147	0	4
NMTAP	147	48	4
NMTAP	147	96	6
NMTAP	147	144	6
NMTAP	147	192	1
NMTAP	147	240	1
NMTAP	147	288	3
NMTAP	147	336	3
NMTAP	148	0	4
NMTAP	148	48	4
NMSTR	148	96	6
NMSI_	148	96	6	96	48	2
NMTAP	148	144	6
NMTAP	149	96	2
NMHLD	149	144	2	96
NMTAP	149	240	3
NMHLD	149	288	3	96
NMTAP	150	0	4
NMHLD	150	48	4	96
NMTAP	150	144	5
NMTAP	150	192	5
NMTAP	150	288	4
NMTAP	150	288	6
NMTAP	151	0	5
NMHLD	151	48	5	96
NMTAP	151	144	4
NMHLD	151	192	4	96
NMTAP	151	288	3
NMHLD	151	336	3	96
NMTAP	152	48	2
NMTAP	152	96	2
NMTAP	152	192	1
NMTAP	152	192	3
NMTAP	152	288	1
NMHLD	152	336	1	96
NMTAP	153	48	3
NMHLD	153	96	3	96
NMTAP	153	192	4
NMHLD	153	240	4	96
NMTAP	153	336	6
NMTAP	154	0	6
NMTAP	154	96	4
NMTAP	154	96	7
NMTAP	154	192	6
NMHLD	154	240	6	96
NMTAP	154	336	4
NMHLD	155	0	4	96
NMTAP	155	96	2
NMHLD	155	144	2	96
NMTAP	155	240	0
NMTAP	155	288	0
BRTAP	156	0	0
BRTAP	156	0	6
NMTAP	156	96	5
NMTAP	156	144	4
NMTAP	156	192	5
NMTAP	156	240	4
NMTAP	156	288	6
NMTAP	156	336	7
NMTAP	157	0	5
NMTAP	157	48	0
NMTAP	157	96	4
NMTAP	157	144	1
NMTAP	157	192	3
NMTAP	157	240	2
BRTAP	157	288	4
NMTAP	158	0	2
NMTAP	158	48	3
NMTAP	158	96	2
NMTAP	158	144	3
NMTAP	158	192	1
NMTAP	158	240	0
NMTAP	158	288	2
NMTAP	158	336	7
NMTAP	159	0	3
NMTAP	159	48	6
NMTAP	159	96	4
NMTAP	159	144	5
BRTAP	159	192	3
NMTAP	159	288	1
NMTAP	159	336	0
NMTAP	160	0	1
NMTAP	160	48	0
NMTAP	160	96	2
NMTAP	160	144	3
NMTAP	160	192	1
NMTAP	160	240	4
NMTAP	160	288	0
NMTAP	160	336	5
NMTAP	161	0	7
NMTAP	161	48	6
BRTAP	161	96	0
NMTAP	161	192	6
NMTAP	161	240	7
NMTAP	161	288	6
NMTAP	161	336	7
NMTAP	162	0	5
NMTAP	162	48	4
NMTAP	162	96	6
NMTAP	162	144	3
NMTAP	162	192	7
NMTAP	162	240	2
NMTAP	162	288	0
NMTAP	162	336	1
BRTAP	163	0	7
BRHLD	163	96	2	3360
BRSTR	163	96	6
BRSCL	163	96	6	96	3264	6

T_REC_TAP	607
T_REC_BRK	16
T_REC_XTP	72
T_REC_BXX	0
T_REC_HLD	64
T_REC_XHO	0
T_REC_BHO	1
T_REC_BXH	0
T_REC_STR	37
T_REC_BST	1
T_REC_XST	2
T_REC_XBS	0
T_REC_TTP	17
T_REC_THO	0
T_REC_SLD	42
T_REC_BSL	1
T_REC_ALL	860
T_NUM_TAP	735
T_NUM_BRK	19
T_NUM_HLD	64
T_NUM_SLD	42
T_NUM_ALL	860
T_JUDGE_TAP	752
T_JUDGE_HLD	194
T_JUDGE_SLD	43
T_JUDGE_ALL	989
TTM_EACHPAIRS	105
TTM_SCR_TAP	367500
TTM_SCR_BRK	49400
TTM_SCR_HLD	64000
TTM_SCR_SLD	63000
TTM_SCR_ALL	543900
TTM_SCR_S	525750
TTM_SCR_SS	542000
TTM_RAT_ACV	10035

