VERSION	0.00.00	1.04.00
FES_MODE	0
BPM_DEF	274.000	274.000	339.000	200.000
MET_DEF	4	4
RESOLUTION	384
CLK_DEF	384
COMPATIBLE_CODE	MA2

BPM	0	0	274.000
BPM	58	0	210.000
BPM	72	0	220.000
BPM	75	192	230.000
BPM	77	96	240.000
BPM	79	0	250.000
BPM	82	192	260.000
BPM	84	192	274.000
BPM	148	192	200.000
BPM	149	96	240.000
BPM	152	288	250.000
BPM	156	96	270.000
BPM	158	0	285.000
BPM	159	288	300.000
BPM	161	192	315.000
BPM	163	96	339.000
BPM	172	0	339.000
MET	0	0	4	4
MET	58	0	4	7
MET	82	192	4	4
MET	148	192	4	3
MET	149	96	4	7

NMHLD	2	0	2	384
NMHLD	3	0	3	384
NMHLD	4	0	4	384
NMTAP	5	0	5
NMHLD	6	0	5	384
NMHLD	7	0	4	384
NMHLD	8	0	3	384
NMTAP	9	0	2
NMTAP	10	0	1
NMTAP	10	192	1
NMTAP	11	0	1
NMTAP	12	0	2
NMTAP	12	192	2
NMTAP	13	0	2
NMTAP	14	0	3
NMTAP	14	192	3
NMTAP	15	0	3
NMTAP	16	0	4
NMTAP	16	0	5
NMTAP	16	192	4
NMTAP	16	192	5
NMTAP	17	0	4
NMTAP	17	0	5
NMTAP	18	0	6
NMTAP	18	192	6
NMTAP	19	0	6
NMTAP	20	0	5
NMTAP	20	192	5
NMTAP	21	0	5
NMTAP	22	0	4
NMTAP	22	192	4
NMTAP	23	0	4
NMTAP	24	0	2
NMTAP	24	0	3
NMTAP	24	192	2
NMTAP	24	192	3
NMTAP	25	0	2
NMTAP	25	0	3
NMSTR	26	0	1
NMSI_	26	0	1	96	480	4
NMSTR	28	0	5
NMSI_	28	0	5	96	480	2
NMSTR	30	0	1
NMSI_	30	0	1	96	480	5
NMTAP	32	0	6
NMTAP	32	192	6
NMTAP	33	0	6
NMTAP	33	0	7
NMSTR	34	0	6
NMSI_	34	0	6	96	480	3
NMSTR	36	0	2
NMSI_	36	0	2	96	480	5
NMSTR	38	0	6
NMSI_	38	0	6	96	480	2
NMTAP	40	0	1
NMTAP	40	192	1
NMTAP	41	0	0
NMTAP	41	0	7
NMTTP	42	0	1	B	0	L1
NMTTP	42	192	2	B	0	L1
NMTTP	43	0	3	B	0	L1
NMTTP	44	0	6	B	0	L1
NMTTP	44	192	5	B	0	L1
NMTTP	45	0	4	B	0	L1
NMTTP	46	0	1	B	0	L1
NMTTP	46	192	2	B	0	L1
NMTTP	47	0	3	B	0	L1
NMTTP	47	192	4	B	0	L1
NMTTP	48	0	5	B	0	L1
NMTTP	48	192	6	B	0	L1
NMTTP	49	0	0	B	0	L1
NMTTP	49	0	7	B	0	L1
NMTTP	50	0	3	B	0	L1
NMTTP	50	192	2	B	0	L1
NMTTP	51	0	0	B	0	L1
NMTTP	51	0	1	B	0	L1
NMTTP	52	0	4	B	0	L1
NMTTP	52	192	5	B	0	L1
NMTTP	53	0	6	B	0	L1
NMTTP	53	0	7	B	0	L1
NMTTP	54	0	2	B	0	L1
NMTTP	54	192	1	B	0	L1
NMTTP	55	0	0	B	0	L1
NMTTP	55	192	7	B	0	L1
NMTTP	56	0	6	B	0	L1
NMTTP	56	192	5	B	0	L1
NMTTP	57	0	0	C	0	L1
EXTAP	58	0	0
NMTAP	58	96	0
NMTAP	58	192	0
NMTAP	58	288	0
NMTAP	59	0	0
NMTAP	59	96	0
NMTAP	59	288	1
NMTAP	60	0	1
NMTAP	60	96	1
NMTAP	60	192	1
NMTAP	60	288	1
NMTAP	61	0	1
NMTAP	61	192	2
NMTAP	61	288	2
NMTAP	62	0	2
NMTAP	62	96	2
NMTAP	62	192	2
NMTAP	62	288	2
NMTAP	63	96	3
NMTAP	63	192	3
NMTAP	63	288	3
NMTAP	64	0	3
NMTAP	64	96	3
NMTAP	64	192	3
NMTAP	65	0	4
NMTAP	65	96	4
NMTAP	65	192	4
NMTAP	65	288	4
NMTAP	66	0	4
NMTAP	66	96	4
NMTAP	66	288	5
NMTAP	67	0	5
NMTAP	67	96	5
NMTAP	67	192	5
NMTAP	67	288	5
NMTAP	68	0	5
NMTAP	68	192	6
NMTAP	68	288	6
NMTAP	69	0	6
NMTAP	69	96	6
NMTAP	69	192	6
NMTAP	69	288	6
NMTAP	70	96	7
NMTAP	70	192	7
NMTAP	70	288	7
NMTAP	71	0	7
NMTAP	71	96	7
NMTAP	71	192	7
EXTAP	72	0	6
NMTAP	72	96	6
NMTAP	72	192	6
NMTAP	72	288	6
NMTAP	72	288	7
NMTAP	73	0	6
NMTAP	73	0	7
NMTAP	73	96	6
NMTAP	73	96	7
NMTAP	73	288	5
NMTAP	74	0	5
NMTAP	74	96	5
NMTAP	74	192	4
NMTAP	74	192	5
NMTAP	74	288	4
NMTAP	74	288	5
NMTAP	75	0	4
NMTAP	75	0	5
NMTAP	75	192	2
NMTAP	75	288	2
NMTAP	76	0	2
NMTAP	76	96	2
NMTAP	76	96	3
NMTAP	76	192	2
NMTAP	76	192	3
NMTAP	76	288	2
NMTAP	76	288	3
NMTAP	77	96	1
NMTAP	77	192	1
NMTAP	77	288	1
NMTAP	78	0	0
NMTAP	78	0	1
NMTAP	78	96	0
NMTAP	78	96	1
NMTAP	78	192	0
NMTAP	78	192	1
EXHLD	79	0	0	1344
EXHLD	79	0	7	1344
NMTAP	84	192	1
NMTAP	85	0	1
NMTAP	85	192	2
NMTAP	86	0	2
NMTAP	86	192	3
NMTAP	87	0	3
NMTAP	87	192	4
NMTAP	87	192	5
NMTAP	88	192	6
NMTAP	89	0	6
NMTAP	89	192	5
NMTAP	90	0	5
NMTAP	90	192	4
NMTAP	91	0	4
NMTAP	91	192	2
NMTAP	91	192	3
NMTAP	92	192	3
NMTAP	93	0	2
NMTAP	93	192	1
NMTAP	94	0	0
NMTAP	94	192	7
NMTAP	95	0	6
NMTAP	95	192	4
NMTAP	95	192	5
NMTAP	96	192	4
NMTAP	97	0	5
NMTAP	97	192	6
NMTAP	98	0	7
NMTAP	98	192	0
NMTAP	99	0	1
NMTAP	99	192	2
NMTAP	99	192	3
NMTAP	100	192	2
NMTAP	100	288	2
NMTAP	101	0	2
NMTAP	101	192	1
NMTAP	101	288	1
NMTAP	102	0	1
NMTAP	102	192	0
NMTAP	102	288	0
NMTAP	103	0	0
NMTAP	103	192	6
NMTAP	103	192	7
NMTAP	104	192	5
NMTAP	104	288	5
NMTAP	105	0	5
NMTAP	105	192	6
NMTAP	105	288	6
NMTAP	106	0	6
NMTAP	106	192	7
NMTAP	106	288	7
NMTAP	107	0	7
NMTAP	107	192	0
NMTAP	107	192	1
NMTAP	108	192	1
NMTAP	108	288	1
NMTAP	109	0	1
NMTAP	109	192	2
NMTAP	109	288	2
NMTAP	110	0	2
NMTAP	110	192	3
NMTAP	110	288	3
NMTAP	111	0	3
NMTAP	111	192	4
NMTAP	111	192	5
NMTAP	112	192	6
NMTAP	112	288	6
NMTAP	113	0	6
NMTAP	113	192	5
NMTAP	113	288	5
NMTAP	114	0	5
NMTAP	114	192	4
NMTAP	114	288	4
NMTAP	115	0	4
BRTAP	115	192	3
BRTAP	115	192	4
NMHLD	116	192	2	192
NMHLD	117	0	3	192
NMHLD	117	192	4	192
NMTAP	118	0	5
NMHLD	118	192	5	192
NMHLD	119	0	4	192
NMHLD	119	192	3	192
NMTAP	120	0	2
NMHLD	120	192	1	192
NMHLD	121	0	2	192
NMHLD	121	192	3	192
NMTAP	122	0	4
NMHLD	122	192	6	192
NMHLD	123	0	5	192
NMHLD	123	192	4	192
NMTAP	124	0	3
NMHLD	124	192	2	192
NMTAP	125	0	3
NMHLD	125	192	5	192
NMTAP	126	0	4
NMHLD	126	192	2	192
NMTAP	127	0	3
NMHLD	127	192	5	192
NMTAP	128	0	4
NMHLD	128	192	6	192
NMTAP	129	0	7
NMHLD	129	192	1	192
NMTAP	130	0	0
NMHLD	130	192	7	192
NMTAP	131	0	0
BXTAP	131	192	1
BXTAP	131	192	6
NMTAP	132	192	0
NMTAP	132	288	0
NMTAP	133	0	0
NMTAP	133	96	0
NMTAP	133	96	1
NMTAP	133	192	2
NMTAP	133	288	2
NMTAP	134	0	2
NMTAP	134	96	2
NMTAP	134	96	3
NMTAP	134	192	4
NMTAP	134	288	4
NMTAP	135	0	4
NMTAP	135	96	4
NMTAP	135	96	5
NMTAP	135	192	3
NMTAP	135	192	6
NMTAP	136	192	7
NMTAP	136	288	7
NMTAP	137	0	7
NMTAP	137	96	6
NMTAP	137	96	7
NMTAP	137	192	5
NMTAP	137	288	5
NMTAP	138	0	5
NMTAP	138	96	4
NMTAP	138	96	5
NMTAP	138	192	3
NMTAP	138	288	3
NMTAP	139	0	3
NMTAP	139	96	2
NMTAP	139	96	3
NMTAP	139	192	1
NMTAP	139	192	4
NMTAP	140	192	0
NMTAP	140	288	1
NMTAP	141	0	2
NMTAP	141	96	3
NMTAP	141	192	4
NMTAP	141	288	5
NMTAP	142	0	6
NMTAP	142	0	7
NMTAP	142	192	7
NMTAP	142	288	6
NMTAP	143	0	5
NMTAP	143	96	4
NMTAP	143	192	3
NMTAP	143	288	2
NMTAP	144	0	0
NMTAP	144	0	1
NMTAP	144	192	0
NMTAP	144	288	1
NMTAP	145	0	2
NMTAP	145	96	3
NMTAP	145	192	4
NMTAP	145	288	5
NMTAP	146	0	6
NMTAP	146	96	7
NMTAP	146	192	0
NMTAP	146	288	1
NMTAP	147	0	2
NMTAP	147	96	3
NMTAP	147	192	4
NMTAP	147	288	5
NMTAP	148	0	6
NMTAP	148	96	0
NMTAP	148	96	7
BRTAP	148	192	0
BRTAP	148	192	7
EXTAP	149	96	7
NMTAP	149	192	7
NMTAP	149	288	7
NMTAP	150	0	7
NMTAP	150	96	7
NMTAP	150	192	7
NMTAP	151	0	6
NMTAP	151	96	6
NMTAP	151	192	6
NMTAP	151	288	6
NMTAP	152	0	6
NMTAP	152	96	6
EXTAP	152	288	5
NMTAP	153	0	5
NMTAP	153	96	5
NMTAP	153	192	5
NMTAP	153	288	5
NMTAP	154	0	5
NMTAP	154	192	4
NMTAP	154	288	4
NMTAP	155	0	4
NMTAP	155	96	4
NMTAP	155	192	4
NMTAP	155	288	4
EXTAP	156	96	3
NMTAP	156	192	3
NMTAP	156	288	3
NMTAP	157	0	3
NMTAP	157	96	3
NMTAP	157	192	3
EXTAP	158	0	2
NMTAP	158	96	2
NMTAP	158	192	2
NMTAP	158	288	2
NMTAP	159	0	2
NMTAP	159	96	2
EXTAP	159	288	1
NMTAP	160	0	1
NMTAP	160	96	1
NMTAP	160	192	1
NMTAP	160	288	1
NMTAP	161	0	1
EXTAP	161	192	0
NMTAP	161	288	0
NMTAP	162	0	0
NMTAP	162	96	0
NMTAP	162	192	0
NMTAP	162	288	0
EXHLD	163	96	0	3360
EXHLD	163	96	7	3360

T_REC_TAP	316
T_REC_BRK	4
T_REC_XTP	8
T_REC_BXX	2
T_REC_HLD	25
T_REC_XHO	4
T_REC_BHO	0
T_REC_BXH	0
T_REC_STR	6
T_REC_BST	0
T_REC_XST	0
T_REC_XBS	0
T_REC_TTP	29
T_REC_THO	0
T_REC_SLD	6
T_REC_BSL	0
T_REC_ALL	400
T_NUM_TAP	359
T_NUM_BRK	6
T_NUM_HLD	29
T_NUM_SLD	6
T_NUM_ALL	400
T_JUDGE_TAP	365
T_JUDGE_HLD	160
T_JUDGE_SLD	6
T_JUDGE_ALL	531
TTM_EACHPAIRS	43
TTM_SCR_TAP	179500
TTM_SCR_BRK	15600
TTM_SCR_HLD	29000
TTM_SCR_SLD	9000
TTM_SCR_ALL	233100
TTM_SCR_S	225550
TTM_SCR_SS	232500
TTM_RAT_ACV	10025

