VERSION	0.00.00	1.04.00
FES_MODE	0
BPM_DEF	274.000	274.000	339.000	200.000
MET_DEF	4	4
RESOLUTION	384
CLK_DEF	384
COMPATIBLE_CODE	MA2

BPM	0	0	274.000
BPM	58	0	210.000
BPM	72	0	220.000
BPM	75	192	230.000
BPM	77	96	240.000
BPM	79	0	250.000
BPM	82	192	260.000
BPM	84	192	274.000
BPM	148	192	200.000
BPM	149	96	240.000
BPM	152	288	250.000
BPM	156	96	270.000
BPM	158	0	285.000
BPM	159	288	300.000
BPM	161	192	315.000
BPM	163	96	339.000
BPM	172	0	339.000
MET	0	0	4	4
MET	58	0	4	7
MET	82	192	4	4
MET	148	192	4	3
MET	149	96	4	7

NMTAP	10	0	0
NMTAP	10	192	0
NMTAP	11	0	0
NMTAP	11	192	0
NMTAP	12	0	1
NMTAP	12	192	1
NMTAP	13	0	0
NMTAP	13	0	1
NMTAP	14	0	2
NMTAP	14	192	2
NMTAP	15	0	2
NMTAP	15	192	2
EXTAP	16	0	3
NMTAP	16	192	3
NMTAP	17	0	3
NMTAP	17	0	4
NMTAP	18	0	4
NMTAP	18	192	4
NMTAP	19	0	4
NMTAP	19	192	4
NMTAP	20	0	5
NMTAP	20	192	5
NMTAP	21	0	4
NMTAP	21	0	5
NMTAP	22	0	6
NMTAP	22	192	6
NMTAP	23	0	6
NMTAP	23	192	6
NMTAP	24	0	7
NMTAP	24	192	7
BRTAP	25	0	0
BRTAP	25	0	7
NMHLD	26	0	6	384
NMHLD	26	0	7	384
NMTAP	28	0	6
NMTAP	28	0	7
NMTAP	28	192	6
NMTAP	28	192	7
NMTAP	29	0	6
NMTAP	29	0	7
NMHLD	30	0	4	384
NMHLD	30	0	5	384
NMTAP	32	0	4
NMTAP	32	0	5
NMTAP	32	192	4
NMTAP	32	192	5
NMTAP	33	0	4
NMTAP	33	0	5
NMHLD	34	0	2	384
NMHLD	34	0	3	384
NMTAP	36	0	2
NMTAP	36	0	3
NMTAP	36	192	2
NMTAP	36	192	3
NMTAP	37	0	2
NMTAP	37	0	3
NMHLD	38	0	0	384
NMHLD	38	0	1	384
NMTAP	40	0	0
NMTAP	40	0	1
NMTAP	40	192	0
NMTAP	40	192	1
NMTAP	41	0	0
NMTAP	41	0	1
NMTAP	42	0	0
NMTAP	42	192	0
NMTAP	43	0	1
NMTAP	43	96	1
NMTAP	43	192	1
NMTAP	44	0	2
NMTAP	44	192	2
NMTAP	45	0	3
NMTAP	45	0	4
NMTAP	46	0	4
NMTAP	46	192	4
NMTAP	47	0	5
NMTAP	47	96	5
NMTAP	47	192	5
NMTAP	48	0	6
NMTAP	48	192	6
NMTAP	49	0	0
NMTAP	49	0	7
NMTAP	50	0	7
NMTAP	50	192	7
NMTAP	51	0	6
NMTAP	51	96	6
NMTAP	51	192	6
NMTAP	52	0	5
NMTAP	52	192	5
NMTAP	53	0	4
NMTAP	53	96	4
NMTAP	53	192	4
NMTAP	54	0	3
NMTAP	54	192	3
NMTAP	55	0	2
NMTAP	55	96	2
NMTAP	55	192	2
NMTAP	56	0	1
NMTAP	56	192	1
NMTAP	57	0	0
NMTAP	57	96	0
NMTAP	57	192	0
BRTAP	58	0	0
BRTAP	58	0	7
NMTHO	61	192	0	672	C	0	L1
NMSTR	65	0	0
NMSI_	65	0	0	96	576	4
NMSTR	68	192	5
NMSI_	68	192	5	96	576	1
NMSTR	72	0	0
NMSI_	72	0	0	96	576	5
NMSTR	75	192	6
NMSI_	75	192	6	96	576	2
NMSTR	79	0	1
NMSI_	79	0	1	96	576	5
BRTAP	82	192	7
NMTTP	84	192	7	B	0	L1
NMTTP	85	192	6	B	0	L1
NMTTP	86	192	5	B	0	L1
NMTTP	87	192	4	B	0	L1
NMTTP	88	192	3	B	0	L1
NMTTP	89	192	2	B	0	L1
NMTTP	90	192	1	B	0	L1
NMTTP	91	192	0	B	0	L1
NMTTP	92	192	0	E	0	L1
NMTTP	93	192	0	B	0	L1
NMTTP	93	192	7	B	0	L1
NMTTP	94	192	1	B	0	L1
NMTTP	94	192	6	B	0	L1
NMTTP	95	192	2	B	0	L1
NMTTP	95	192	5	B	0	L1
NMTTP	96	192	3	B	0	L1
NMTTP	96	192	4	B	0	L1
NMTHO	97	192	0	384	C	0	L1
BRTAP	100	192	0
NMTAP	100	288	0
NMTAP	101	0	0
NMTAP	101	192	1
NMTAP	101	288	1
NMTAP	102	0	1
NMTAP	102	192	2
NMTAP	102	288	2
NMTAP	103	0	2
NMTAP	103	192	3
NMTAP	103	192	4
NMTAP	104	192	4
NMTAP	104	288	4
NMTAP	105	0	4
NMTAP	105	192	5
NMTAP	105	288	5
NMTAP	106	0	5
NMTAP	106	192	6
NMTAP	106	288	6
NMTAP	107	0	6
NMTAP	107	192	0
NMTAP	107	192	7
NMTAP	108	192	7
NMTAP	108	288	7
NMTAP	109	0	7
NMTAP	109	192	6
NMTAP	109	288	6
NMTAP	110	0	6
NMTAP	110	192	5
NMTAP	110	288	5
NMTAP	111	0	5
NMTAP	111	192	3
NMTAP	111	192	4
NMTAP	112	0	3
NMTAP	112	0	4
NMTAP	112	192	3
NMTAP	112	288	3
NMTAP	113	0	3
NMTAP	113	192	2
NMTAP	113	288	2
NMTAP	114	0	2
NMTAP	114	192	1
NMTAP	114	288	1
NMTAP	115	0	1
BRTAP	115	192	0
BRTAP	115	192	7
NMTAP	116	192	0
NMTAP	116	288	0
NMTAP	117	0	0
NMTAP	117	96	0
NMTAP	117	192	1
NMTAP	117	288	1
NMTAP	118	0	0
NMTAP	118	0	1
NMTAP	118	192	2
NMTAP	118	288	2
NMTAP	119	0	2
NMTAP	119	96	2
NMTAP	119	192	3
NMTAP	119	288	3
NMTAP	120	0	3
NMTAP	120	0	4
NMTAP	120	192	4
NMTAP	120	288	4
NMTAP	121	0	4
NMTAP	121	96	4
NMTAP	121	192	5
NMTAP	121	288	5
NMTAP	122	0	4
NMTAP	122	0	5
NMTAP	122	192	6
NMTAP	122	288	6
NMTAP	123	0	6
NMTAP	123	96	6
NMTAP	123	192	7
NMTAP	123	288	7
NMTAP	124	0	0
NMTAP	124	0	7
NMTAP	124	192	7
NMTAP	124	288	7
NMTAP	125	0	6
NMTAP	125	96	6
NMTAP	125	192	5
NMTAP	125	288	5
NMTAP	126	0	4
NMTAP	126	0	5
NMTAP	126	192	3
NMTAP	126	288	3
NMTAP	127	0	2
NMTAP	127	96	2
NMTAP	127	192	1
NMTAP	127	288	1
NMTAP	128	0	0
NMTAP	128	0	1
NMTAP	128	192	0
NMTAP	128	288	0
NMTAP	129	0	1
NMTAP	129	96	1
NMTAP	129	192	2
NMTAP	129	288	2
NMTAP	130	0	3
NMTAP	130	0	4
NMTAP	130	96	3
NMTAP	130	96	4
NMTAP	130	192	5
NMTAP	130	288	5
NMTAP	131	0	6
NMTAP	131	96	6
BRTAP	131	192	0
BRTAP	131	192	7
NMTAP	132	192	7
NMTAP	133	0	7
NMTAP	133	192	6
NMTAP	133	288	6
NMTAP	134	0	6
NMTAP	134	0	7
NMTAP	134	192	5
NMTAP	135	0	5
NMTAP	135	192	4
NMTAP	135	288	4
NMTAP	136	0	3
NMTAP	136	0	4
NMTAP	136	192	3
NMTAP	137	0	3
NMTAP	137	192	2
NMTAP	137	288	2
NMTAP	138	0	2
NMTAP	138	0	3
NMTAP	138	192	1
NMTAP	139	0	1
NMTAP	139	192	0
NMTAP	139	288	0
NMTAP	140	0	0
NMTAP	140	0	7
NMTAP	140	192	1
NMTAP	140	288	1
NMTAP	141	0	1
NMTAP	141	192	0
NMTAP	141	192	1
NMTAP	141	288	0
NMTAP	141	288	1
NMTAP	142	0	0
NMTAP	142	0	1
NMTAP	142	192	2
NMTAP	142	288	2
NMTAP	143	0	2
NMTAP	143	192	2
NMTAP	143	192	3
NMTAP	143	288	2
NMTAP	143	288	3
NMTAP	144	0	2
NMTAP	144	0	3
NMTAP	144	192	4
NMTAP	144	288	4
NMTAP	145	0	4
NMTAP	145	192	4
NMTAP	145	192	5
NMTAP	145	288	4
NMTAP	145	288	5
NMTAP	146	0	4
NMTAP	146	0	5
NMTAP	146	192	6
NMTAP	146	288	6
NMTAP	147	0	6
NMTAP	147	192	0
NMTAP	147	192	7
NMTAP	147	288	0
NMTAP	147	288	7
EXTAP	148	0	0
EXTAP	148	0	7
EXTAP	148	192	1
EXTAP	148	192	6
EXSTR	149	96	0
NMSI_	149	96	0	96	576	5
NMSTR	152	288	7
NMSI_	152	288	7	96	576	2
NMSTR	156	96	1
NMSI_	156	96	1	96	576	4
NMSTR	159	288	5
NMSI_	159	288	5	96	576	2
NMTHO	163	96	0	3360	C	0	L1
NMTTP	163	96	1	B	0	L1
NMTTP	163	96	6	B	0	L1

T_REC_TAP	254
T_REC_BRK	10
T_REC_XTP	5
T_REC_BXX	0
T_REC_HLD	8
T_REC_XHO	0
T_REC_BHO	0
T_REC_BXH	0
T_REC_STR	8
T_REC_BST	0
T_REC_XST	1
T_REC_XBS	0
T_REC_TTP	19
T_REC_THO	3
T_REC_SLD	9
T_REC_BSL	0
T_REC_ALL	317
T_NUM_TAP	287
T_NUM_BRK	10
T_NUM_HLD	11
T_NUM_SLD	9
T_NUM_ALL	317
T_JUDGE_TAP	297
T_JUDGE_HLD	85
T_JUDGE_SLD	9
T_JUDGE_ALL	391
TTM_EACHPAIRS	54
TTM_SCR_TAP	143500
TTM_SCR_BRK	26000
TTM_SCR_HLD	11000
TTM_SCR_SLD	13500
TTM_SCR_ALL	194000
TTM_SCR_S	187250
TTM_SCR_SS	193000
TTM_RAT_ACV	10051

