VERSION	0.00.00	1.04.00
FES_MODE	0
BPM_DEF	195.000	195.000	195.000	195.000
MET_DEF	4	4
RESOLUTION	384
CLK_DEF	384
COMPATIBLE_CODE	MA2

BPM	0	0	195.000
MET	0	0	4	4

NMTAP	2	0	3
NMTAP	2	96	2
NMTAP	2	96	4
NMHLD	2	144	2	144
NMTAP	2	144	4
NMTAP	2	288	3
NMTAP	3	0	4
NMTAP	3	96	3
NMTAP	3	96	5
NMTAP	3	144	3
NMHLD	3	144	5	144
NMTAP	3	288	4
NMTAP	4	0	3
NMTAP	4	96	2
NMTAP	4	96	4
NMHLD	4	144	2	144
NMTAP	4	144	4
NMTAP	4	288	3
NMHLD	5	0	3	96
NMHLD	5	0	4	96
NMTAP	5	192	5
NMTAP	5	240	4
NMTAP	5	288	3
NMTAP	5	288	6
EXTAP	6	0	0
NMTAP	6	96	2
NMHLD	6	144	2	96
NMTAP	6	240	4
NMTAP	6	288	3
NMTAP	6	288	5
NMTAP	7	0	2
NMTAP	7	0	6
NMTAP	7	96	5
NMHLD	7	144	5	96
NMTAP	7	240	3
NMHLD	7	288	2	336
NMTAP	7	288	4
NMHLD	8	0	3	144
NMTAP	8	336	2
NMTAP	8	336	3
NMTAP	9	48	3
NMTAP	9	48	4
EXTAP	9	96	5
EXTAP	9	120	4
EXTAP	9	144	5
NMTAP	9	192	3
NMTAP	9	192	6
EXTAP	9	240	7
BXTAP	9	288	7
NMSTR	10	0	1
NMSI_	10	0	1	96	48	4
NMTAP	10	96	5
NMTAP	10	144	6
NMSTR	10	192	7
NMSI_	10	192	7	96	48	3
NMTAP	10	288	2
NMHLD	10	336	2	96
NMTAP	11	48	4
NMHLD	11	144	6	96
NMTAP	11	240	4
NMTAP	11	288	4
NMSTR	11	336	5
NMSI_	11	336	5	96	48	2
NMTAP	12	48	2
NMTAP	12	96	1
NMSTR	12	144	0
NMSI_	12	144	0	96	48	4
NMTAP	12	240	5
NMTAP	12	288	5
NMHLD	13	0	4	48
NMHLD	13	0	6	48
NMHLD	13	96	3	48
NMHLD	13	96	5	48
NMTAP	13	192	2
NMTAP	13	240	3
NMTAP	13	288	4
NMSTR	14	0	1
NMSI_	14	0	1	96	48	4
NMTAP	14	0	5
NMTAP	14	96	7
NMTAP	14	144	6
NMSTR	14	192	5
NMSI_	14	192	5	96	48	2
NMTAP	14	288	0
NMSTR	14	336	0
NMSI_	14	336	0	96	48	3
NMSTR	15	48	4
NMSI_	15	48	4	96	48	7
NMHLD	15	144	2	96
NMTAP	15	240	0
NMTAP	15	288	7
NMHLD	15	336	6	96
NMTAP	16	48	7
NMTAP	16	96	0
NMHLD	16	144	1	96
NMTAP	16	240	3
NMTAP	16	288	3
NMTAP	16	336	2
NMTAP	17	0	4
NMTAP	17	48	5
NMTAP	17	96	3
NMTAP	17	144	2
NMTAP	17	192	7
NMTAP	17	240	7
NMSTR	17	288	0
NMSCR	17	288	0	96	192	4
EXTAP	18	0	6
NMTAP	18	96	6
NMTAP	18	192	6
NMTAP	18	288	6
NMTAP	18	336	4
NMTAP	19	0	5
NMTAP	19	96	5
NMTAP	19	144	3
NMTAP	19	192	4
NMTAP	19	288	3
NMSTR	19	288	4
NMSCR	19	288	4	96	192	0
NMTAP	20	0	3
NMTAP	20	96	3
NMTAP	20	192	2
NMTAP	20	288	1
NMTAP	20	336	1
NMHLD	21	0	1	96
NMHLD	21	0	3	96
NMHLD	21	192	2	96
NMHLD	21	192	3	96
NMTAP	22	0	4
NMHLD	22	0	5	96
NMTAP	22	96	4
NMTAP	22	192	3
NMHLD	22	192	6	96
NMTAP	22	288	3
NMHLD	23	0	2	96
NMHLD	23	0	7	96
NMHLD	23	192	1	96
NMHLD	23	192	6	96
NMHLD	24	0	0	96
NMHLD	24	0	5	96
NMTAP	24	192	1
NMTAP	24	288	2
NMTAP	24	288	4
NMTAP	24	336	2
NMTAP	24	336	4
NMSTR	25	0	2
NMSI_	25	0	2	96	48	4
NMTAP	25	0	4
NMTAP	25	96	5
NMTAP	25	192	6
NMTAP	25	192	7
NMTAP	25	288	0
NMTAP	25	288	1
NMHLD	26	0	2	96
NMTAP	26	96	4
NMTAP	26	144	3
NMTAP	26	192	2
NMSTR	26	192	5
NMSI_	26	192	5	96	48	3
NMTAP	26	288	0
NMHLD	27	0	1	96
NMTAP	27	96	3
NMTAP	27	144	4
NMSTR	27	192	2
NMSI_	27	192	2	96	48	4
NMTAP	27	192	5
NMTAP	27	288	7
NMHLD	28	0	6	96
NMTAP	28	96	4
NMTAP	28	144	3
NMTAP	28	192	2
NMTAP	28	192	4
NMTAP	28	240	2
NMTAP	28	240	4
NMTAP	28	336	1
NMTAP	29	48	7
NMSTR	29	96	7
NMSCL	29	96	7	96	96	4
NMSCR	29	96	7	96	96	2
EXTAP	30	0	2
EXTAP	30	0	4
NMTAP	30	96	6
NMTAP	30	144	4
NMSTR	30	192	5
NMSI_	30	192	5	96	48	3
NMSTR	30	288	1
NMSI_	30	288	1	96	48	7
EXTAP	31	0	6
NMTAP	31	96	6
NMTAP	31	144	4
NMSTR	31	192	5
NMSI_	31	192	5	96	48	3
NMSTR	31	288	1
NMSI_	31	288	1	96	48	7
EXTAP	32	0	5
NMTAP	32	96	0
NMTAP	32	96	5
NMHLD	32	192	6	96
NMTAP	32	288	4
BXTAP	32	336	4
NMTAP	33	48	3
NMTAP	33	48	5
NMTAP	33	96	3
NMTAP	33	96	5
EXTAP	33	192	0
EXTAP	33	192	7
EXTAP	33	240	1
EXTAP	33	240	6
BXSTR	34	0	1
NMSCR	34	0	1	96	144	5
NMTAP	34	144	7
NMTAP	34	192	7
NMTAP	34	288	6
NMHLD	35	0	5	144
NMTAP	35	144	4
NMTAP	35	192	4
NMTAP	35	288	3
NMTAP	35	288	5
NMSTR	36	0	6
NMSCL	36	0	6	96	144	2
NMTAP	36	144	0
NMTAP	36	192	0
NMTAP	36	288	1
NMHLD	37	0	2	144
NMTAP	37	144	3
NMTAP	37	192	3
NMTAP	37	288	2
NMTAP	37	336	3
NMHLD	38	0	1	96
NMTAP	38	96	0
NMTAP	38	144	2
NMSTR	38	144	7
NMSCL	38	144	7	96	96	4
NMSTR	38	240	4
NMSCL	38	240	4	96	96	1
NMSTR	38	336	1
NMSCL	38	336	1	96	96	6
NMSTR	39	48	6
NMSCL	39	48	6	96	96	3
NMTAP	39	144	3
NMHLD	39	240	1	96
NMHLD	39	336	3	96
NMTAP	40	48	2
NMTAP	40	96	2
NMTAP	40	192	3
NMTAP	40	192	5
NMTAP	40	288	2
NMTAP	40	288	6
NMHLD	40	336	2	96
NMHLD	40	336	6	96
NMTAP	41	144	0
NMTAP	41	144	6
NMTAP	41	192	0
NMTAP	41	192	6
NMSTR	41	288	1
NMSI_	41	288	1	96	48	4
NMSTR	41	288	5
NMSI_	41	288	5	96	48	0
BRTAP	42	0	1
BRTAP	42	0	5
NMTAP	42	96	3
NMTAP	42	96	7
NMTAP	42	192	0
NMTAP	42	192	6
NMTAP	42	240	1
NMTAP	42	240	5
NMTAP	42	288	4
NMSTR	42	336	2
NMSCL	42	336	2	96	96	6
NMTAP	43	48	3
NMTAP	43	144	4
NMSTR	43	240	5
NMSLR	43	240	5	96	96	3
NMTAP	43	336	3
NMSTR	44	48	2
NMSLL	44	48	2	96	96	4
NMTAP	44	144	4
NMTAP	44	240	6
NMTAP	44	288	6
NMTAP	44	336	4
NMTAP	45	0	3
NMTAP	45	0	5
NMTAP	45	48	2
NMTAP	45	96	0
NMTAP	45	96	1
NMTAP	45	144	7
NMTAP	45	192	0
NMTAP	45	192	6
NMTAP	45	240	5
NMTAP	45	288	3
NMTAP	45	288	4
NMTAP	45	336	2
BRTAP	46	0	1
BRTAP	46	0	7
NMSTR	46	96	5
NMSI_	46	96	5	96	48	7
NMTAP	46	144	5
NMTAP	46	192	0
NMTAP	46	240	1
NMTAP	46	288	2
EXSTR	46	336	3
NMSI_	46	336	3	96	48	7
EXSTR	46	336	6
NMSI_	46	336	6	96	48	4
NMTAP	47	48	3
NMTAP	47	48	6
EXSTR	47	144	0
NMSCR	47	144	0	96	48	3
EXSTR	47	144	3
NMSCR	47	144	3	96	48	6
NMTAP	47	240	0
NMTAP	47	240	3
EXTAP	47	336	7
EXTAP	48	0	7
NMTAP	48	96	3
NMSTR	48	96	5
NMSCR	48	96	5	96	96	1
NMSTR	48	192	1
NMSCL	48	192	1	96	96	5
NMTAP	48	288	3
NMTAP	48	336	3
EXTAP	49	48	2
EXTAP	49	48	4
EXTAP	49	96	2
EXTAP	49	96	4
NMTAP	49	192	0
NMTAP	49	240	1
NMTAP	49	240	7
NMSTR	49	288	2
NMSI_	49	288	2	96	48	7
NMSTR	49	288	6
NMSI_	49	288	6	96	48	3
BRTAP	50	0	2
BRTAP	50	0	6
NMTAP	50	96	0
NMTAP	50	96	4
NMSTR	50	192	1
NMSI_	50	192	1	96	48	5
NMTAP	50	240	1
NMTAP	50	288	5
NMSTR	50	336	6
NMSCR	50	336	6	96	96	1
NMTAP	51	48	4
CNSCL	51	144	1	0	96	6
NMTAP	51	144	3
NMSTR	51	240	2
NMSLL	51	240	2	96	96	4
NMTAP	51	336	4
NMSTR	52	48	5
NMSLR	52	48	5	96	96	3
NMTAP	52	144	3
NMTAP	52	240	0
NMTAP	52	288	0
NMTAP	52	336	1
BRTAP	53	0	2
BRTAP	53	0	4
NMTAP	53	48	5
BRTAP	53	96	6
BRTAP	53	96	7
NMTAP	53	144	0
BRSTR	53	192	1
BRSI_	53	192	1	96	48	4
BRSTR	53	240	7
BRSI_	53	240	7	96	48	3
BXTAP	53	288	1
BXTAP	53	336	7
BXTAP	54	0	0
NMTAP	54	96	1
NMTAP	54	144	1
NMTAP	54	192	2
NMTAP	54	240	3
NMTAP	54	288	4
NMSTR	54	336	1
NMSCR	54	336	1	96	48	3
NMSTR	54	336	5
NMSCR	54	336	5	96	48	7
NMTAP	55	48	1
NMTAP	55	48	5
NMSTR	55	144	4
NMSF_	55	144	4	96	48	0
EXTAP	55	336	1
EXTAP	55	336	7
EXTAP	56	0	1
EXTAP	56	0	7
NMTAP	56	96	3
NMSTR	56	96	5
NMSCR	56	96	5	96	48	0
NMSTR	56	192	2
BRSXR	56	192	2	96	192	4
EXTAP	57	144	7
NMTAP	57	192	6
NMHLD	57	240	5	96
NMTAP	57	336	4
NMTAP	58	0	4
NMTAP	58	48	5
NMTAP	58	144	3
NMTAP	58	144	5
NMTAP	58	240	2
NMTAP	58	240	6
NMSTR	58	336	7
NMSI_	58	336	7	96	48	3
NMTAP	59	48	3
NMTAP	59	144	2
NMTAP	59	144	4
NMTAP	59	192	2
NMTAP	59	192	4
EXTAP	59	240	5
EXTAP	59	288	0
EXHLD	60	0	1	768
EXTAP	60	0	4
NMTTP	60	240	2	B	0	M1
NMTTP	60	336	4	E	0	M1
NMTTP	61	192	2	B	0	M1
NMTTP	61	192	3	B	0	M1
NMHLD	62	0	4	768
NMTTP	62	240	4	E	0	M1
NMTTP	62	336	5	E	0	M1
NMTTP	63	192	4	B	0	M1
NMTTP	63	192	5	B	0	M1
NMTTP	63	288	2	B	0	M1
NMTTP	63	288	3	B	0	M1
NMHLD	64	0	1	864
NMTTP	64	240	2	E	0	M1
NMTTP	64	336	3	E	0	M1
NMTTP	65	192	0	C	0	M1
NMHLD	66	0	0	96
NMTAP	66	192	7
NMSTR	66	240	7
NMSCL	66	240	7	96	48	4
NMTTP	66	336	0	C	1	M1
EXTAP	67	48	0
EXTAP	67	96	0
NMSTR	67	192	1
NMSI_	67	192	1	96	48	7
NMTAP	67	192	7
NMSTR	67	288	5
NMSI_	67	288	5	96	48	3
EXTAP	68	0	3
NMTAP	68	96	1
NMTAP	68	144	3
NMSTR	68	192	2
NMSI_	68	192	2	96	48	4
NMTAP	68	288	5
NMHLD	69	0	6	96
NMTAP	69	96	4
NMTAP	69	144	3
NMTAP	69	192	2
NMSTR	69	192	5
NMSI_	69	192	5	96	48	3
NMTAP	69	288	0
NMHLD	70	0	1	96
NMTAP	70	96	3
NMTAP	70	144	3
NMTAP	70	192	2
NMTAP	70	192	4
NMTAP	70	240	2
NMTAP	70	240	4
NMTAP	70	336	6
NMTAP	71	48	0
NMSTR	71	96	0
NMSV_	71	96	0	96	96	3
NMSV_	71	96	0	96	96	5
EXTAP	72	0	3
EXTAP	72	0	5
NMTAP	72	96	6
NMTAP	72	144	4
NMSTR	72	192	5
NMSI_	72	192	5	96	48	3
NMSTR	72	288	1
NMSI_	72	288	1	96	48	7
EXTAP	73	0	6
NMTAP	73	96	6
NMTAP	73	144	4
NMSTR	73	192	5
NMSI_	73	192	5	96	48	2
NMSTR	73	288	2
NMSI_	73	288	2	96	48	5
EXTAP	74	0	1
NMTAP	74	96	1
NMTAP	74	192	2
NMTAP	74	192	4
NMTAP	74	240	2
NMTAP	74	240	4
BRTAP	74	336	1
BRTAP	74	336	5
NMTAP	75	48	1
NMTAP	75	96	0
NMTAP	75	144	7
NMTAP	75	192	0
NMTAP	75	192	6
NMTAP	75	240	1
NMTAP	75	240	5
BXSTR	76	0	1
NMSLR	76	0	1	96	144	5
NMTAP	76	144	7
NMHLD	76	192	7	96
NMSTR	77	0	6
NMSLL	77	0	6	96	144	2
NMTAP	77	144	0
NMHLD	77	192	0	96
NMSTR	78	0	1
NMSLR	78	0	1	96	144	5
NMTAP	78	144	7
NMHLD	78	192	7	96
NMTAP	79	0	4
NMTAP	79	0	6
NMTAP	79	96	4
NMTAP	79	96	5
NMTAP	79	192	3
NMTAP	79	192	4
NMTAP	79	288	2
NMTAP	79	336	3
NMHLD	80	0	1	96
NMTAP	80	96	0
NMTAP	80	144	2
NMSTR	80	144	7
NMSCL	80	144	7	96	96	4
NMSTR	80	240	4
NMSUL	80	240	4	96	96	0
NMSTR	80	336	0
NMSUL	80	336	0	96	96	4
NMSTR	81	48	4
NMSCL	81	48	4	96	96	1
NMTAP	81	144	1
NMHLD	81	240	0	96
NMHLD	81	336	6	96
NMTAP	82	48	4
NMTAP	82	96	4
NMTAP	82	192	3
NMTAP	82	192	5
NMTAP	82	288	2
NMHLD	82	336	2	96
NMTAP	83	48	3
NMTAP	83	144	0
NMTAP	83	144	1
NMTAP	83	192	0
NMTAP	83	192	1
NMTAP	83	240	7
BXSTR	83	288	2
NMSI_	83	288	2	96	48	5
BXSTR	83	288	6
NMSI_	83	288	6	96	48	1
BRTAP	84	0	2
BRTAP	84	0	6
NMTAP	84	96	3
NMTAP	84	96	7
NMSTR	84	192	6
NMSI_	84	192	6	96	48	2
NMTAP	84	240	6
NMTAP	84	288	2
NMSTR	84	336	1
NMSI_	84	336	1	96	48	6
NMSTR	85	48	4
NMSI_	85	48	4	96	48	0
NMTAP	85	144	3
NMTAP	85	240	1
NMSTR	85	240	7
NMSCL	85	240	7	96	96	3
NMTAP	85	336	2
NMSTR	86	48	0
NMSCR	86	48	0	96	96	4
NMTAP	86	144	5
NMTAP	86	240	6
NMTAP	86	288	6
NMTAP	86	336	4
NMTAP	87	0	3
NMTAP	87	0	5
NMTAP	87	48	2
NMTAP	87	96	0
NMTAP	87	96	1
NMTAP	87	144	7
NMHLD	87	192	4	48
NMHLD	87	192	6	48
NMHLD	87	288	2	48
NMHLD	87	288	3	48
BRTAP	88	0	1
BRTAP	88	0	4
NMSTR	88	96	0
NMSI_	88	96	0	96	48	4
NMTAP	88	144	0
NMTAP	88	192	7
EXTAP	88	288	4
EXTAP	88	288	6
EXSTR	88	336	4
NMSCL	88	336	4	96	96	0
EXTAP	88	336	6
NMTAP	89	48	5
NMSTR	89	144	3
NMSCR	89	144	3	96	96	7
NMTAP	89	240	2
NMTAP	89	336	1
NMTAP	90	0	1
NMSTR	90	96	2
NMSLL	90	96	2	96	96	6
NMTAP	90	96	5
NMTAP	90	192	3
NMTAP	90	288	4
CNSLR	90	288	6	0	96	2
NMTAP	90	336	4
NMTAP	91	48	3
NMTAP	91	48	5
NMTAP	91	96	3
NMTAP	91	96	5
NMTAP	91	192	7
NMTAP	91	240	0
NMTAP	91	240	6
NMSTR	91	288	1
BRSCR	91	288	1	96	48	4
NMSTR	91	288	5
BRSCR	91	288	5	96	48	0
BRTAP	92	0	1
BRTAP	92	0	5
EXTAP	92	96	2
EXTAP	92	96	6
NMSTR	92	192	7
NMSI_	92	192	7	96	48	3
NMTAP	92	240	0
NMTAP	92	288	1
NMSTR	92	336	2
BRSLL	92	336	2	96	96	6
NMTAP	93	48	3
NMTAP	93	144	5
CNSLR	93	144	6	0	96	2
NMSTR	93	240	4
NMSCR	93	240	4	96	48	7
NMTAP	93	288	4
NMTAP	93	336	2
NMSTR	94	48	1
NMSCR	94	48	1	96	48	4
NMTAP	94	96	1
NMTAP	94	144	0
NMTAP	94	240	6
NMTAP	94	288	7
NMTAP	94	336	0
NMTAP	94	336	5
BRTAP	95	0	1
BRTAP	95	0	4
NMTAP	95	48	2
BRTAP	95	96	1
BRTAP	95	96	7
NMTAP	95	144	3
BRSTR	95	192	5
NMSI_	95	192	5	96	48	0
BRSTR	95	240	1
NMSI_	95	240	1	96	48	4
BXTAP	95	288	5
BXTAP	95	336	1
BRTAP	96	0	7
NMTAP	96	96	6
NMTAP	96	96	7
NMTAP	96	144	5
NMTAP	96	192	3
NMTAP	96	192	4
NMTAP	96	240	2
NMTAP	96	288	0
NMTAP	96	288	1
EXSTR	96	336	2
NMSI_	96	336	2	96	48	0
EXSTR	96	336	7
NMSI_	96	336	7	96	48	3
NMTAP	97	48	2
NMTAP	97	48	7
EXSTR	97	144	4
NMSCR	97	144	4	96	48	7
EXSTR	97	144	7
NMSCR	97	144	7	96	48	2
NMTAP	97	240	4
NMTAP	97	240	7
EXTAP	97	336	7
EXTAP	98	0	7
NMSTR	98	96	2
NMSCL	98	96	2	96	48	7
NMTAP	98	96	4
NMSTR	98	192	5
BRSXL	98	192	5	96	192	3
EXTAP	99	144	1
EXTAP	99	192	1
EXTAP	99	240	1
NMTAP	99	336	2
NMTAP	100	0	3
NMTAP	100	48	4
NMTAP	100	96	5
NMTAP	100	144	4
NMTAP	100	192	3
NMTAP	100	240	2
NMTAP	100	288	2
NMHLD	100	336	2	96
NMHLD	100	336	3	96
NMTAP	101	144	2
NMTAP	101	144	3
NMTAP	101	240	3
NMTAP	101	240	4
NMTAP	101	336	5
NMTAP	102	0	5
NMTAP	102	48	4
NMTAP	102	96	3
NMTAP	102	144	2
NMTAP	102	192	3
NMTAP	102	240	4
NMTAP	102	288	2
NMTAP	102	288	5
NMSTR	102	336	2
NMSI_	102	336	2	96	48	4
NMSTR	102	336	5
NMSI_	102	336	5	96	48	3
NMTAP	103	144	2
NMTAP	103	144	5
NMTAP	103	192	2
NMTAP	103	192	5

T_REC_TAP	365
T_REC_BRK	23
T_REC_XTP	45
T_REC_BXX	7
T_REC_HLD	60
T_REC_XHO	1
T_REC_BHO	0
T_REC_BXH	0
T_REC_STR	77
T_REC_BST	4
T_REC_XST	9
T_REC_XBS	4
T_REC_TTP	14
T_REC_THO	0
T_REC_SLD	89
T_REC_BSL	7
T_REC_ALL	705
T_NUM_TAP	510
T_NUM_BRK	45
T_NUM_HLD	61
T_NUM_SLD	89
T_NUM_ALL	705
T_JUDGE_TAP	548
T_JUDGE_HLD	169
T_JUDGE_SLD	96
T_JUDGE_ALL	813
TTM_EACHPAIRS	133
TTM_SCR_TAP	255000
TTM_SCR_BRK	117000
TTM_SCR_HLD	61000
TTM_SCR_SLD	133500
TTM_SCR_ALL	566500
TTM_SCR_S	545150
TTM_SCR_SS	562000
TTM_RAT_ACV	10080

