VERSION	0.00.00	1.04.00
FES_MODE	0
BPM_DEF	195.000	195.000	195.000	195.000
MET_DEF	4	4
RESOLUTION	384
CLK_DEF	384
COMPATIBLE_CODE	MA2

BPM	0	0	195.000
MET	0	0	4	4

NMHLD	2	0	5	1440
NMTAP	2	96	4
NMTAP	2	288	4
NMTAP	3	96	3
NMTAP	3	288	3
NMTAP	4	96	4
NMTAP	4	288	4
NMTTP	5	96	5	E	0	M1
NMTTP	5	192	4	E	0	M1
NMTTP	5	288	3	D	0	M1
NMHLD	6	0	2	672
NMTAP	6	96	3
NMTAP	6	288	3
NMTAP	7	96	4
NMTAP	7	288	4
NMTAP	8	0	3
NMTAP	8	48	3
NMHLD	8	144	2	96
NMHLD	8	144	4	96
NMTAP	8	336	3
NMTAP	8	336	5
NMTAP	9	48	3
NMTAP	9	48	5
NMTAP	9	144	3
NMTAP	9	144	4
NMTAP	9	192	3
NMTAP	9	192	4
EXTAP	10	0	0
NMTAP	10	96	1
NMTAP	10	96	7
NMTAP	10	192	6
NMTAP	10	288	3
NMTAP	10	288	5
NMHLD	11	0	6	96
NMTAP	11	96	4
NMHLD	11	192	1	96
NMTAP	11	288	3
NMTAP	12	0	4
NMTAP	12	96	3
NMTAP	12	96	5
NMTAP	12	192	2
NMTAP	12	288	1
NMTAP	12	288	7
NMHLD	13	0	6	96
NMHLD	13	96	5	96
NMHLD	13	192	4	96
NMTAP	13	288	3
NMTAP	14	0	7
NMTAP	14	96	0
NMTAP	14	96	6
NMTAP	14	192	1
NMTAP	14	288	2
NMTAP	14	288	4
NMHLD	15	0	1	96
NMTAP	15	96	3
NMHLD	15	192	6	96
NMTAP	15	288	4
NMTAP	16	0	3
NMTAP	16	96	2
NMTAP	16	96	4
NMTAP	16	192	5
NMTAP	16	288	0
NMTAP	16	288	6
NMHLD	17	0	1	96
NMHLD	17	96	2	96
NMHLD	17	192	3	96
NMTAP	17	288	4
EXTAP	18	0	1
EXTAP	18	0	7
EXTAP	18	240	4
EXTAP	18	240	5
EXHLD	18	336	3	240
EXHLD	18	336	6	240
EXTAP	20	0	3
EXTAP	20	0	4
EXTAP	20	240	2
EXTAP	20	240	3
EXTAP	20	336	1
EXTAP	20	336	4
NMTAP	21	48	2
NMHLD	21	96	2	96
NMHLD	21	192	3	96
NMHLD	21	288	4	96
NMTAP	22	0	5
NMTAP	22	240	4
NMTAP	22	240	5
NMHLD	22	336	3	240
NMHLD	22	336	6	240
NMTAP	24	0	3
NMTAP	24	0	4
NMTAP	24	240	2
NMTAP	24	240	3
NMTAP	24	336	1
NMTAP	24	336	4
NMTAP	25	48	0
NMHLD	25	96	0	96
NMTAP	25	192	7
BRTAP	25	288	1
BRTAP	25	288	6
NMSTR	26	0	2
NMSI_	26	0	2	96	48	4
NMTAP	26	192	5
NMTAP	26	288	6
NMSTR	27	0	6
NMSI_	27	0	6	96	48	4
NMTAP	27	192	3
NMTAP	27	288	2
NMSTR	28	0	1
NMSI_	28	0	1	96	48	3
NMTAP	28	192	4
NMTAP	28	240	4
NMTAP	28	336	3
NMTAP	28	336	5
NMTAP	29	48	6
NMHLD	29	96	6	96
NMTAP	29	192	7
NMTAP	29	288	6
NMTAP	29	288	7
NMTAP	30	0	0
NMSTR	30	0	5
NMSI_	30	0	5	96	48	3
NMTAP	30	192	2
NMTAP	30	288	1
NMSTR	31	0	1
NMSI_	31	0	1	96	48	3
NMTAP	31	192	4
NMTAP	31	288	5
NMSTR	32	0	6
NMSI_	32	0	6	96	48	0
NMTAP	32	192	1
NMTAP	32	288	0
NMTAP	32	288	2
NMTAP	32	336	0
NMTAP	32	336	2
NMTAP	33	48	7
NMTAP	33	96	7
NMTAP	33	192	0
NMTAP	33	192	6
BRTAP	33	288	1
BRTAP	33	288	5
NMHLD	34	0	2	384
NMTTP	34	192	2	B	0	M1
NMTTP	34	192	3	E	0	M1
NMHLD	35	0	4	384
NMTTP	35	192	4	B	0	M1
NMTTP	35	192	5	E	0	M1
NMHLD	36	0	3	384
NMTTP	36	192	2	B	0	M1
NMTTP	36	192	3	E	0	M1
NMHLD	37	0	5	384
NMTTP	37	192	6	B	0	M1
NMTTP	37	192	6	E	0	M1
NMTAP	38	0	0
NMTAP	38	96	1
NMHLD	38	144	1	96
NMTAP	38	240	3
EXTAP	38	336	4
EXTAP	38	336	5
EXTAP	39	48	3
EXTAP	39	48	6
EXHLD	39	144	2	192
EXSTR	39	144	7
NMSXR	39	144	7	96	96	5
NMTAP	40	48	6
NMHLD	40	96	6	96
NMTAP	40	192	4
NMTAP	40	288	4
NMTAP	40	288	5
NMTAP	40	336	4
NMTAP	40	336	5
NMTAP	41	48	2
NMTAP	41	48	3
NMTAP	41	144	0
NMTAP	41	144	4
NMTAP	41	192	0
NMTAP	41	192	4
NMTAP	42	0	4
NMTAP	42	0	5
BXTAP	42	96	1
BXTAP	42	96	7
NMHLD	42	192	2	96
NMTAP	42	288	3
EXTAP	42	336	1
EXTAP	42	336	3
EXTAP	43	48	0
EXTAP	43	48	7
EXTAP	43	144	4
EXTAP	43	144	6
NMTAP	43	240	2
NMTAP	43	288	3
NMTAP	43	336	1
NMTAP	43	336	4
NMTAP	44	48	5
NMTAP	44	96	4
NMTAP	44	144	3
NMTAP	44	144	6
NMTAP	44	240	0
NMTAP	44	240	7
NMTAP	44	288	0
NMTAP	44	288	7
BRTAP	45	0	1
NMTAP	45	0	3
BRTAP	45	96	3
NMTAP	45	96	4
BRTAP	45	192	4
NMTAP	45	192	6
BRSTR	45	288	1
NMSCL	45	288	1	96	96	6
NMTAP	45	288	7
BXTAP	46	0	5
EXTAP	46	144	7
EXTAP	46	192	7
EXTAP	46	288	0
EXTAP	46	336	0
EXHLD	47	48	2	192
EXSTR	47	48	6
NMSXR	47	48	6	96	96	4
NMTAP	47	336	5
NMTAP	48	0	3
NMTAP	48	0	5
NMTAP	48	96	6
NMTAP	48	96	7
NMTAP	48	192	0
NMTAP	48	192	1
NMTAP	48	288	2
NMTAP	48	288	7
NMTAP	48	336	2
NMTAP	48	336	7
NMTAP	49	48	6
NMHLD	49	96	6	96
NMHLD	49	192	4	96
NMTAP	49	288	3
NMTAP	50	0	2
NMTAP	50	0	3
BXTAP	50	96	0
BXTAP	50	96	6
NMHLD	50	192	5	96
NMTAP	50	288	4
EXTAP	50	336	4
EXTAP	50	336	6
EXTAP	51	48	0
EXTAP	51	48	7
EXTAP	51	144	1
EXTAP	51	144	3
NMTAP	51	240	5
NMTAP	51	288	4
NMTAP	51	336	3
NMTAP	51	336	6
NMTAP	52	48	2
NMTAP	52	96	3
NMTAP	52	144	1
NMTAP	52	144	4
NMTAP	52	240	0
NMTAP	52	240	7
NMTAP	52	288	0
NMTAP	52	288	7
NMTAP	53	0	4
BRTAP	53	0	6
NMTAP	53	96	3
BRTAP	53	96	4
NMTAP	53	192	1
BRTAP	53	192	3
NMTAP	53	288	0
BRSTR	53	288	6
NMSCR	53	288	6	96	96	1
BXTAP	54	0	2
EXTAP	54	144	0
EXTAP	54	192	0
EXTAP	54	288	7
EXTAP	54	336	7
EXSTR	55	48	3
NMSXR	55	48	3	96	96	1
EXSTR	55	48	4
NMSXL	55	48	4	96	96	6
NMTAP	55	336	2
NMTAP	55	336	3
NMTAP	56	0	2
NMTAP	56	0	3
NMTAP	56	96	0
NMTAP	56	96	1
NMTAP	56	192	6
NMTAP	56	192	7
NMTAP	56	288	0
NMTAP	56	288	5
NMTAP	56	336	0
NMTAP	56	336	5
NMTAP	57	48	1
NMHLD	57	96	1	96
NMHLD	57	192	3	96
NMTAP	57	288	4
NMTAP	58	0	4
NMTAP	58	0	5
NMTAP	58	144	3
NMTAP	58	192	3
NMTAP	58	240	4
NMTAP	58	336	2
NMTAP	58	336	3
NMTAP	59	48	0
NMTAP	59	48	7
NMTAP	59	144	1
NMTAP	59	144	6
NMHLD	59	192	1	96
NMHLD	59	192	6	48
NMTTP	60	0	0	C	0	M1
NMTTP	60	240	4	B	0	M1
NMTTP	60	240	5	B	0	M1
NMTTP	60	336	4	E	0	M1
NMTTP	60	336	6	E	0	M1
NMTTP	61	192	3	A	0	M1
NMTTP	61	192	5	D	0	M1
NMTTP	62	0	3	D	0	M1
NMTTP	62	0	4	A	0	M1
NMTTP	62	240	2	B	0	M1
NMTTP	62	240	3	B	0	M1
NMTTP	62	336	2	E	0	M1
NMTTP	62	336	4	E	0	M1
NMTTP	63	96	1	E	0	M1
NMTTP	63	192	0	E	0	M1
NMTTP	63	288	7	E	0	M1
NMTTP	64	0	6	E	0	M1
NMTTP	64	240	2	B	0	M1
NMTTP	64	240	3	B	0	M1
NMTTP	64	336	2	E	0	M1
NMTTP	64	336	4	E	0	M1
NMTTP	65	192	3	D	0	M1
NMTTP	65	192	4	A	0	M1
NMTTP	66	0	3	A	0	M1
NMTTP	66	0	5	D	0	M1
NMTTP	66	240	4	B	0	M1
NMTTP	66	240	5	B	0	M1
NMTTP	66	336	4	E	0	M1
NMTTP	66	336	6	E	0	M1
NMTAP	67	48	7
NMHLD	67	96	7	96
NMTAP	67	192	0
BRTAP	67	288	1
BRTAP	67	288	6
NMSTR	68	0	5
NMSI_	68	0	5	96	48	3
NMTAP	68	192	2
NMTAP	68	288	2
NMTAP	68	288	3
NMSTR	69	0	1
NMSI_	69	0	1	96	48	3
NMTAP	69	192	4
NMTAP	69	288	3
NMTAP	69	288	5
NMSTR	70	0	6
NMSI_	70	0	6	96	48	4
NMTAP	70	96	4
NMTAP	70	192	3
NMTAP	70	240	3
NMTAP	70	336	2
NMTAP	70	336	4
NMTAP	71	48	1
NMHLD	71	96	1	96
NMTAP	71	192	0
NMTAP	71	288	1
NMTAP	71	288	7
NMSTR	72	0	2
NMSI_	72	0	2	96	48	4
NMTAP	72	0	6
NMTAP	72	192	5
NMTAP	72	288	4
NMTAP	72	288	5
NMSTR	73	0	6
NMSI_	73	0	6	96	48	4
NMTAP	73	192	3
NMTAP	73	288	2
NMTAP	73	288	4
NMSTR	74	0	1
NMSI_	74	0	1	96	48	7
NMTAP	74	192	6
NMTAP	74	288	0
NMTAP	74	288	5
NMTAP	74	336	0
NMTAP	74	336	5
NMTAP	75	48	1
NMHLD	75	96	1	96
NMTAP	75	192	3
BRTAP	75	288	0
BRTAP	75	288	4
NMHLD	76	0	5	384
NMTAP	76	144	4
NMTAP	76	192	4
NMHLD	77	0	3	384
NMTAP	77	144	4
NMTAP	77	192	4
NMHLD	78	0	6	384
NMTAP	78	144	5
NMTAP	78	192	5
NMHLD	79	0	4	192
NMTAP	79	144	5
NMTAP	79	192	5
NMTAP	79	288	4
NMTAP	79	288	5
NMTAP	80	0	3
NMTAP	80	0	7
NMTAP	80	96	6
NMHLD	80	144	6	96
NMTAP	80	240	4
EXTAP	80	336	2
EXTAP	80	336	3
EXTAP	81	48	1
EXTAP	81	48	4
EXSTR	81	144	0
NMSXL	81	144	0	96	96	2
EXHLD	81	144	5	192
NMTAP	82	48	1
NMHLD	82	96	1	96
NMTAP	82	192	3
NMTAP	82	288	2
NMTAP	82	288	3
NMTAP	82	336	2
NMTAP	82	336	3
NMTAP	83	48	4
NMTAP	83	48	5
NMTAP	83	144	3
NMTAP	83	144	7
NMTAP	83	192	3
NMTAP	83	192	7
NMTAP	84	0	4
NMTAP	84	0	5
BXTAP	84	96	1
BXTAP	84	96	7
NMTAP	84	192	2
NMTAP	84	240	2
NMTAP	84	288	3
EXTAP	84	336	1
EXTAP	84	336	4
EXTAP	85	48	0
EXTAP	85	48	7
EXTAP	85	144	4
EXTAP	85	144	6
NMTAP	85	240	2
NMTAP	85	288	3
NMTAP	85	336	1
NMTAP	85	336	4
NMTAP	86	48	6
NMTAP	86	96	7
NMTAP	86	144	0
NMTAP	86	144	5
NMTAP	86	240	3
NMTAP	86	240	4
NMTAP	86	288	3
NMTAP	86	288	4
BRTAP	87	0	1
NMTAP	87	0	3
BRTAP	87	96	0
NMTAP	87	96	7
BRTAP	87	192	4
NMTAP	87	192	6
BRSTR	87	288	2
NMSCL	87	288	2	96	96	7
NMTAP	87	288	3
BXTAP	88	0	5
EXTAP	88	144	6
EXTAP	88	144	7
EXTAP	88	192	6
EXTAP	88	192	7
EXTAP	88	288	1
EXTAP	88	288	7
EXTAP	88	336	1
EXTAP	88	336	7
EXHLD	89	48	2	192
EXSTR	89	48	6
NMSXR	89	48	6	96	96	4
NMTAP	89	336	5
NMTAP	90	0	3
NMTAP	90	0	5
NMTAP	90	96	6
NMTAP	90	96	7
NMTAP	90	192	0
NMTAP	90	192	1
NMTAP	90	288	2
NMTAP	90	288	7
NMTAP	90	336	2
NMTAP	90	336	7
NMTAP	91	48	1
NMTAP	91	48	4
NMHLD	91	96	1	96
NMTAP	91	96	4
NMHLD	91	192	2	96
NMTAP	91	288	3
NMTAP	92	0	2
NMTAP	92	0	3
BXTAP	92	96	0
BXTAP	92	96	6
NMTAP	92	192	5
NMTAP	92	240	5
NMTAP	92	288	4
EXTAP	92	336	3
EXTAP	92	336	6
EXTAP	93	48	0
EXTAP	93	48	7
EXTAP	93	144	1
EXTAP	93	144	3
NMTAP	93	240	5
NMTAP	93	288	4
NMTAP	93	336	3
NMTAP	93	336	6
NMTAP	94	48	1
NMTAP	94	96	0
NMTAP	94	144	2
NMTAP	94	144	7
NMTAP	94	240	3
NMTAP	94	240	4
NMTAP	94	288	3
NMTAP	94	288	4
NMTAP	95	0	4
BRTAP	95	0	6
NMTAP	95	96	0
BRTAP	95	96	7
NMTAP	95	192	1
BRTAP	95	192	3
NMTAP	95	288	4
BRSTR	95	288	5
NMSCR	95	288	5	96	96	0
BXTAP	96	0	2
EXTAP	96	144	0
EXTAP	96	144	1
EXTAP	96	192	0
EXTAP	96	192	1
EXTAP	96	288	0
EXTAP	96	288	6
EXTAP	96	336	0
EXTAP	96	336	6
EXSTR	97	48	1
NMSXL	97	48	1	96	96	3
EXHLD	97	48	5	192
NMTAP	97	336	2
NMTAP	98	0	2
NMTAP	98	0	4
NMTAP	98	96	0
NMTAP	98	96	1
NMTAP	98	192	6
NMTAP	98	192	7
NMTAP	98	288	0
NMTAP	98	288	5
NMTAP	98	336	0
NMTAP	98	336	5
NMTAP	99	48	6
NMHLD	99	96	6	96
NMHLD	99	192	4	96
NMTAP	99	288	3
NMTAP	100	0	2
NMTAP	100	0	3
NMTAP	100	144	4
NMTAP	100	192	4
NMTAP	100	240	3
NMTAP	100	336	2
NMTAP	100	336	3
NMTAP	101	48	3
NMTAP	101	48	4
NMTAP	101	144	4
NMTAP	101	144	5
NMTAP	101	240	4
NMTAP	101	240	5
NMTAP	101	336	5
NMTAP	102	0	4
NMTAP	102	0	6
NMTAP	102	144	3
NMTAP	102	192	3
NMTAP	102	240	4
NMTAP	102	336	3
NMTAP	102	336	5
NMTAP	103	48	2
NMTAP	103	48	4
NMTAP	103	144	0
NMTAP	103	144	7
NMTAP	103	192	0
NMTAP	103	192	7

T_REC_TAP	332
T_REC_BRK	20
T_REC_XTP	67
T_REC_BXX	12
T_REC_HLD	48
T_REC_XHO	7
T_REC_BHO	0
T_REC_BXH	0
T_REC_STR	12
T_REC_BST	4
T_REC_XST	7
T_REC_XBS	0
T_REC_TTP	40
T_REC_THO	0
T_REC_SLD	23
T_REC_BSL	0
T_REC_ALL	572
T_NUM_TAP	458
T_NUM_BRK	36
T_NUM_HLD	55
T_NUM_SLD	23
T_NUM_ALL	572
T_JUDGE_TAP	494
T_JUDGE_HLD	215
T_JUDGE_SLD	23
T_JUDGE_ALL	732
TTM_EACHPAIRS	163
TTM_SCR_TAP	229000
TTM_SCR_BRK	93600
TTM_SCR_HLD	55000
TTM_SCR_SLD	34500
TTM_SCR_ALL	412100
TTM_SCR_S	396250
TTM_SCR_SS	408500
TTM_RAT_ACV	10088

