VERSION	0.00.00	1.04.00
FES_MODE	0
BPM_DEF	125.000	125.000	125.000	125.000
MET_DEF	4	4
RESOLUTION	384
CLK_DEF	384
COMPATIBLE_CODE	MA2

BPM	0	0	125.000
MET	0	0	4	4

NMHLD	1	0	3	1056
NMTAP	1	0	4
NMTTP	1	96	4	E	0	M1
NMTAP	1	192	4
NMTAP	1	288	4
NMTAP	2	0	4
NMTTP	2	96	4	E	0	M1
NMTAP	2	192	4
NMTAP	2	288	4
NMTAP	3	0	4
NMTTP	3	96	4	E	0	M1
NMTAP	3	192	4
NMSTR	3	288	4
NMSXL	3	288	4	96	192	3
NMSTR	4	192	0
NMSI_	4	192	0	96	48	4
BRTAP	4	288	0
NMTAP	5	0	7
NMTAP	5	48	7
NMTAP	5	96	1
NMTAP	5	96	5
NMTAP	5	168	2
NMTAP	5	192	4
NMTAP	5	240	4
NMTAP	5	288	2
NMTAP	5	288	3
NMTAP	5	336	1
NMTAP	6	0	0
NMTAP	6	48	7
NMTAP	6	96	2
NMTAP	6	96	6
NMTAP	6	168	5
NMTAP	6	192	3
NMTAP	6	240	3
NMTAP	6	288	4
NMTAP	6	288	5
NMTAP	6	336	6
NMTAP	7	0	7
NMTAP	7	48	0
NMTAP	7	96	1
NMTAP	7	96	5
NMTAP	7	168	2
NMTAP	7	192	4
NMTAP	7	240	4
NMTAP	7	288	2
NMSTR	7	288	3
NMSI_	7	288	3	96	48	7
NMSTR	8	0	1
NMSI_	8	0	1	96	48	5
BRTAP	8	0	3
BRTAP	8	96	1
NMSTR	8	96	6
NMSI_	8	96	6	96	48	2
BRTAP	8	192	0
BRTAP	8	192	6
NMTAP	8	240	0
BRTAP	8	288	1
BRTAP	8	288	5
NMTAP	9	0	6
NMHLD	9	48	6	240
NMTAP	9	96	4
NMTAP	9	144	4
NMTAP	9	192	3
NMTAP	9	240	3
NMHLD	9	288	2	384
NMTAP	10	0	3
NMTAP	10	48	3
NMTAP	10	96	4
NMTAP	10	144	4
NMTAP	10	192	5
NMTAP	10	240	5
NMHLD	10	288	6	384
NMTAP	11	0	3
NMTAP	11	48	3
NMSTR	11	96	4
NMSI_	11	96	4	96	48	0
NMTAP	11	144	4
NMHLD	11	288	1	384
NMTAP	12	0	3
NMTAP	12	48	3
NMTAP	12	96	4
NMTAP	12	144	4
NMTAP	12	192	3
NMTAP	12	240	4
NMHLD	12	288	5	384
NMTAP	13	0	3
NMTAP	13	48	3
NMTAP	13	96	4
NMTAP	13	144	4
NMTAP	13	192	3
NMTAP	13	240	2
NMHLD	13	288	1	288
NMTAP	14	0	3
NMTAP	14	48	3
NMTAP	14	96	4
NMTAP	14	144	4
NMTAP	14	192	3
NMTAP	14	240	4
NMTAP	14	288	2
NMTAP	14	288	5
NMSTR	15	0	7
NMSCL	15	0	7	96	96	4
NMTAP	15	96	1
NMSTR	15	192	0
NMSCR	15	192	0	96	96	3
NMTAP	15	288	5
NMTTP	16	0	0	C	0	M1
NMTTP	16	96	0	B	0	M1
NMTTP	16	96	0	E	0	M1
NMTTP	16	96	3	B	0	M1
NMTTP	16	96	4	B	0	M1
NMTTP	16	96	4	E	0	M1
NMTTP	16	96	7	B	0	M1
NMTTP	16	192	1	B	0	M1
NMTTP	16	192	2	B	0	M1
NMTTP	16	192	2	E	0	M1
NMTTP	16	192	5	B	0	M1
NMTTP	16	192	6	B	0	M1
NMTTP	16	192	6	E	0	M1
NMTTP	16	288	4	E	0	M1
EXTAP	17	0	7
NMTAP	17	48	7
NMTAP	17	96	0
NMTAP	17	96	4
NMTAP	17	144	1
NMTAP	17	168	3
NMTAP	17	216	3
NMTAP	17	216	4
NMTAP	17	264	6
NMTAP	17	288	4
NMTAP	17	336	3
NMTAP	17	336	7
NMTAP	18	0	3
NMTAP	18	0	7
NMTAP	18	48	1
NMTAP	18	72	1
NMTAP	18	96	3
NMTAP	18	144	5
NMTAP	18	168	4
NMSTR	18	192	5
NMSI_	18	192	5	96	48	7
NMSTR	18	240	5
NMSI_	18	240	5	96	48	3
NMTAP	19	0	7
NMTAP	19	48	7
NMTAP	19	96	0
NMTAP	19	96	4
NMTAP	19	144	1
NMTAP	19	168	3
NMTAP	19	192	2
NMTAP	19	240	7
NMTAP	19	288	4
NMTAP	19	288	6
NMTAP	19	336	3
NMTAP	19	336	5
NMTAP	20	0	2
NMTAP	20	0	4
NMTAP	20	48	1
NMTAP	20	72	1
NMTAP	20	96	3
NMTAP	20	144	5
NMTAP	20	168	4
NMSTR	20	192	5
NMSI_	20	192	5	96	48	3
NMTAP	20	240	6
CNSI_	20	336	3	0	48	6
NMSTR	21	0	0
NMSUR	21	0	0	96	48	4
NMTAP	21	72	4
NMSTR	21	144	6
NMSUL	21	144	6	96	48	2
NMTAP	21	216	3
NMSTR	21	288	1
NMSCR	21	288	1	96	48	5
NMTAP	21	360	6
NMSTR	22	48	7
NMSUL	22	48	7	96	48	2
NMTAP	22	120	1
EXHLD	22	192	0	72
NMTAP	22	264	5
NMTAP	22	312	5
NMTAP	22	336	4
NMTAP	23	0	3
NMSTR	23	0	7
NMSCL	23	0	7	96	24	5
NMTAP	23	72	2
CNSI_	23	120	5	0	24	3
NMSTR	23	144	1
NMSXL	23	144	1	96	48	3
NMTAP	23	216	5
NMSTR	23	288	7
NMSV_	23	288	7	96	48	4
NMTAP	23	360	3
NMSTR	24	48	0
NMSXL	24	48	0	96	96	0
NMTAP	24	120	5
NMTAP	24	192	7
NMTAP	24	240	7
EXTAP	24	288	0
EXTAP	24	336	0
NMHLD	25	0	1	384
NMTAP	25	0	5
NMTAP	25	96	3
NMTAP	25	192	3
NMTAP	25	288	3
NMHLD	26	0	5	288
NMTAP	26	96	3
NMTAP	26	192	3
NMTAP	26	288	3
NMTAP	26	336	2
NMTAP	27	0	2
NMTAP	27	24	3
NMTAP	27	48	2
NMTAP	27	72	3
NMTAP	27	96	1
NMTAP	27	144	5
NMTAP	27	168	4
NMTAP	27	192	5
NMTAP	27	216	4
NMTAP	27	240	6
NMSTR	27	288	2
NMSI_	27	288	2	96	48	7
NMTAP	27	288	5
NMTAP	27	336	2
NMTAP	27	336	5
NMSTR	28	0	6
NMSI_	28	0	6	96	48	3
NMTAP	28	48	6
NMSTR	28	96	1
NMSI_	28	96	1	96	48	4
NMTAP	28	144	1
NMSTR	28	192	5
NMSI_	28	192	5	96	48	0
NMTAP	28	240	5
NMSTR	28	288	2
NMSI_	28	288	2	96	48	6
NMTAP	28	336	2
NMTAP	29	0	5
NMTAP	29	48	5
NMTAP	29	96	4
NMTAP	29	144	4
NMTAP	29	192	2
NMTAP	29	192	3
NMTAP	29	240	0
NMTAP	29	240	1
NMSTR	29	288	6
NMSI_	29	288	6	96	48	2
NMSTR	29	288	7
NMSI_	29	288	7	96	48	3
NMTAP	29	336	4
NMTAP	29	336	5
BRTAP	30	0	6
BRTAP	30	0	7
NMSTR	31	192	1
BRSI_	31	192	1	96	48	4
NMSTR	31	192	7
BRSI_	31	192	7	96	48	4
BRTAP	31	288	1
BRTAP	31	288	7
BRSTR	32	0	2
NMSCL	32	0	2	96	48	7
BRSTR	32	0	6
NMSCL	32	0	6	96	48	3
NMTAP	32	96	2
NMTAP	32	96	6
NMTAP	32	192	0
NMTAP	32	192	4
NMTAP	32	264	1
NMTAP	32	288	3
NMTAP	32	336	4
NMTAP	33	0	4
NMTAP	33	0	5
NMTAP	33	48	6
NMTAP	33	48	7
NMSTR	33	96	0
NMSI_	33	96	0	96	48	4
NMSTR	33	96	1
NMSI_	33	96	1	96	48	5
NMTAP	33	144	2
NMTAP	33	144	7
NMTAP	33	288	2
NMTAP	33	288	6
NMTAP	33	336	2
NMTAP	33	336	6
EXTAP	34	0	3
EXTAP	34	0	5
NMTAP	34	48	6
NMTAP	34	72	7
NMTAP	34	120	1
NMTAP	34	144	0
NMTAP	34	192	2
NMTAP	34	192	4
NMTAP	34	240	1
NMTAP	34	264	0
NMTAP	34	312	6
NMTAP	34	336	7
NMTAP	35	0	3
NMTAP	35	0	5
NMTAP	35	48	2
NMTAP	35	72	3
NMTAP	35	120	6
NMTAP	35	144	4
NMTAP	35	168	6
NMTAP	35	192	4
NMTAP	35	240	4
NMTAP	35	240	6
NMTAP	35	288	3
NMTAP	35	288	5
NMTAP	35	336	2
NMTAP	35	336	4
EXTAP	36	0	1
NMSTR	36	0	5
NMSCL	36	0	5	96	48	2
NMTAP	36	96	0
NMTAP	36	96	5
NMTAP	36	192	1
NMSTR	36	192	5
BRSCL	36	192	5	96	48	2
NMTAP	36	288	0
BRTAP	36	336	0
NMTAP	37	48	1
NMTAP	37	48	7
NMTAP	37	96	1
NMTAP	37	96	7
NMTAP	37	144	2
NMTAP	37	144	6
NMTAP	37	192	3
NMTAP	37	192	5
NMTAP	37	288	2
NMSTR	37	288	4
NMSI_	37	288	4	96	48	0
BRSTR	38	0	3
NMSI_	38	0	3	96	48	1
NMSTR	38	96	5
NMSI_	38	96	5	96	48	7
NMHLD	38	192	2	96
NMTAP	38	288	0
EXSTR	38	336	0
NMSCL	38	336	0	96	48	5
NMSCR	38	336	0	96	48	3
NMTAP	39	48	0
NMTAP	39	144	2
NMTAP	39	144	6
NMSTR	39	192	0
NMSI_	39	192	0	96	48	4
NMSTR	39	192	7
NMSI_	39	192	7	96	48	5
NMSTR	39	288	0
NMSI_	39	288	0	96	48	2
NMSTR	39	288	7
NMSI_	39	288	7	96	48	3
NMTAP	40	0	0
NMTAP	40	0	7
EXTAP	40	96	0
EXTAP	40	96	7
NMTAP	40	144	2
NMTAP	40	192	3
NMTAP	40	192	5
NMTAP	40	240	2
NMSTR	40	240	6
NMSI_	40	240	6	96	48	2
NMHLD	40	336	1	96
BRTAP	40	336	6
NMTAP	41	48	3
NMTAP	41	96	2
NMTAP	41	96	4
NMTAP	41	144	3
NMTAP	41	144	5
NMTAP	41	192	2
NMTAP	41	192	6
NMTAP	41	240	2
NMTAP	41	240	6
NMTAP	41	288	3
NMSTR	41	288	5
NMSI_	41	288	5	96	48	0
NMTAP	42	0	4
BRTAP	42	0	5
NMTAP	42	96	3
NMSTR	42	96	5
NMSI_	42	96	5	96	48	0
NMTAP	42	192	4
BRTAP	42	192	5
NMTAP	42	288	3
NMSTR	42	288	5
BRSCR	42	288	5	96	48	0
NMSTR	43	0	1
NMSI_	43	0	1	96	48	5
BRTAP	43	0	5
NMHLD	43	96	7	96
CNSI_	43	144	5	0	48	2
NMTAP	43	240	0
NMTAP	43	240	6
NMSTR	43	288	0
NMSCR	43	288	0	96	48	3
NMTAP	43	288	6
NMSTR	44	0	4
NMSCR	44	0	4	96	48	7
NMTAP	44	96	2
NMTAP	44	144	2
NMSTR	44	192	3
BRSF_	44	192	3	96	48	7
NMTAP	45	0	0
NMTAP	45	0	6
NMTAP	45	48	1
NMTAP	45	72	3
NMSTR	45	96	2
NMSI_	45	96	2	96	48	7
NMTAP	45	144	2
NMSTR	45	192	6
NMSI_	45	192	6	96	48	2
NMTAP	45	240	6
NMTAP	45	288	0
NMTAP	45	336	0
NMHLD	46	0	1	48
NMHLD	46	0	3	48
NMHLD	46	96	4	48
NMHLD	46	96	6	48
NMHLD	46	192	3	48
NMHLD	46	192	5	48
NMTTP	46	288	4	B	1	M1
NMTTP	46	288	4	E	0	M1
NMTTP	46	288	5	E	0	M1
BRHLD	47	0	1	96
NMTAP	47	96	0
NMTAP	47	168	2
NMTAP	47	192	3
NMTAP	47	240	5
NMTAP	47	264	4
NMTAP	47	312	4
NMTAP	47	336	6
NMTAP	48	0	5
NMTAP	48	0	7
NMTAP	48	48	4
NMTAP	48	48	6
NMTAP	48	96	3
NMTAP	48	96	5
NMTAP	48	144	2
NMTAP	48	192	1
NMTAP	48	192	3
NMTAP	48	240	1
NMTAP	48	240	3
NMTAP	48	288	2
NMTAP	48	288	4
NMTAP	48	336	5
NMTAP	49	0	4
NMSTR	49	0	6
NMSI_	49	0	6	96	48	2
NMTAP	49	96	4
NMTAP	49	96	6
NMTAP	49	192	4
NMSTR	49	288	4
BRSI_	49	288	4	96	48	0
NMTAP	49	288	5
NMTAP	49	336	3
NMTAP	49	336	6
NMTAP	50	0	4
NMTAP	50	0	5
NMTAP	50	96	5
NMTAP	50	192	5
NMHLD	50	288	4	48
NMHLD	50	288	5	48
NMHLD	51	0	6	96
NMTAP	51	96	7
NMTAP	51	168	5
NMTAP	51	192	4
NMTAP	51	240	2
NMTAP	51	264	3
NMTAP	51	312	3
NMTAP	51	336	1
NMTAP	52	0	0
NMTAP	52	0	2
NMTAP	52	48	1
NMTAP	52	48	3
NMTAP	52	96	2
NMTAP	52	96	4
NMTAP	52	144	5
NMTAP	52	192	4
NMTAP	52	192	6
NMTAP	52	240	4
NMTAP	52	240	6
NMSTR	52	288	3
BRSI_	52	288	3	96	48	0
BRSI_	52	288	3	96	48	6
NMTAP	52	288	5
NMTAP	52	336	2
NMTAP	52	336	4
NMTAP	53	96	1
NMTAP	53	192	1
NMSTR	53	288	0
NMSXL	53	288	0	96	96	0
NMTAP	53	288	6
NMTAP	54	0	5
NMTAP	54	96	4
NMSTR	54	192	5
NMSCL	54	192	5	96	96	2
NMTAP	54	288	1
NMTAP	54	336	1
NMSTR	55	0	0
NMSI_	55	0	0	96	48	4
NMTAP	55	48	0
NMSTR	55	96	7
NMSI_	55	96	7	96	48	3
NMTAP	55	144	7
NMSTR	55	192	1
NMSI_	55	192	1	96	48	6
NMTAP	55	240	1
NMSTR	55	288	5
NMSI_	55	288	5	96	48	2
NMTAP	55	336	5
NMTAP	56	0	1
NMTAP	56	48	1
NMTAP	56	96	0
NMTAP	56	144	0
NMTAP	56	192	6
NMTAP	56	192	7
NMTAP	56	240	4
NMTAP	56	240	5
NMSTR	56	288	2
NMSI_	56	288	2	96	48	6
NMSTR	56	288	3
NMSI_	56	288	3	96	48	7
NMTAP	56	336	0
NMTAP	56	336	1
BRTAP	57	0	2
BRTAP	57	0	3
NMSTR	58	192	1
BRSI_	58	192	1	96	48	4
NMSTR	58	192	7
BRSI_	58	192	7	96	48	4
BRTAP	58	288	1
BRTAP	58	288	7
BRSTR	59	0	2
NMSCL	59	0	2	96	48	7
BRSTR	59	0	6
NMSCL	59	0	6	96	48	3
NMTAP	59	96	2
NMTAP	59	96	6
NMTAP	59	192	0
NMSTR	59	192	4
NMSLR	59	192	4	96	48	0
NMTAP	59	264	1
NMTAP	59	288	4
NMTAP	59	336	3
NMTAP	60	0	3
NMTAP	60	48	4
NMTAP	60	48	5
NMSTR	60	96	6
NMSI_	60	96	6	96	48	2
NMSTR	60	96	7
NMSI_	60	96	7	96	48	3
NMTAP	60	144	0
NMTAP	60	144	5
NMTAP	60	288	1
NMTAP	60	288	4
NMTAP	60	336	1
NMTAP	60	336	4
EXTAP	61	0	0
EXTAP	61	0	1
NMTAP	61	48	2
NMTAP	61	72	3
NMTAP	61	120	5
NMTAP	61	144	4
NMTAP	61	192	0
NMTAP	61	192	6
NMTAP	61	240	5
NMTAP	61	264	4
NMTAP	61	312	2
NMTAP	61	336	3
NMTAP	62	0	4
NMTAP	62	0	5
NMTAP	62	48	6
NMTAP	62	72	7
NMTAP	62	120	1
NMTAP	62	144	0
NMTAP	62	168	1
NMTAP	62	192	0
NMTAP	62	240	1
NMTAP	62	240	3
NMTAP	62	288	4
NMTAP	62	288	6
NMTAP	62	336	2
NMTAP	62	336	4
NMSTR	63	0	1
NMSCL	63	0	1	96	48	6
EXTAP	63	0	5
NMTAP	63	48	2
NMTAP	63	48	4
NMTAP	63	96	1
NMTAP	63	96	5
NMTAP	63	144	4
NMSTR	63	192	1
BRSCL	63	192	1	96	48	6
NMTAP	63	192	5
NMTAP	63	240	2
NMTAP	63	240	4
NMTAP	63	288	1
NMTAP	63	288	6
BRSTR	63	336	4
NMSI_	63	336	4	96	48	7
NMSTR	64	48	3
NMSI_	64	48	3	96	48	0
NMTAP	64	48	4
NMTAP	64	144	3
NMTAP	64	144	5
NMTAP	64	192	5
NMTAP	64	240	4
NMSTR	64	288	3
NMSI_	64	288	3	96	48	7
NMTAP	64	288	5
NMTAP	64	336	2
BRSTR	65	0	4
NMSI_	65	0	4	96	48	6
NMTAP	65	48	5
NMSTR	65	96	2
NMSI_	65	96	2	96	48	0
NMTAP	65	144	1
NMHLD	65	192	5	96
NMTAP	65	288	7
EXSTR	65	336	7
NMSV_	65	336	7	96	48	2
NMSV_	65	336	7	96	48	4
NMTAP	66	48	7
NMTAP	66	144	1
NMTAP	66	144	5
NMSTR	66	192	1
NMSV_	66	192	1	96	48	4
NMTAP	66	192	5
NMTAP	66	240	3
NMSTR	66	288	6
NMSV_	66	288	6	96	48	3
NMTAP	66	336	7
NMTAP	67	0	1
NMTAP	67	48	1
NMTAP	67	96	4
NMTAP	67	144	2
NMTAP	67	144	5
NMTAP	67	192	1
NMTAP	67	192	6
BRSTR	67	240	0
NMSI_	67	240	0	96	48	4
BRSTR	67	240	7
NMSI_	67	240	7	96	48	5
BRSTR	67	336	0
NMSI_	67	336	0	96	48	2
BRSTR	67	336	7
NMSI_	67	336	7	96	48	3
BRSTR	68	48	0
NMSI_	68	48	0	96	48	4
BRSTR	68	48	7
NMSI_	68	48	7	96	48	5
BRTAP	68	144	0
BRTAP	68	144	7
NMTAP	68	240	0
NMSTR	68	288	2
NMSI_	68	288	2	96	48	7
NMTAP	68	288	4
BRTAP	69	0	2
NMTAP	69	0	3
NMTAP	69	48	4
NMSTR	69	96	2
NMSI_	69	96	2	96	48	7
NMTAP	69	96	3
BRTAP	69	192	2
NMTAP	69	192	3
NMTAP	69	240	4
NMSTR	69	288	2
NMSI_	69	288	2	96	48	0
NMTAP	69	288	3
BRTAP	70	0	2
NMTAP	70	0	3
EXTAP	70	96	0
EXTAP	70	96	5
NMTAP	70	144	6
NMTAP	70	168	4
NMTAP	70	216	1
NMTAP	70	240	3
NMTAP	70	288	4
NMTAP	70	288	5
NMTAP	70	336	6
BRTAP	71	0	3
BRSTR	71	0	7
NMSCL	71	0	7	96	48	4
NMTAP	71	96	1
NMSTR	71	96	7
NMSCR	71	96	7	96	48	2
NMTAP	71	144	0
NMSTR	71	192	3
NMSI_	71	192	3	96	48	0
NMSI_	71	192	3	96	48	6
NMTAP	71	192	7
BRTAP	71	288	3
EXTAP	72	0	0
EXTAP	72	0	6
NMTAP	72	48	1
NMTAP	72	72	3
NMTAP	72	120	6
NMTAP	72	144	4
NMSTR	72	192	0
NMSI_	72	192	0	96	48	4
NMSTR	72	240	7
NMSUR	72	240	7	96	144	0
NMTAP	72	288	0
BRTAP	72	336	7
CNSCR	73	96	0	0	144	6
EXSTR	73	288	0
BRSF_	73	288	0	96	48	4
BRTAP	74	0	0

T_REC_TAP	421
T_REC_BRK	29
T_REC_XTP	15
T_REC_BXX	0
T_REC_HLD	22
T_REC_XHO	1
T_REC_BHO	1
T_REC_BXH	0
T_REC_STR	78
T_REC_BST	14
T_REC_XST	3
T_REC_XBS	0
T_REC_TTP	20
T_REC_THO	0
T_REC_SLD	87
T_REC_BSL	12
T_REC_ALL	703
T_NUM_TAP	537
T_NUM_BRK	56
T_NUM_HLD	23
T_NUM_SLD	87
T_NUM_ALL	703
T_JUDGE_TAP	580
T_JUDGE_HLD	101
T_JUDGE_SLD	99
T_JUDGE_ALL	780
TTM_EACHPAIRS	148
TTM_SCR_TAP	268500
TTM_SCR_BRK	145600
TTM_SCR_HLD	23000
TTM_SCR_SLD	130500
TTM_SCR_ALL	567600
TTM_SCR_S	545150
TTM_SCR_SS	562000
TTM_RAT_ACV	10099

