VERSION	0.00.00	1.04.00
FES_MODE	0
BPM_DEF	125.000	125.000	125.000	125.000
MET_DEF	4	4
RESOLUTION	384
CLK_DEF	384
COMPATIBLE_CODE	MA2

BPM	0	0	125.000
MET	0	0	4	4

NMHLD	1	0	4	1152
NMHLD	3	0	3	576
NMTAP	4	192	4
EXTAP	4	288	2
EXTAP	4	288	5
NMTAP	5	0	1
NMTAP	5	96	0
NMTAP	5	96	1
NMTAP	5	192	7
NMTAP	5	288	0
NMTAP	5	288	6
NMTAP	6	0	5
NMTAP	6	96	4
NMTAP	6	96	5
NMTAP	6	192	3
NMTAP	6	288	2
NMTAP	6	288	4
NMHLD	7	0	1	96
NMTAP	7	96	0
NMHLD	7	192	6	96
NMTAP	7	288	7
NMTAP	8	0	0
NMTAP	8	0	1
NMTAP	8	96	3
NMTAP	8	192	2
NMTAP	8	192	4
NMTAP	8	288	1
NMTAP	8	288	5
NMHLD	9	0	2	288
NMTAP	9	0	4
NMTAP	9	192	3
NMTAP	9	288	4
NMTAP	10	0	3
NMHLD	10	0	5	288
NMTAP	10	192	4
NMTAP	10	288	3
NMHLD	11	0	2	192
NMTAP	11	0	4
NMTAP	11	192	3
NMTAP	11	288	1
NMTAP	11	288	4
NMTAP	12	0	0
NMHLD	12	0	5	192
NMTAP	12	192	4
NMTAP	12	288	3
NMTAP	12	288	6
NMHLD	13	0	2	96
NMHLD	13	0	7	96
NMHLD	13	192	1	96
NMTAP	13	288	0
EXTAP	14	0	0
EXTAP	14	0	1
NMTAP	14	96	2
NMTAP	14	192	2
NMTAP	14	192	3
NMSTR	14	288	2
NMSCL	14	288	2	96	96	7
NMTAP	14	288	3
NMTAP	15	192	6
NMTAP	15	288	0
NMTAP	15	288	6
NMHLD	16	0	1	96
NMTAP	16	0	7
NMHLD	16	96	3	96
BRHLD	16	192	4	96
NMTAP	17	0	5
NMTAP	17	48	5
NMTAP	17	96	4
NMTAP	17	96	6
NMTAP	17	192	2
NMTAP	17	240	2
NMTAP	17	288	1
NMTAP	17	288	3
NMSTR	18	0	0
NMSI_	18	0	0	96	96	4
NMSTR	18	192	6
NMSI_	18	192	6	96	96	2
NMTAP	19	0	1
NMTAP	19	48	1
NMTAP	19	96	0
NMTAP	19	96	2
NMTAP	19	192	6
NMTAP	19	240	6
NMTAP	19	288	5
NMTAP	19	288	7
NMHLD	20	0	5	96
NMHLD	20	96	4	96
NMTAP	20	192	3
NMTAP	20	288	2
NMTAP	20	288	3
NMSTR	21	0	1
NMSCR	21	0	1	96	96	4
NMTAP	21	192	5
NMTAP	21	240	5
NMTAP	21	288	4
NMTAP	21	288	5
NMTAP	22	0	3
NMSTR	22	0	6
NMSCR	22	0	6	96	96	1
NMTAP	22	192	2
NMTAP	22	240	2
NMTAP	22	288	2
NMTAP	22	288	3
NMSTR	23	0	1
NMSCL	23	0	1	96	96	6
NMTAP	23	0	4
NMTAP	23	192	5
NMTAP	23	240	5
NMTAP	23	288	4
NMTAP	23	288	5
NMSTR	24	0	6
NMSUL	24	0	6	96	96	2
NMTAP	24	192	0
NMTAP	24	240	0
NMTAP	24	288	0
NMTAP	25	0	1
NMHLD	25	0	7	1536
NMTTP	25	192	2	E	0	M1
NMTTP	25	288	3	E	0	M1
NMTTP	26	0	4	B	0	M1
NMTTP	26	0	4	E	0	M1
NMTTP	26	192	0	C	0	M1
NMTTP	27	0	6	E	0	M1
NMTTP	27	96	0	C	0	M1
NMTTP	27	192	2	E	0	M1
NMTTP	27	288	1	E	0	M1
NMTTP	28	0	0	E	0	M1
NMTTP	28	96	0	C	0	M1
NMTTP	28	192	4	E	0	M1
NMTTP	28	288	3	E	0	M1
NMTHO	29	0	0	384	C	1	M1
NMSTR	31	0	0
NMSCR	31	0	0	96	96	3
NMSTR	31	0	7
NMSCL	31	0	7	96	96	4
EXTAP	31	288	3
EXTAP	31	288	4
BRTAP	32	0	0
BRTAP	32	0	1
NMTAP	32	96	6
NMTAP	32	96	7
NMTAP	32	192	4
NMTAP	32	192	5
NMTAP	32	288	1
NMTAP	32	288	3
NMTAP	33	0	0
NMTAP	33	0	7
NMTAP	33	96	4
NMTAP	33	96	5
NMTAP	33	192	3
NMTAP	33	192	6
NMTAP	33	288	2
NMTAP	33	288	4
NMHLD	34	0	1	72
NMHLD	34	72	2	72
NMTAP	34	144	3
NMHLD	34	192	6	72
NMHLD	34	264	5	72
NMTAP	34	336	4
NMHLD	35	0	1	72
NMHLD	35	72	2	72
NMTAP	35	144	3
NMTAP	35	192	3
BRTAP	35	288	1
BRTAP	35	288	5
NMSTR	36	0	6
NMSI_	36	0	6	96	48	3
NMTAP	36	0	7
NMTAP	36	192	0
NMSTR	36	192	1
NMSI_	36	192	1	96	48	4
NMSTR	37	0	6
NMSI_	37	0	6	96	48	3
NMTAP	37	0	7
NMTAP	37	192	0
NMSTR	37	192	1
NMSI_	37	192	1	96	48	5
BRTAP	38	0	6
BRTAP	38	0	7
NMTAP	38	96	5
NMTAP	38	144	4
NMTAP	38	192	3
NMTAP	38	288	0
NMTAP	38	288	1
NMTAP	38	336	0
NMTAP	38	336	1
NMTAP	39	48	2
NMTAP	39	48	7
NMSTR	39	96	2
NMSCL	39	96	2	96	96	7
NMSTR	39	96	7
NMSCL	39	96	7	96	96	4
EXTAP	40	0	4
EXTAP	40	0	5
NMTAP	40	96	0
NMTAP	40	96	7
NMTAP	40	192	2
NMTAP	40	192	3
NMTAP	40	288	5
NMTAP	40	336	4
NMTAP	40	336	6
NMTAP	41	48	0
NMTAP	41	48	1
NMSTR	41	96	0
NMSUR	41	96	0	96	96	5
NMSTR	41	96	1
NMSCR	41	96	1	96	96	4
NMTAP	42	0	0
NMTAP	42	0	6
NMTAP	42	96	2
NMTAP	42	96	3
NMTAP	42	192	1
NMTAP	42	192	7
NMTAP	42	288	4
NMTAP	42	288	5
NMHLD	43	0	2	48
NMHLD	43	0	7	48
NMHLD	43	96	0	48
NMHLD	43	96	6	48
NMHLD	43	192	1	48
NMHLD	43	192	7	48
NMHLD	43	288	0	48
NMHLD	43	288	5	48
BRTAP	44	0	2
BRTAP	44	0	7
NMTAP	44	96	4
NMTAP	44	96	5
NMTAP	44	192	1
NMTAP	44	192	3
BRTAP	44	288	6
BRTAP	44	288	7
NMTAP	45	0	0
NMTAP	45	0	1
NMSTR	45	96	2
NMSI_	45	96	2	96	96	6
NMTAP	45	96	3
BRTAP	46	0	7
NMTAP	46	96	0
NMHLD	46	192	1	96
NMHLD	46	192	7	96
NMHLD	47	0	0	96
NMSTR	47	0	6
NMSCL	47	0	6	96	96	3
NMTAP	47	192	1
NMHLD	47	288	2	384
NMTAP	48	0	3
NMTAP	48	96	1
NMTAP	48	192	0
NMTAP	48	288	0
NMSTR	49	0	1
NMSCR	49	0	1	96	96	4
NMHLD	49	0	7	96
NMTAP	49	192	5
NMTAP	49	288	4
NMHLD	49	288	6	96
BRTAP	50	0	7
NMSTR	50	96	0
NMSCR	50	96	0	96	96	3
NMSTR	50	96	6
NMSCL	50	96	6	96	96	3
NMHLD	51	0	2	96
NMTAP	51	96	3
NMTAP	51	192	5
NMTAP	51	240	5
NMTAP	51	288	4
NMHLD	52	0	1	96
NMTAP	52	96	3
NMTAP	52	192	5
NMTAP	52	240	5
NMTAP	52	288	4
NMTAP	52	288	6
BRTAP	53	0	2
BRTAP	53	0	3
NMSTR	53	96	1
NMSUR	53	96	1	96	144	6
NMTAP	53	96	4
EXTAP	54	0	7
EXTAP	54	48	7
NMTAP	54	96	0
NMTAP	54	192	0
NMTAP	54	192	7
NMSTR	54	288	1
NMSCL	54	288	1	96	192	3
NMTAP	54	288	6
NMTAP	55	288	2
NMSTR	55	288	3
NMSCR	55	288	3	96	192	1
NMHLD	56	288	2	672
NMSTR	56	288	3
BRSI_	56	288	3	96	48	7
NMSTR	58	192	7
BRSI_	58	192	7	96	48	3
BRTAP	59	0	2
BRTAP	59	0	4
NMTAP	59	96	6
NMTAP	59	96	7
NMTAP	59	192	0
NMTAP	59	192	1
NMTAP	59	288	3
NMTAP	59	288	5
NMTAP	60	0	6
NMTAP	60	0	7
NMTAP	60	96	1
NMTAP	60	96	3
NMTAP	60	192	4
NMTAP	60	192	5
NMTAP	60	288	3
NMTAP	60	288	6
NMHLD	61	0	5	72
NMHLD	61	72	6	72
NMTAP	61	144	7
NMHLD	61	192	2	72
NMHLD	61	264	1	72
NMTAP	61	336	0
NMHLD	62	0	6	72
NMHLD	62	72	5	72
NMTAP	62	144	4
NMTAP	62	192	4
BRTAP	62	288	2
BRTAP	62	288	6
NMSTR	63	0	0
NMSI_	63	0	0	96	48	4
NMSTR	63	0	1
NMSI_	63	0	1	96	48	4
NMSTR	63	192	6
NMSI_	63	192	6	96	48	3
NMSTR	63	192	7
NMSI_	63	192	7	96	48	3
NMSTR	64	0	0
NMSI_	64	0	0	96	48	4
NMSTR	64	0	1
NMSI_	64	0	1	96	48	4
NMSTR	64	192	6
NMSI_	64	192	6	96	48	3
NMSTR	64	192	7
NMSI_	64	192	7	96	48	3
BRTAP	65	0	0
BRTAP	65	0	1
NMTAP	65	96	2
NMTAP	65	144	3
NMTAP	65	192	4
NMTAP	65	288	0
NMTAP	65	288	6
NMTAP	65	336	0
NMTAP	65	336	6
NMTAP	66	48	1
NMTAP	66	48	5
NMSTR	66	96	1
NMSCR	66	96	1	96	96	4
NMSTR	66	96	5
NMSCR	66	96	5	96	96	0
NMTAP	67	0	3
NMHLD	67	0	7	96
NMHLD	67	96	5	96
NMHLD	67	192	3	96
NMTAP	67	288	2
BRTAP	67	336	2
BRTAP	68	48	4
BRTAP	68	48	5
BRTAP	68	144	1
BRTAP	68	144	2
BRTAP	68	240	6
BRTAP	68	240	7
BRTAP	68	288	0
BRTAP	68	288	5
BXSTR	69	0	1
NMSI_	69	0	1	96	48	3
BXSTR	69	0	4
NMSI_	69	0	4	96	48	0
BXSTR	69	192	3
NMSI_	69	192	3	96	48	7
BXSTR	69	192	6
NMSI_	69	192	6	96	48	4
BXSTR	70	0	1
NMSI_	70	0	1	96	48	3
BXSTR	70	0	4
NMSI_	70	0	4	96	48	0
NMTAP	70	192	2
NMTAP	70	192	7
NMTAP	70	288	4
NMTAP	70	288	5
BRTAP	71	0	1
BRTAP	71	0	3
NMTAP	71	96	0
NMTAP	71	96	7
NMTAP	71	192	4
NMTAP	71	192	5
EXTAP	71	288	0
EXTAP	71	288	2
NMTAP	72	0	1
NMSTR	72	0	7
NMSI_	72	0	7	96	48	3
NMSTR	72	96	0
NMSI_	72	96	0	96	48	4
NMSTR	72	192	6
NMSI_	72	192	6	96	48	2
NMSTR	72	288	1
NMSCL	72	288	1	96	288	3
EXTAP	73	288	7
NMTTP	74	0	0	C	1	M1
NMTTP	74	0	1	B	0	M1
NMTTP	74	0	2	B	0	M1
NMTTP	74	0	4	B	0	M1
NMTTP	74	0	5	B	0	M1

T_REC_TAP	198
T_REC_BRK	31
T_REC_XTP	13
T_REC_BXX	0
T_REC_HLD	48
T_REC_XHO	0
T_REC_BHO	1
T_REC_BXH	0
T_REC_STR	41
T_REC_BST	0
T_REC_XST	0
T_REC_XBS	6
T_REC_TTP	18
T_REC_THO	1
T_REC_SLD	45
T_REC_BSL	2
T_REC_ALL	404
T_NUM_TAP	270
T_NUM_BRK	40
T_NUM_HLD	49
T_NUM_SLD	45
T_NUM_ALL	404
T_JUDGE_TAP	307
T_JUDGE_HLD	190
T_JUDGE_SLD	47
T_JUDGE_ALL	544
TTM_EACHPAIRS	116
TTM_SCR_TAP	135000
TTM_SCR_BRK	104000
TTM_SCR_HLD	49000
TTM_SCR_SLD	67500
TTM_SCR_ALL	355500
TTM_SCR_S	341000
TTM_SCR_SS	351500
TTM_RAT_ACV	10113

