VERSION	0.00.00	1.04.00
FES_MODE	0
BPM_DEF	170.000	170.000	170.000	170.000
MET_DEF	4	4
RESOLUTION	384
CLK_DEF	384
COMPATIBLE_CODE	MA2

BPM	0	0	170.000
MET	0	0	4	4

NMSTR	2	0	2
NMSCL	2	0	2	96	288	5
NMHLD	2	0	4	1440
NMTAP	3	192	5
NMTAP	3	288	5
NMSTR	4	0	5
NMSCR	4	0	5	96	288	2
NMTAP	5	192	3
NMTAP	5	288	3
NMTAP	6	0	2
NMSTR	6	0	5
NMSI_	6	0	5	96	48	3
NMTAP	6	96	1
NMHLD	6	192	1	96
NMTAP	6	288	3
NMSTR	7	0	2
NMSI_	7	0	2	96	48	4
NMTAP	7	0	4
NMTAP	7	96	5
NMHLD	7	192	5	96
NMTAP	7	288	4
NMTAP	8	0	3
NMTAP	8	48	3
NMTAP	8	96	4
NMTAP	8	144	4
NMTAP	8	192	3
NMTAP	8	192	5
NMTAP	8	240	2
NMTAP	8	240	6
NMTAP	8	288	1
NMTAP	8	288	7
NMHLD	8	336	0	336
NMTTP	9	288	3	A	0	M1
NMTTP	9	288	4	E	0	M1
NMTTP	9	288	4	A	0	M1
BRTAP	10	0	2
NMTAP	10	0	6
NMTAP	10	48	5
NMHLD	10	96	3	96
NMTAP	10	192	4
NMTAP	10	240	5
NMHLD	10	288	6	96
NMTAP	11	0	7
NMTAP	11	48	0
NMHLD	11	96	1	96
NMSTR	11	192	3
NMSI_	11	192	3	96	48	5
NMTAP	11	240	3
NMTAP	11	288	2
NMSTR	12	0	1
NMSI_	12	0	1	96	48	3
NMTAP	12	48	1
NMTAP	12	96	5
NMSTR	12	192	6
NMSI_	12	192	6	96	48	4
NMTAP	12	240	6
NMTAP	12	288	3
NMTAP	13	0	2
NMTAP	13	0	3
NMTAP	13	48	1
NMTAP	13	96	2
NMTAP	13	96	4
NMTAP	13	144	1
NMTAP	13	192	2
NMTAP	13	192	3
NMTAP	13	288	0
NMTAP	13	288	6
NMTAP	14	0	1
NMTAP	14	0	5
NMTAP	14	48	2
NMHLD	14	96	4	96
NMTAP	14	192	3
NMTAP	14	240	2
NMHLD	14	288	1	96
NMTAP	15	0	0
NMTAP	15	48	7
NMHLD	15	96	6	96
NMSTR	15	192	4
NMSI_	15	192	4	96	48	2
NMTAP	15	240	4
NMTAP	15	288	5
NMSTR	16	0	6
NMSI_	16	0	6	96	48	4
NMTAP	16	48	6
NMTAP	16	96	2
NMSTR	16	192	1
NMSI_	16	192	1	96	48	3
NMTAP	16	240	1
NMTAP	16	288	4
NMSTR	17	0	6
NMSCL	17	0	6	96	96	2
NMTAP	17	48	6
NMTAP	17	96	2
NMTAP	17	144	1
NMSTR	17	192	0
NMSI_	17	192	0	96	48	3
NMSI_	17	192	0	96	48	5
BRHLD	18	0	2	384
NMTAP	18	0	6
NMHLD	19	0	4	240
NMTTP	19	144	3	B	0	M1
NMTTP	19	144	4	B	0	M1
NMTTP	19	144	4	E	0	M1
NMTAP	19	240	2
NMHLD	19	288	2	96
NMTAP	20	0	3
NMTAP	20	96	5
NMTAP	20	144	4
NMHLD	20	144	6	96
NMTAP	20	240	7
NMTAP	20	288	7
NMTAP	21	0	0
NMTAP	21	0	5
NMTAP	21	96	1
NMHLD	21	144	1	96
NMTAP	21	240	3
NMSTR	21	288	3
NMSI_	21	288	3	96	96	6
EXTAP	22	0	2
NMTAP	22	96	1
CNSCL	22	96	6	0	96	4
EXTAP	22	192	0
CNSI_	22	192	4	0	96	0
NMHLD	22	288	1	96
NMTAP	23	0	0
NMTAP	23	96	0
NMTAP	23	96	1
NMTAP	23	144	0
NMTAP	23	144	1
NMTAP	23	240	2
NMHLD	23	288	1	96
NMTAP	23	288	3
NMTAP	24	0	5
NMTAP	24	96	6
NMHLD	24	144	6	96
NMTAP	24	240	4
NMSTR	24	288	4
NMSV_	24	288	4	96	96	6
NMSTR	25	0	6
NMSCR	25	0	6	96	96	0
EXTAP	25	96	5
EXTAP	25	144	5
NMTAP	25	240	1
NMTAP	25	240	7
NMTAP	25	288	1
NMTAP	25	288	7
NMHLD	26	0	1	48
NMTAP	26	48	3
NMTAP	26	96	1
NMTAP	26	144	3
NMHLD	26	192	2	48
NMTAP	26	240	4
NMTAP	26	288	3
NMTAP	26	336	3
NMHLD	27	0	6	48
NMTAP	27	48	4
NMTAP	27	96	6
NMTAP	27	144	4
NMTAP	27	192	5
NMTAP	27	240	4
NMSTR	27	288	3
NMSI_	27	288	3	96	48	0
NMSTR	28	0	7
NMSCL	28	0	7	96	48	4
NMSCR	28	0	7	96	48	2
EXTAP	28	192	2
EXTAP	28	192	4
NMTAP	28	240	3
NMTAP	28	288	2
NMTAP	28	288	4
NMTAP	28	336	5
NMHLD	29	0	6	48
NMTAP	29	48	4
NMHLD	29	96	5	48
NMTAP	29	144	3
NMTAP	29	192	2
NMTAP	29	192	6
NMTAP	29	288	3
NMTAP	29	288	7
NMHLD	30	0	5	48
NMTAP	30	48	4
NMTAP	30	96	6
NMTAP	30	144	4
NMHLD	30	192	5	48
NMTAP	30	240	4
NMTAP	30	288	6
NMTAP	30	336	6
NMTAP	31	0	5
NMTAP	31	48	4
NMTAP	31	96	3
NMTAP	31	144	3
NMTAP	31	192	2
NMHLD	31	192	4	96
NMSTR	31	288	1
NMSCL	31	288	1	96	96	6
NMTTP	32	0	4	E	0	M1
NMSTR	32	96	5
NMSCL	32	96	5	96	96	2
NMTTP	32	192	0	C	0	M1
NMHLD	32	288	0	96
NMTTP	33	0	0	E	0	M1
NMTAP	33	96	7
NMTAP	33	144	7
EXTAP	33	192	0
EXTAP	33	192	6
EXTAP	33	240	1
EXTAP	33	240	5
BRSTR	34	0	2
NMSCL	34	0	2	96	48	0
BRSTR	34	0	6
NMSCL	34	0	6	96	48	4
NMTAP	34	96	2
NMTAP	34	96	6
NMSTR	34	192	3
NMSI_	34	192	3	96	48	6
NMSTR	34	192	7
NMSI_	34	192	7	96	48	2
NMTAP	34	288	3
NMTAP	34	288	7
NMSTR	35	0	7
NMSCL	35	0	7	96	48	4
NMSTR	35	96	7
NMSCR	35	96	7	96	48	2
NMSTR	35	192	3
NMSF_	35	192	3	96	48	7
NMTAP	35	192	7
EXTAP	36	0	0
EXTAP	36	0	6
NMTAP	36	48	1
NMTAP	36	96	2
NMTAP	36	96	3
NMTAP	36	144	4
NMTAP	36	192	3
NMTAP	36	192	5
NMTAP	36	240	6
NMTAP	36	288	0
NMTAP	36	288	7
NMTAP	36	336	1
NMSTR	37	0	2
NMSI_	37	0	2	96	48	4
NMSTR	37	48	6
NMSI_	37	48	6	96	48	2
NMTAP	37	96	2
NMTAP	37	144	6
NMTAP	37	192	0
NMSTR	37	288	1
NMSI_	37	288	1	96	48	3
NMSTR	37	288	7
NMSI_	37	288	7	96	48	3
NMSTR	38	0	1
NMSI_	38	0	1	96	48	5
NMSTR	38	0	7
NMSI_	38	0	7	96	48	5
NMTAP	38	96	1
NMSTR	38	96	7
NMSI_	38	96	7	96	48	3
NMTAP	38	192	2
NMTAP	38	192	7
NMSTR	38	288	0
NMSCR	38	288	0	96	48	3
NMSTR	38	288	4
NMSCR	38	288	4	96	48	7
NMSTR	39	0	0
NMSUL	39	0	0	96	48	4
NMSTR	39	0	4
NMSUL	39	0	4	96	48	0
NMSTR	39	96	0
NMSCR	39	96	0	96	48	3
NMSTR	39	96	4
NMSCR	39	96	4	96	48	7
NMTAP	39	192	0
NMTAP	39	192	4
NMTAP	39	288	2
NMTAP	39	288	6
NMTAP	40	0	0
NMTAP	40	0	5
NMTAP	40	48	4
NMSTR	40	96	2
NMSI_	40	96	2	96	48	7
NMTAP	40	144	2
NMSTR	40	192	6
NMSI_	40	192	6	96	48	2
NMTAP	40	240	6
NMTAP	40	288	0
BRHLD	40	336	1	96
NMTAP	41	48	0
NMTAP	41	96	2
NMTAP	41	96	7
NMTAP	41	144	3
NMTAP	41	144	6
NMSTR	41	192	5
NMSCR	41	192	5	96	48	0
NMTAP	41	288	4
NMTAP	41	288	5
NMHLD	42	0	2	48
NMTTP	42	48	0	E	0	M1
NMTTP	42	48	7	B	0	M1
NMHLD	42	96	2	48
NMTTP	42	144	5	B	0	M1
NMTTP	42	144	6	E	0	M1
NMHLD	42	192	2	48
NMTTP	42	240	3	B	0	M1
NMTTP	42	240	4	E	0	M1
NMTAP	42	288	1
NMTAP	42	336	1
NMTAP	43	0	0
NMTAP	43	0	6
NMSTR	43	48	0
NMSCL	43	48	0	96	48	5
NMTAP	43	48	6
NMTAP	43	144	4
NMSTR	43	192	4
NMSI_	43	192	4	96	48	0
NMTAP	43	288	3
NMHLD	44	0	2	48
NMTTP	44	48	0	E	0	M1
NMTTP	44	48	7	B	0	M1
NMHLD	44	96	2	48
NMTTP	44	144	5	B	0	M1
NMTTP	44	144	6	E	0	M1
NMHLD	44	192	2	48
NMTTP	44	240	3	B	0	M1
NMTTP	44	240	4	E	0	M1
NMTAP	44	288	1
NMTAP	44	336	1
NMTAP	45	0	0
NMTAP	45	0	5
NMSTR	45	48	0
NMSCL	45	48	0	96	48	5
NMTAP	45	48	5
NMTAP	45	144	4
NMSTR	45	192	4
NMSV_	45	192	4	96	48	1
NMSV_	45	192	4	96	48	7
NMTAP	46	0	0
EXTAP	46	48	1
EXTAP	46	48	7
NMTAP	46	96	2
EXTAP	46	144	1
EXTAP	46	144	3
NMTAP	46	192	4
EXTAP	46	240	3
EXTAP	46	240	5
NMTAP	46	288	6
EXTAP	46	336	5
EXTAP	46	336	7
NMTAP	47	0	0
NMTAP	47	0	4
NMTAP	47	48	0
NMSTR	47	48	4
NMSCR	47	48	4	96	96	2
NMTAP	47	144	3
NMSTR	47	192	3
NMSF_	47	192	3	96	48	7
EXTAP	48	0	1
EXTAP	48	0	5
EXTAP	48	48	1
EXTAP	48	48	5
NMTAP	48	144	3
NMTAP	48	192	2
NMTAP	48	192	4
NMTAP	48	240	3
NMTAP	48	240	5
NMTAP	48	288	4
NMTAP	48	288	6
NMTTP	48	336	0	C	1	M1
BRTAP	48	336	7
NMTAP	49	48	0
NMTAP	49	48	6
NMSTR	49	96	1
NMSV_	49	96	1	96	48	3
NMSTR	49	96	5
NMSV_	49	96	5	96	48	7
NMTAP	49	192	1
NMTAP	49	192	5
BRTAP	50	0	0
NMTAP	50	0	4
NMTAP	50	48	5
NMTAP	50	96	2
NMHLD	50	96	6	96
NMTAP	50	192	7
NMTAP	50	240	0
NMHLD	50	288	1	96
NMTAP	50	288	7
NMTAP	51	0	0
NMTAP	51	48	1
NMHLD	51	96	2	96
NMTAP	51	96	4
NMSTR	51	192	3
NMSI_	51	192	3	96	48	6
NMTAP	51	240	3
NMTAP	51	288	1
NMSTR	52	0	0
NMSI_	52	0	0	96	48	3
NMTAP	52	48	0
NMTAP	52	96	6
NMSTR	52	192	5
NMSI_	52	192	5	96	48	0
NMTAP	52	240	5
NMTAP	52	288	3
EXTAP	53	0	0
NMTAP	53	0	1
NMTAP	53	48	2
NMTAP	53	96	1
NMTAP	53	96	7
NMTAP	53	144	2
NMTAP	53	192	0
NMTAP	53	192	1
NMTAP	53	288	0
NMTAP	53	288	7
NMTAP	54	0	6
NMTAP	54	48	7
NMHLD	54	96	0	96
NMTAP	54	96	5
NMTAP	54	192	4
NMTAP	54	240	5
NMTAP	54	288	2
NMHLD	54	288	6	96
NMTAP	55	0	7
NMTAP	55	48	6
NMTAP	55	96	3
NMHLD	55	96	5	96
NMSTR	55	192	4
NMSI_	55	192	4	96	48	1
NMTAP	55	240	4
NMTAP	55	288	6
NMSTR	56	0	7
NMSI_	56	0	7	96	48	4
NMTAP	56	48	7
NMTAP	56	96	1
NMSTR	56	192	2
NMSI_	56	192	2	96	48	7
NMTAP	56	240	2
NMTAP	56	288	4
NMTAP	57	0	6
EXTAP	57	0	7
NMTAP	57	48	5
NMTAP	57	96	0
NMTAP	57	96	6
NMTAP	57	144	5
NMTAP	57	192	6
NMTAP	57	192	7
NMSTR	57	288	0
NMSCR	57	288	0	96	192	3
BRHLD	58	0	6	480
NMHLD	59	0	3	96
NMTAP	59	192	4
NMTAP	59	192	5
NMSTR	59	288	4
NMSCL	59	288	4	96	192	0
NMTAP	59	288	5
NMHLD	60	0	6	480
NMHLD	61	0	7	96
EXTAP	61	192	0
EXTAP	61	192	7
NMSTR	61	288	0
NMSUL	61	288	0	96	192	3
NMTAP	61	288	1
NMHLD	62	0	2	480
NMHLD	63	0	3	96
NMTAP	63	192	3
NMTAP	63	192	4
NMSTR	63	288	4
NMSUL	63	288	4	96	192	3
NMTAP	63	288	5
NMHLD	64	0	6	480
NMHLD	65	0	3	96
NMTAP	65	192	4
NMTAP	65	192	5
NMSTR	65	288	3
NMSCL	65	288	3	96	192	0
NMTAP	65	288	5
NMTAP	66	0	5
NMTAP	66	96	5
NMTAP	66	192	5
NMSTR	66	288	0
NMSUR	66	288	0	96	192	4
NMTAP	66	288	5
NMTAP	67	0	5
NMTAP	67	96	5
NMTAP	67	192	5
NMSTR	67	288	4
NMSCL	67	288	4	96	192	0
NMTAP	67	288	5
NMTAP	68	0	5
NMTAP	68	96	5
NMTAP	68	192	5
NMTAP	68	288	0
NMSTR	68	288	5
NMSUL	68	288	5	96	192	3
NMTAP	69	0	0
EXTAP	69	96	1
EXTAP	69	192	1
NMTAP	69	288	2
NMSTR	69	288	3
NMSUR	69	288	3	96	192	0
NMTAP	70	0	2
NMTAP	70	96	2
NMTAP	70	192	2
NMSTR	70	288	0
NMSCL	70	288	0	96	192	3
NMTAP	70	288	2
NMTAP	71	0	2
NMTAP	71	96	2
NMTAP	71	192	2
NMTAP	71	288	2
NMSTR	71	288	3
NMSUR	71	288	3	96	192	4
NMTAP	72	0	2
NMTAP	72	96	2
NMTAP	72	192	2
NMTAP	72	288	2
NMTAP	72	288	4
NMTAP	73	0	3
NMTAP	73	0	5
NMSTR	73	96	4
NMSF_	73	96	4	96	96	0
NMTAP	73	96	6
NMHLD	74	0	2	72
NMTAP	74	0	6
NMHLD	74	72	3	72
NMTAP	74	144	4
NMHLD	74	192	6	72
NMHLD	74	264	5	72
NMTAP	74	336	4
NMHLD	75	0	3	72
NMHLD	75	72	2	72
NMTAP	75	144	1
NMTAP	75	192	0
NMTAP	75	192	1
NMTAP	75	240	2
NMTAP	75	240	7
NMSTR	76	0	1
NMSI_	76	0	1	96	48	4
BRSTR	76	0	5
NMSI_	76	0	5	96	48	0
NMTAP	76	96	1
NMTAP	76	96	5
NMSTR	76	192	3
NMSCL	76	192	3	96	48	0
NMSTR	76	192	6
NMSCL	76	192	6	96	48	3
NMTAP	76	288	3
NMTAP	76	288	6
NMSTR	77	0	7
NMSI_	77	0	7	96	48	2
NMSTR	77	96	7
NMSCL	77	96	7	96	48	4
NMSTR	77	192	3
NMSI_	77	192	3	96	48	1
NMSI_	77	192	3	96	48	7
NMTAP	77	192	7
EXTAP	78	0	0
EXTAP	78	0	6
NMTAP	78	48	1
NMTAP	78	96	2
NMTAP	78	96	4
NMTAP	78	144	5
NMTAP	78	192	2
NMTAP	78	192	4
NMTAP	78	240	1
NMTAP	78	288	3
NMTAP	78	288	4
NMTAP	78	336	5
NMSTR	79	0	6
NMSI_	79	0	6	96	48	3
NMTAP	79	48	6
NMSTR	79	96	2
NMSI_	79	96	2	96	48	7
NMTAP	79	144	2
EXTAP	79	192	5
NMSTR	79	288	0
NMSI_	79	288	0	96	48	4
NMSTR	79	288	6
NMSI_	79	288	6	96	48	4
NMSTR	80	0	0
NMSI_	80	0	0	96	48	2
NMSTR	80	0	6
NMSI_	80	0	6	96	48	2
NMSTR	80	96	0
NMSI_	80	96	0	96	48	4
NMTAP	80	96	6
NMTAP	80	192	0
NMTAP	80	192	5
NMSTR	80	288	3
NMSCL	80	288	3	96	48	0
NMSTR	80	288	7
NMSCL	80	288	7	96	48	4
NMSTR	81	0	3
NMSUR	81	0	3	96	48	7
NMSTR	81	0	7
NMSUR	81	0	7	96	48	3
NMSTR	81	96	3
NMSCL	81	96	3	96	48	0
NMSTR	81	96	7
NMSCL	81	96	7	96	48	4
NMTAP	81	192	3
NMTAP	81	192	7
NMTAP	81	288	1
NMTAP	81	288	5
NMTAP	82	0	2
NMTAP	82	0	7
NMTAP	82	48	3
NMSTR	82	96	5
NMSI_	82	96	5	96	48	0
NMTAP	82	144	5
NMSTR	82	192	1
NMSI_	82	192	1	96	48	5
NMTAP	82	240	1
NMTAP	82	288	7
BRHLD	82	336	6	96
NMTAP	83	48	7
NMTAP	83	96	0
NMTAP	83	96	5
NMTAP	83	144	1
NMTAP	83	144	4
NMSTR	83	192	2
NMSCL	83	192	2	96	48	7
NMTAP	83	288	2
NMTAP	83	288	3
NMHLD	84	0	5	48
NMTTP	84	48	0	B	0	M1
NMTTP	84	48	0	E	0	M1
NMHLD	84	96	5	48
NMTTP	84	144	2	B	0	M1
NMTTP	84	144	2	E	0	M1
NMHLD	84	192	5	48
NMTTP	84	240	4	B	0	M1
NMTTP	84	240	4	E	0	M1
NMTAP	84	288	6
NMTAP	84	336	6
NMTAP	85	0	2
NMTAP	85	0	7
NMTAP	85	48	2
NMSTR	85	48	7
NMSCR	85	48	7	96	48	2
NMTAP	85	144	3
NMSTR	85	192	3
NMSI_	85	192	3	96	48	7
NMTAP	85	288	4
NMHLD	86	0	5	48
NMTTP	86	48	0	B	0	M1
NMTTP	86	48	0	E	0	M1
NMHLD	86	96	5	48
NMTTP	86	144	2	B	0	M1
NMTTP	86	144	2	E	0	M1
NMHLD	86	192	5	48
NMTTP	86	240	4	B	0	M1
NMTTP	86	240	4	E	0	M1
NMTAP	86	288	6
NMTAP	86	336	6
NMTAP	87	0	1
NMTAP	87	0	7
NMTAP	87	48	1
NMSTR	87	48	7
NMSCR	87	48	7	96	48	2
NMTAP	87	144	3
NMSTR	87	192	3
NMSV_	87	192	3	96	48	0
NMSV_	87	192	3	96	48	6
NMTAP	88	0	7
EXTAP	88	48	0
EXTAP	88	48	6
NMTAP	88	96	5
EXTAP	88	144	4
EXTAP	88	144	6
NMTAP	88	192	3
EXTAP	88	240	2
EXTAP	88	240	4
NMTAP	88	288	1
EXTAP	88	336	0
EXTAP	88	336	2
NMTAP	89	0	3
NMTAP	89	0	7
NMSTR	89	48	3
NMSCL	89	48	3	96	96	5
NMTAP	89	48	7
NMTAP	89	144	4
NMSTR	89	192	4
NMSF_	89	192	4	96	48	0
EXTAP	90	0	2
EXTAP	90	0	6
EXTAP	90	48	2
EXTAP	90	48	6
NMTAP	90	96	3
NMTAP	90	96	5
NMTAP	90	144	4
NMTAP	90	192	3
NMTAP	90	192	5
NMTAP	90	240	2
NMTAP	90	240	4
NMTAP	90	288	1
NMTAP	90	288	3
NMTAP	90	336	0
BRTAP	90	336	4
NMTAP	91	48	2
NMTAP	91	48	6
NMSTR	91	96	2
NMSV_	91	96	2	96	48	0
NMSTR	91	96	6
NMSV_	91	96	6	96	48	4
NMTAP	91	192	2
NMTAP	91	192	6
NMTAP	92	0	1
BRTAP	92	0	5
NMTAP	92	48	2
NMHLD	92	96	4	96
NMSTR	92	192	3
NMSI_	92	192	3	96	48	1
NMTAP	92	240	3
NMTAP	92	288	4
NMSTR	93	0	5
NMSI_	93	0	5	96	48	3
NMTAP	93	48	5
NMTAP	93	96	1
NMSTR	93	192	0
NMSI_	93	192	0	96	48	4
NMTAP	93	240	0
NMTAP	93	288	3
NMSTR	94	0	6
NMSI_	94	0	6	96	48	1
NMTAP	94	48	6
NMTAP	94	96	4
NMSTR	94	192	2
NMSI_	94	192	2	96	48	5
NMTAP	94	240	2
NMTAP	94	288	0
NMTAP	95	0	6
NMTAP	95	0	7
NMTAP	95	48	5
NMTAP	95	96	3
NMSTR	95	96	4
NMSI_	95	96	4	96	48	0
NMTAP	95	144	2
NMHLD	95	192	1	96
EXTAP	95	288	7
NMSTR	96	0	6
NMSI_	96	0	6	96	48	3
NMTAP	96	48	6
NMTAP	96	96	7
NMSTR	96	192	1
NMSI_	96	192	1	96	48	3
NMTAP	96	240	1
NMTAP	96	288	3
NMSTR	97	0	5
NMSI_	97	0	5	96	48	3
NMTAP	97	48	5
NMTAP	97	96	3
NMSTR	97	192	1
NMSI_	97	192	1	96	48	4
NMTAP	97	240	1
NMTAP	97	288	0
NMSTR	98	0	6
NMSCL	98	0	6	96	48	3
NMTAP	98	48	7
NMTAP	98	96	0
NMTAP	98	144	1
NMSTR	98	192	2
NMSCL	98	192	2	96	48	7
NMTAP	98	240	3
NMTAP	98	288	4
NMTAP	98	336	5
NMTAP	99	0	4
NMTAP	99	0	6
NMTAP	99	48	3
NMTAP	99	48	5
NMTAP	99	96	2
NMTAP	99	96	4
NMTAP	99	144	1
NMTAP	99	144	5
NMTAP	99	192	0
NMTAP	99	192	6
NMTAP	99	240	0
NMTAP	99	264	7
NMTAP	99	288	1
NMTAP	99	312	6
NMTAP	99	336	2
NMTAP	99	360	5
NMTTP	100	0	4	E	1	M1

T_REC_TAP	401
T_REC_BRK	5
T_REC_XTP	46
T_REC_BXX	0
T_REC_HLD	59
T_REC_XHO	0
T_REC_BHO	4
T_REC_BXH	0
T_REC_STR	108
T_REC_BST	3
T_REC_XST	0
T_REC_XBS	0
T_REC_TTP	35
T_REC_THO	0
T_REC_SLD	116
T_REC_BSL	0
T_REC_ALL	777
T_NUM_TAP	590
T_NUM_BRK	12
T_NUM_HLD	59
T_NUM_SLD	116
T_NUM_ALL	777
T_JUDGE_TAP	598
T_JUDGE_HLD	181
T_JUDGE_SLD	116
T_JUDGE_ALL	895
TTM_EACHPAIRS	151
TTM_SCR_TAP	295000
TTM_SCR_BRK	31200
TTM_SCR_HLD	59000
TTM_SCR_SLD	174000
TTM_SCR_ALL	559200
TTM_SCR_S	541300
TTM_SCR_SS	558000
TTM_RAT_ACV	10021

