VERSION	0.00.00	1.04.00
FES_MODE	0
BPM_DEF	170.000	170.000	170.000	170.000
MET_DEF	4	4
RESOLUTION	384
CLK_DEF	384
COMPATIBLE_CODE	MA2

BPM	0	0	170.000
MET	0	0	4	4

NMHLD	2	0	2	384
NMTAP	2	192	3
NMTAP	2	288	3
NMHLD	3	0	4	384
NMTAP	3	192	3
NMTAP	3	288	3
NMHLD	4	0	2	384
NMTAP	4	192	3
NMTAP	4	288	3
NMTAP	5	0	4
NMTAP	5	96	3
NMTAP	5	192	3
NMTAP	5	192	4
NMHLD	6	0	5	384
NMTAP	6	96	4
NMTAP	6	192	3
NMTAP	6	288	4
NMHLD	7	0	3	384
NMTAP	7	96	4
NMTAP	7	192	5
NMTAP	7	288	4
NMHLD	8	0	5	672
NMTAP	8	96	4
NMTAP	8	192	3
NMTAP	8	288	2
NMHLD	8	336	2	336
BXTAP	10	0	3
BXTAP	10	0	4
NMTAP	10	96	2
NMTAP	10	192	1
NMTAP	10	240	1
NMTAP	10	288	3
NMTAP	11	0	4
NMTAP	11	96	3
NMTAP	11	96	5
NMTAP	11	192	6
NMTAP	11	240	6
NMTAP	11	288	4
NMTAP	12	0	2
NMTAP	12	96	2
NMTAP	12	96	3
NMTAP	12	192	5
NMTAP	12	288	4
NMTAP	12	288	5
NMTAP	13	0	3
NMTAP	13	48	3
NMTAP	13	96	4
NMTAP	13	192	2
NMTAP	13	192	5
NMTAP	14	0	4
NMTAP	14	96	3
NMTAP	14	96	5
NMTAP	14	192	6
NMTAP	14	240	6
NMTAP	14	288	4
NMTAP	15	0	3
NMTAP	15	96	2
NMTAP	15	96	4
NMTAP	15	192	1
NMTAP	15	240	1
NMTAP	15	288	3
NMTAP	16	0	5
NMTAP	16	96	4
NMTAP	16	96	5
NMTAP	16	192	2
NMTAP	16	288	2
NMTAP	16	288	3
NMTAP	17	0	4
NMTAP	17	48	4
NMTAP	17	96	3
BRTAP	17	192	2
BRTAP	17	192	5
NMSTR	18	0	3
BRSXL	18	0	3	96	432	3
BRSXR	18	0	3	96	432	3
NMHLD	20	0	3	384
NMTAP	20	96	4
NMTAP	20	144	4
NMTAP	20	240	2
NMTAP	20	288	2
NMHLD	21	0	5	384
NMTAP	21	96	4
NMTAP	21	144	4
NMTAP	21	240	6
NMTAP	21	288	6
NMHLD	22	0	1	384
EXTAP	22	96	2
NMTAP	22	144	2
EXTAP	22	240	0
NMTAP	22	288	0
NMHLD	23	0	6	384
NMTAP	23	96	5
NMTAP	23	144	5
NMTAP	23	240	7
NMTAP	23	288	7
NMTAP	24	0	0
NMTAP	24	96	7
NMTAP	24	144	7
NMTAP	24	240	0
NMTAP	24	288	0
NMSTR	25	0	0
NMSI_	25	0	0	96	96	3
NMSTR	25	0	7
NMSI_	25	0	7	96	96	4
NMSTR	26	0	2
NMSI_	26	0	2	96	96	5
NMSTR	26	192	6
NMSI_	26	192	6	96	96	3
NMSTR	27	0	1
NMSI_	27	0	1	96	96	4
NMHLD	27	192	5	192
NMTAP	28	0	4
BRTAP	28	96	3
BRTAP	28	96	7
NMTAP	28	192	2
NMTAP	28	288	1
NMSTR	29	0	0
NMSCR	29	0	0	96	96	3
NMSTR	29	192	4
NMSCR	29	192	4	96	96	7
NMTAP	30	0	0
NMTAP	30	96	1
NMTAP	30	192	2
NMTAP	30	288	2
NMTAP	30	288	3
NMTAP	31	0	4
NMTAP	31	96	5
NMTAP	31	192	6
NMTAP	31	288	6
NMTAP	31	288	7
NMTAP	32	0	0
NMSTR	32	0	1
NMSI_	32	0	1	96	48	3
NMSTR	32	192	6
NMSI_	32	192	6	96	48	4
NMTAP	32	192	7
NMSTR	33	0	0
BRSF_	33	0	0	96	96	4
NMTAP	33	0	7
NMTAP	34	0	6
NMTAP	34	0	7
NMSTR	34	96	6
NMSCL	34	96	6	96	96	3
NMSTR	34	96	7
NMSCR	34	96	7	96	96	2
NMTAP	35	0	2
NMTAP	35	0	3
NMTAP	35	96	2
NMSTR	35	96	3
NMSLR	35	96	3	96	96	7
NMTAP	36	0	1
NMTAP	36	48	1
NMTAP	36	96	0
NMTAP	36	96	1
NMTAP	36	192	6
NMTAP	36	240	6
NMTAP	36	288	6
NMTAP	36	288	7
NMTAP	37	0	5
NMTAP	37	48	5
NMTAP	37	96	4
NMTAP	37	96	5
EXTAP	37	192	4
EXTAP	37	192	6
EXTAP	37	288	1
EXTAP	37	288	3
NMTAP	38	0	0
NMTAP	38	0	1
NMSTR	38	96	0
NMSCL	38	96	0	96	96	5
NMSTR	38	96	1
NMSCR	38	96	1	96	96	4
NMTAP	39	0	4
NMTAP	39	0	5
NMTAP	39	96	3
NMSTR	39	96	6
NMSLL	39	96	6	96	96	2
NMHLD	40	0	1	96
NMHLD	40	96	0	96
NMHLD	40	192	7	96
NMTAP	40	288	6
NMTAP	40	336	6
NMTAP	41	48	2
NMTAP	41	48	5
NMTAP	41	96	2
NMTAP	41	96	5
NMTAP	41	192	3
NMTAP	41	192	4
BRTAP	41	288	0
BRTAP	41	288	7
EXTAP	42	0	1
EXTAP	42	0	7
EXTAP	42	48	1
EXTAP	42	48	7
EXTAP	42	144	0
EXTAP	42	144	6
EXTAP	42	240	1
EXTAP	42	240	7
EXTAP	42	336	0
EXSTR	42	336	6
NMSCL	42	336	6	96	144	3
NMTAP	43	288	2
NMTAP	43	288	4
NMTAP	44	0	0
NMTAP	44	0	6
NMTAP	44	48	0
NMTAP	44	48	6
NMTAP	44	144	1
NMTAP	44	144	7
NMTAP	44	240	0
NMTAP	44	240	6
NMSTR	44	336	1
NMSCR	44	336	1	96	144	4
NMTAP	44	336	7
NMTAP	45	288	3
NMTAP	45	288	5
NMTAP	46	0	1
NMTAP	46	0	7
NMTAP	46	48	1
NMTAP	46	48	7
NMTAP	46	144	0
NMTAP	46	144	6
NMTAP	46	240	1
NMTAP	46	240	7
NMSTR	46	336	0
NMSCR	46	336	0	96	144	4
NMTAP	46	336	6
NMTAP	47	288	3
NMTAP	47	288	5
NMTAP	48	0	6
NMTAP	48	48	6
NMTAP	48	96	7
NMTAP	48	192	1
NMTAP	48	240	1
NMTAP	48	288	0
NMTAP	48	336	0
NMTAP	49	48	1
NMTAP	49	48	7
NMTAP	49	96	1
NMTAP	49	96	7
NMSTR	49	192	0
NMSI_	49	192	0	96	48	4
NMSTR	49	192	7
NMSI_	49	192	7	96	48	3
BRTAP	50	0	2
BRTAP	50	0	5
NMTAP	50	192	2
NMTAP	50	288	1
NMTAP	50	288	3
NMTAP	51	0	0
NMTAP	51	96	1
NMTAP	51	96	7
NMTAP	51	192	6
NMTAP	51	240	6
NMTAP	51	288	7
NMTAP	52	0	1
NMTAP	52	96	0
NMTAP	52	96	1
NMTAP	52	192	6
NMTAP	52	288	6
NMTAP	52	288	7
NMTAP	53	0	0
NMTAP	53	48	0
NMTAP	53	96	7
NMTAP	53	192	1
NMTAP	53	192	6
NMTAP	54	0	6
NMTAP	54	96	6
NMTAP	54	96	7
NMTAP	54	192	5
NMTAP	54	240	5
NMTAP	54	288	7
NMTAP	55	0	1
NMTAP	55	96	0
NMTAP	55	96	1
NMTAP	55	192	2
NMTAP	55	240	2
NMTAP	55	288	0
NMTAP	56	0	6
NMTAP	56	96	6
NMTAP	56	96	7
NMTAP	56	192	1
NMTAP	56	288	0
NMTAP	56	288	1
NMTAP	57	0	7
NMTAP	57	48	7
NMTAP	57	96	0
BRTAP	57	192	1
BRTAP	57	192	6
NMHLD	58	0	1	768
NMTTP	58	192	0	E	0	M1
NMTTP	58	288	1	E	0	M1
NMTTP	59	0	2	E	0	M1
NMTTP	59	96	3	E	0	M1
NMTTP	59	192	4	E	0	M1
NMHLD	60	0	6	768
NMTTP	60	192	0	E	0	M1
NMTTP	60	288	7	E	0	M1
NMTTP	61	0	6	E	0	M1
NMTTP	61	96	5	E	0	M1
NMTTP	61	192	4	E	0	M1
NMHLD	62	0	2	384
NMTTP	62	192	4	E	0	M1
NMTTP	62	288	5	E	0	M1
NMHLD	63	0	5	384
NMTTP	63	192	4	E	0	M1
NMTTP	63	288	3	E	0	M1
NMTAP	64	0	2
NMTAP	64	96	3
NMTAP	64	192	4
NMTAP	64	288	5
NMTAP	65	0	3
NMTAP	65	0	4
NMTAP	65	96	3
NMTAP	65	96	4
NMTAP	65	192	2
NMTAP	65	192	5
NMHLD	66	0	2	288
NMTAP	66	0	3
NMTAP	66	96	3
NMTAP	66	192	3
NMTAP	66	288	3
NMTAP	67	0	3
NMHLD	67	0	4	288
NMTAP	67	96	3
NMTAP	67	192	3
NMTAP	67	288	3
NMHLD	68	0	1	288
NMTAP	68	0	3
NMTAP	68	96	3
NMTAP	68	192	3
NMTAP	68	288	3
NMTAP	69	0	3
NMHLD	69	0	5	192
NMTAP	69	96	3
NMTAP	69	192	3
NMTAP	69	288	3
NMTAP	69	288	4
NMTAP	70	0	3
NMHLD	70	96	3	192
NMTAP	70	192	2
NMHLD	70	288	2	192
NMTAP	71	0	1
NMHLD	71	96	1	192
NMTAP	71	192	0
NMHLD	71	288	0	192
NMTAP	72	0	7
NMHLD	72	96	7	192
NMTAP	72	192	6
NMHLD	72	288	6	96
NMTAP	73	0	5
NMTAP	73	96	4
NMTAP	73	192	3
NMTAP	73	192	4
NMTHO	74	0	0	384	C	1	M1
NMTTP	74	0	2	B	0	M1
NMTTP	74	0	5	B	0	M1
NMTAP	76	0	6
NMTAP	76	0	7
NMSTR	76	96	6
NMSCL	76	96	6	96	96	3
NMSTR	76	96	7
NMSCR	76	96	7	96	96	2
NMTAP	77	0	3
NMTAP	77	96	2
NMSTR	77	96	3
NMSLR	77	96	3	96	96	7
NMTAP	78	0	1
NMTAP	78	48	0
NMTAP	78	96	2
NMTAP	78	96	7
NMTAP	78	192	6
NMTAP	78	240	7
NMTAP	78	288	0
NMTAP	78	288	5
NMTAP	79	0	2
NMTAP	79	48	3
NMTAP	79	96	1
NMTAP	79	96	4
EXTAP	79	192	5
EXTAP	79	192	7
EXTAP	79	288	0
EXTAP	79	288	2
NMTAP	80	0	0
NMTAP	80	0	1
NMSTR	80	96	0
NMSCL	80	96	0	96	96	5
NMSTR	80	96	1
NMSCR	80	96	1	96	96	4
NMTAP	81	0	4
NMTAP	81	0	5
NMTAP	81	96	3
NMSTR	81	96	6
NMSLL	81	96	6	96	96	2
NMHLD	82	0	1	96
NMHLD	82	96	0	96
NMHLD	82	192	7	96
NMTAP	82	288	6
NMTAP	82	336	6
NMTAP	83	48	2
NMTAP	83	48	5
NMTAP	83	96	2
NMTAP	83	96	5
NMTAP	83	192	3
NMTAP	83	192	4
BRTAP	83	288	0
BRTAP	83	288	7
NMTAP	84	0	0
NMTAP	84	0	1
NMTAP	84	48	0
NMTAP	84	48	1
NMTAP	84	144	6
NMTAP	84	144	7
NMTAP	84	240	0
NMTAP	84	240	1
NMSTR	84	336	6
NMSCL	84	336	6	96	144	3
NMTAP	84	336	7
NMTAP	85	288	2
NMTAP	85	288	4
NMTAP	86	0	6
NMTAP	86	0	7
NMTAP	86	48	6
NMTAP	86	48	7
NMTAP	86	144	0
NMTAP	86	144	1
NMTAP	86	240	6
NMTAP	86	240	7
NMTAP	86	336	0
NMSTR	86	336	1
NMSCR	86	336	1	96	144	4
NMTAP	87	288	3
NMTAP	87	288	5
NMTAP	88	0	0
NMTAP	88	0	1
NMTAP	88	48	0
NMTAP	88	48	1
NMTAP	88	144	6
NMTAP	88	144	7
NMTAP	88	240	0
NMTAP	88	240	1
NMTAP	88	336	6
NMSTR	88	336	7
NMSCL	88	336	7	96	144	3
NMTAP	89	288	2
NMTAP	89	288	4
NMTAP	90	0	1
NMTAP	90	48	1
NMTAP	90	96	0
NMTAP	90	192	6
NMTAP	90	240	6
NMTAP	90	288	7
NMTAP	90	336	7
NMTAP	91	48	0
NMTAP	91	48	6
NMTAP	91	96	0
NMTAP	91	96	6
NMSTR	91	192	0
NMSI_	91	192	0	96	48	4
NMSTR	91	192	6
NMSI_	91	192	6	96	48	2
BRTAP	92	0	1
BRTAP	92	0	5
NMTAP	92	192	2
NMTAP	92	288	1
NMTAP	92	288	3
NMTAP	93	0	5
NMTAP	93	96	4
NMTAP	93	96	6
NMTAP	93	192	7
NMTAP	93	240	7
NMTAP	93	288	0
NMTAP	94	0	1
NMTAP	94	48	1
NMTAP	94	96	3
NMTAP	94	192	6
NMTAP	94	240	6
NMTAP	94	288	4
NMTAP	95	0	2
NMTAP	95	48	2
NMTAP	95	96	4
NMTAP	95	144	4
NMTAP	95	192	0
NMTAP	95	192	5
NMTAP	96	0	5
NMTAP	96	96	4
NMTAP	96	96	6
NMTAP	96	192	7
NMTAP	96	240	7
NMTAP	96	288	0
NMTAP	97	0	2
NMTAP	97	96	1
NMTAP	97	96	3
NMTAP	97	192	0
NMTAP	97	240	0
NMTAP	97	288	7
NMTAP	98	0	6
NMTAP	98	48	6
NMTAP	98	96	4
NMTAP	98	192	1
NMTAP	98	240	1
NMTAP	98	288	3
NMTAP	99	0	5
NMTAP	99	48	5
NMTAP	99	96	4
NMTAP	99	144	4
NMTAP	99	192	7
NMTAP	99	288	0
NMSTR	99	288	6
NMSI_	99	288	6	96	48	2

T_REC_TAP	357
T_REC_BRK	14
T_REC_XTP	19
T_REC_BXX	2
T_REC_HLD	32
T_REC_XHO	0
T_REC_BHO	0
T_REC_BXH	0
T_REC_STR	33
T_REC_BST	0
T_REC_XST	1
T_REC_XBS	0
T_REC_TTP	16
T_REC_THO	1
T_REC_SLD	32
T_REC_BSL	3
T_REC_ALL	510
T_NUM_TAP	426
T_NUM_BRK	19
T_NUM_HLD	33
T_NUM_SLD	32
T_NUM_ALL	510
T_JUDGE_TAP	442
T_JUDGE_HLD	209
T_JUDGE_SLD	35
T_JUDGE_ALL	686
TTM_EACHPAIRS	120
TTM_SCR_TAP	213000
TTM_SCR_BRK	49400
TTM_SCR_HLD	33000
TTM_SCR_SLD	48000
TTM_SCR_ALL	343400
TTM_SCR_S	331300
TTM_SCR_SS	341500
TTM_RAT_ACV	10055

