VERSION	0.00.00	1.04.00
FES_MODE	0
BPM_DEF	224.000	224.000	224.000	224.000
MET_DEF	4	4
RESOLUTION	384
CLK_DEF	384
COMPATIBLE_CODE	MA2

BPM	0	0	224.000
MET	0	0	4	4

NMSTR	2	0	2
BRSUL	2	0	2	96	336	0
NMSTR	2	0	5
BRSUR	2	0	5	96	336	7
CNSCR	3	48	0	0	24	1
CNSCL	3	48	7	0	24	6
CNSI_	3	72	1	0	120	3
CNSI_	3	72	6	0	120	4
NMHLD	4	0	1	192
NMHLD	4	0	3	192
NMTAP	4	288	1
NMTAP	4	288	3
NMTAP	4	336	1
NMTAP	4	336	3
NMHLD	5	96	1	192
NMHLD	5	96	3	192
NMHLD	6	0	4	192
NMHLD	6	0	6	192
NMTAP	6	288	4
NMTAP	6	288	6
NMTAP	6	336	4
NMTAP	6	336	6
EXTAP	7	96	4
EXTAP	7	96	6
EXTAP	7	240	3
EXTAP	7	240	4
EXHLD	8	0	1	192
EXHLD	8	0	3	192
NMTAP	8	288	1
NMTAP	8	288	3
NMTAP	8	336	1
NMTAP	8	336	3
NMHLD	9	96	0	192
NMHLD	9	96	4	192
NMHLD	10	0	1	96
NMHLD	10	0	5	96
NMHLD	10	144	2	96
NMHLD	10	144	6	96
NMTAP	10	288	3
NMTAP	10	288	7
NMSTR	10	336	3
NMSCR	10	336	3	96	96	5
NMSTR	10	336	7
NMSCR	10	336	7	96	96	1
CNSI_	11	144	1	0	96	6
CNSI_	11	144	5	0	96	2
NMSTR	12	0	1
NMSV_	12	0	1	96	48	4
EXTAP	12	96	1
NMSTR	12	192	0
NMSCL	12	192	0	96	48	5
EXTAP	12	288	0
NMSTR	13	0	1
NMSV_	13	0	1	96	48	4
EXTAP	13	96	1
NMSTR	13	192	0
NMSUL	13	192	0	96	48	4
EXTAP	13	288	0
NMSTR	14	0	7
NMSCR	14	0	7	96	48	2
EXTAP	14	96	7
NMSTR	14	192	6
NMSV_	14	192	6	96	48	3
EXTAP	14	288	6
NMSTR	15	0	7
NMSCR	15	0	7	96	48	3
EXTAP	15	96	7
NMTAP	15	192	6
EXTAP	15	288	0
EXTAP	15	288	3
EXSTR	16	0	1
NMSI_	16	0	1	96	48	6
EXSTR	16	96	2
NMSI_	16	96	2	96	48	5
EXSTR	16	192	1
NMSI_	16	192	1	96	48	6
EXSTR	16	288	2
NMSI_	16	288	2	96	48	5
EXSTR	17	0	1
NMSI_	17	0	1	96	48	6
EXSTR	17	96	2
NMSI_	17	96	2	96	48	5
EXSTR	17	192	1
NMSI_	17	192	1	96	48	6
EXSTR	17	288	2
NMSI_	17	288	2	96	48	5
NMSTR	18	0	7
NMSI_	18	0	7	96	192	4
NMSSR	18	0	7	96	192	3
NMTTP	19	0	2	A	0	M1
NMTTP	19	0	3	E	0	M1
NMTTP	19	0	3	D	0	M1
NMTTP	19	0	6	A	0	M1
NMTTP	19	0	7	E	0	M1
NMTTP	19	0	7	D	0	M1
NMTTP	19	96	1	E	0	M1
NMTTP	19	96	1	A	0	M1
NMTTP	19	96	1	D	0	M1
NMTTP	19	96	5	E	0	M1
NMTTP	19	96	5	A	0	M1
NMTTP	19	96	5	D	0	M1
NMTHO	19	192	0	96	C	0	M1
NMTTP	19	192	2	E	0	M1
NMTTP	19	192	6	E	0	M1
BRTAP	20	0	0
BRTAP	20	0	7
NMSTR	20	96	0
NMSCL	20	96	0	96	48	5
NMTAP	20	96	1
NMTAP	20	192	4
NMTAP	20	288	2
NMTAP	20	336	2
NMTAP	21	0	3
NMTAP	21	96	2
NMTAP	21	96	4
NMTTP	21	192	0	C	0	M1
NMTTP	21	192	2	E	0	M1
NMTTP	21	192	2	D	0	M1
NMTTP	21	192	5	B	0	M1
NMTTP	21	192	6	E	0	M1
EXTAP	21	288	0
EXTAP	21	288	6
NMTAP	22	0	1
NMTAP	22	0	7
NMTAP	22	96	2
NMTAP	22	144	3
NMTAP	22	192	4
NMTAP	22	240	5
NMSTR	22	288	3
BRSI_	22	288	3	96	96	0
NMSTR	22	288	4
BRSI_	22	288	4	96	96	7
NMTAP	23	192	1
NMTAP	23	192	6
NMTAP	23	288	4
NMTAP	23	288	5
NMSTR	24	0	2
NMSI_	24	0	2	96	48	5
NMHLD	24	0	6	288
CNSI_	24	144	5	0	72	7
CNSI_	24	216	7	0	72	3
NMHLD	25	0	2	288
NMSTR	25	0	4
NMSI_	25	0	4	96	48	0
CNSI_	25	144	0	0	72	5
CNSI_	25	216	5	0	72	1
NMHLD	26	0	0	96
NMHLD	26	0	2	96
NMHLD	26	144	5	96
NMHLD	26	144	7	96
NMTAP	26	288	0
NMTAP	26	288	7
NMTAP	26	336	1
NMTAP	26	336	6
NMTAP	27	48	3
NMTAP	27	48	4
BRSTR	27	96	2
NMSV_	27	96	2	96	96	3
BRSTR	27	96	5
NMSV_	27	96	5	96	96	4
NMTAP	28	0	1
NMTAP	28	0	3
NMTAP	28	96	0
NMTAP	28	96	7
NMTAP	28	192	4
NMSTR	28	192	6
BRSI_	28	192	6	96	48	1
EXTAP	28	288	2
EXTAP	28	336	2
EXTAP	29	0	2
NMTAP	29	96	2
NMTAP	29	96	4
NMSTR	29	192	4
NMSV_	29	192	4	96	48	1
NMTAP	29	192	6
NMSTR	30	0	0
NMSF_	30	0	0	96	48	4
NMSTR	30	192	0
NMSI_	30	192	0	96	48	2
NMSI_	30	192	0	96	48	6
NMSTR	31	0	0
NMSI_	31	0	0	96	48	4
NMTAP	31	192	3
NMTAP	31	192	5
NMTAP	31	288	6
NMTAP	32	0	0
NMTAP	32	0	7
NMTAP	32	96	1
NMTAP	32	96	2
NMSTR	32	192	3
NMSI_	32	192	3	96	48	1
NMSTR	32	192	4
NMSI_	32	192	4	96	48	6
NMSTR	33	0	3
BRSSR	33	0	3	96	192	7
NMSTR	33	0	4
BRSSL	33	0	4	96	192	0
NMHLD	34	0	1	96
NMHLD	34	0	6	96
NMHLD	34	144	3	96
NMHLD	34	144	4	96
NMTAP	34	288	0
NMTAP	34	288	7
NMTAP	34	336	2
NMTAP	34	336	5
NMTAP	35	48	3
NMTAP	35	48	4
BRSTR	35	96	1
NMSV_	35	96	1	96	96	3
BRSTR	35	96	6
NMSV_	35	96	6	96	96	4
NMTAP	36	0	5
NMTAP	36	48	4
NMTAP	36	96	5
NMTAP	36	144	2
NMTAP	36	192	3
NMTAP	36	240	2
NMTAP	36	288	6
NMTAP	36	336	4
NMTAP	37	0	5
NMTAP	37	48	1
NMTAP	37	96	3
NMTAP	37	144	2
NMSTR	37	192	5
NMSI_	37	192	5	96	48	3
NMTAP	38	0	2
NMTAP	38	48	3
NMTAP	38	96	2
NMTAP	38	144	5
NMTAP	38	192	4
NMTAP	38	240	5
NMTAP	38	288	1
NMTAP	38	336	3
NMTAP	39	0	2
NMTAP	39	48	6
NMTAP	39	96	4
NMTAP	39	144	5
NMSTR	39	192	1
NMSV_	39	192	1	96	96	3
NMTAP	40	0	4
NMTAP	40	48	4
NMTAP	40	96	2
NMTAP	40	144	2
NMTAP	40	192	5
NMTAP	40	240	5
NMTAP	40	288	3
NMTAP	40	336	3
NMTAP	41	0	6
NMTAP	41	24	2
NMTAP	41	48	6
NMTAP	41	72	2
NMTAP	41	96	6
NMTAP	41	120	2
NMTAP	41	144	6
NMTAP	41	168	2
NMTAP	41	192	7
NMTAP	41	216	1
NMTAP	41	240	7
NMTAP	41	264	1
NMSTR	41	288	7
NMSI_	41	288	7	96	48	3
NMTAP	41	312	1
NMTAP	41	336	7
NMTAP	41	360	1
BRTAP	42	0	7
NMTTP	42	16	0	C	1	M1
NMHLD	43	0	3	96
NMHLD	43	0	4	96
NMTTP	43	192	0	B	0	M1
NMTTP	43	192	1	B	0	M1
NMTTP	43	192	1	E	0	M1
NMTTP	43	192	1	A	0	M1
NMTTP	43	192	6	B	0	M1
NMTTP	43	192	6	A	0	M1
NMTTP	43	192	7	B	0	M1
NMTTP	43	192	7	E	0	M1
NMTAP	44	0	2
NMHLD	44	0	3	96
NMTAP	44	96	1
NMTAP	44	144	1
NMHLD	44	192	4	96
NMTAP	44	240	2
NMTAP	44	288	2
NMTAP	44	336	2
NMHLD	45	0	0	96
NMTAP	45	48	1
NMTAP	45	96	1
NMTAP	45	144	1
NMHLD	45	192	7	96
NMTAP	45	240	2
NMTAP	45	288	2
NMTAP	45	336	2
NMHLD	46	0	0	96
NMTAP	46	48	1
NMTAP	46	96	1
NMTAP	46	144	1
NMHLD	46	192	4	96
NMTAP	46	240	2
NMTAP	46	288	2
NMTAP	46	336	2
NMTAP	47	0	6
NMTAP	47	48	6
NMTAP	47	96	3
NMTAP	47	144	3
NMTAP	47	192	5
NMTAP	47	240	5
NMTAP	47	288	4
NMTAP	47	336	4
NMHLD	48	0	4	96
NMTAP	48	0	5
NMTAP	48	96	6
NMTAP	48	144	6
NMHLD	48	192	3	96
NMTAP	48	240	5
NMTAP	48	288	5
NMTAP	48	336	5
NMHLD	49	0	7	96
NMTAP	49	48	6
NMTAP	49	96	6
NMTAP	49	144	6
NMHLD	49	192	0	96
NMTAP	49	240	5
NMTAP	49	288	5
NMTAP	49	336	5
NMHLD	50	0	7	96
NMTAP	50	48	6
NMTAP	50	96	6
NMTAP	50	144	6
EXSTR	50	192	4
NMSI_	50	192	4	96	48	2
EXSTR	50	192	5
NMSI_	50	192	5	96	48	1
EXSTR	51	0	3
NMSV_	51	0	3	96	144	0
NMSV_	51	0	3	96	144	6
EXTAP	52	0	0
EXTAP	52	0	5
EXTAP	52	48	0
EXTAP	52	48	5
EXHLD	52	96	0	96
EXHLD	52	96	5	96
EXTAP	52	208	1
EXTAP	52	208	6
EXHLD	52	224	2	64
EXHLD	52	224	7	64
EXTAP	52	304	1
EXTAP	52	304	6
EXHLD	52	320	0	64
EXHLD	52	320	5	64
EXTAP	53	16	1
EXTAP	53	16	6
EXHLD	53	32	2	64
EXHLD	53	32	7	64
EXTAP	53	112	1
EXTAP	53	112	6
EXHLD	53	128	0	64
EXHLD	53	128	5	64
EXTAP	53	208	1
EXTAP	53	208	6
EXHLD	53	224	2	64
EXHLD	53	224	7	64
EXTAP	53	304	1
EXTAP	53	304	6
EXHLD	53	320	0	64
EXHLD	53	320	5	64
EXTAP	54	16	1
EXTAP	54	16	6
EXHLD	54	32	2	64
EXHLD	54	32	7	64
EXTAP	54	112	1
EXTAP	54	112	6
EXHLD	54	128	0	64
EXHLD	54	128	5	64
EXTAP	54	208	1
EXTAP	54	208	6
EXHLD	54	224	2	64
EXHLD	54	224	7	64
EXTAP	54	304	1
EXTAP	54	304	6
EXHLD	54	320	0	64
EXHLD	54	320	5	64
EXTAP	55	16	1
EXTAP	55	16	6
EXSTR	55	32	2
NMSSL	55	32	2	96	96	6
EXTAP	55	32	7
EXSTR	56	0	0
NMSI_	56	0	0	96	96	2
EXTAP	56	0	7
NMTTP	56	192	3	B	0	M1
NMTTP	56	192	4	B	0	M1
NMSTR	57	0	0
NMSV_	57	0	0	96	96	2
NMTAP	57	0	7
NMTTP	57	192	3	B	0	M1
NMTTP	57	192	4	B	0	M1
NMSTR	58	0	0
NMSI_	58	0	0	96	72	6
NMTAP	58	0	7
CNSI_	58	168	6	0	72	2
NMTTP	58	192	3	B	0	M1
NMTTP	58	192	4	B	0	M1
NMTAP	59	0	0
NMTAP	59	0	7
NMSTR	59	48	0
BRSI_	59	48	0	96	48	5
NMTAP	59	48	7
NMTTP	59	144	3	B	1	M1
NMTTP	59	144	4	B	0	M1
CNSI_	59	192	5	0	48	2
NMHLD	60	0	6	96
NMTAP	60	96	4
NMHLD	60	144	5	96
NMTAP	60	240	3
NMHLD	60	288	4	96
NMTAP	61	0	2
NMHLD	61	48	3	96
NMTAP	61	144	1
NMSTR	61	192	2
NMSCR	61	192	2	96	48	5
NMHLD	62	0	1	96
NMTAP	62	96	3
NMHLD	62	144	2	96
NMTAP	62	240	4
NMHLD	62	288	3	96
NMTAP	63	0	5
NMHLD	63	48	4	96
NMTAP	63	144	6
NMSTR	63	192	5
NMSV_	63	192	5	96	48	2
NMTAP	64	0	4
NMTAP	64	48	4
NMTAP	64	96	3
NMTAP	64	144	3
NMTAP	64	192	5
NMTAP	64	240	5
NMTAP	64	288	2
NMTAP	64	336	2
NMTAP	65	0	6
NMTAP	65	24	1
NMTAP	65	48	6
NMTAP	65	72	1
NMTAP	65	96	6
NMTAP	65	120	1
NMTAP	65	144	6
NMTAP	65	168	1
NMTAP	65	192	7
NMTAP	65	216	0
NMTAP	65	240	7
NMTAP	65	264	0
NMTAP	65	288	7
EXTAP	66	0	2
EXTAP	66	0	5
EXTAP	66	48	3
EXTAP	66	72	4
EXTAP	66	96	3
EXTAP	66	144	2
EXTAP	66	144	5
EXTAP	66	192	2
EXTAP	66	192	5
EXSTR	66	288	4
NMSF_	66	288	4	96	48	0
EXTAP	66	336	3
EXTAP	66	336	5
BXTAP	67	0	4
NMTTP	68	0	1	B	0	M1
NMTTP	68	0	6	B	0	M1
NMTTP	68	96	6	E	0	M1
NMTTP	68	120	5	B	0	M1
NMTTP	68	144	4	B	0	M1
NMTTP	68	168	4	E	0	M1
NMTTP	68	192	0	C	0	M1
NMTTP	68	288	1	B	0	M1
NMTTP	68	288	6	B	0	M1
NMTTP	69	0	2	A	0	M1
NMTTP	69	48	3	A	0	M1
NMTTP	69	96	4	A	0	M1
NMTTP	69	144	5	A	0	M1
NMTHO	69	192	0	96	C	0	M1
NMTTP	70	0	1	B	0	M1
NMTTP	70	0	6	B	0	M1
NMTTP	70	96	2	E	0	M1
NMTTP	70	120	2	B	0	M1
NMTTP	70	144	3	B	0	M1
NMTTP	70	168	4	E	0	M1
NMTTP	70	192	0	C	0	M1
NMTTP	70	288	1	B	0	M1
NMTTP	70	288	6	B	0	M1
NMTTP	71	0	5	A	0	M1
NMTTP	71	48	4	A	0	M1
NMTTP	71	96	3	A	0	M1
NMTTP	71	144	2	A	0	M1
NMTHO	71	192	0	96	C	0	M1
NMTTP	72	0	2	B	0	M1
NMTTP	72	0	5	B	0	M1
NMTTP	72	96	2	E	0	M1
NMTTP	72	120	1	B	0	M1
NMTTP	72	144	0	B	0	M1
NMTTP	72	168	0	E	0	M1
NMTTP	72	192	0	C	0	M1
NMTTP	72	288	2	B	0	M1
NMTTP	72	288	5	B	0	M1
NMTTP	73	0	6	A	0	M1
NMTTP	73	48	7	A	0	M1
NMTTP	73	96	0	A	0	M1
NMTTP	73	144	1	A	0	M1
NMTHO	73	192	0	96	C	0	M1
NMTTP	74	0	2	E	0	M1
NMTTP	74	0	6	E	0	M1
NMTTP	74	96	1	D	0	M1
NMTTP	74	144	7	D	0	M1
NMTTP	74	192	2	D	0	M1
NMTTP	74	240	6	D	0	M1
NMTTP	74	288	3	D	0	M1
NMTTP	74	336	5	D	0	M1
NMTTP	75	0	3	E	0	M1
NMTTP	75	0	4	E	0	M1
NMTTP	75	0	5	E	0	M1
NMTTP	75	96	0	E	0	M1
NMTTP	75	96	1	E	0	M1
NMTTP	75	96	7	E	0	M1
NMTTP	75	192	0	C	1	M1
NMTTP	75	192	2	B	0	M1
NMTTP	75	192	5	B	0	M1
NMSTR	76	0	1
NMSI_	76	0	1	96	48	4
EXTAP	76	96	0
EXTAP	76	96	1
NMSTR	76	192	6
NMSI_	76	192	6	96	48	3
NMTAP	76	240	7
EXTAP	76	288	6
NMSTR	77	0	1
NMSI_	77	0	1	96	48	4
EXTAP	77	96	0
EXTAP	77	96	1
NMSTR	77	192	0
NMSI_	77	192	0	96	48	4
NMSTR	77	192	1
NMSI_	77	192	1	96	48	4
NMSTR	78	0	6
NMSI_	78	0	6	96	48	3
EXTAP	78	96	6
EXTAP	78	96	7
NMSTR	78	192	1
NMSI_	78	192	1	96	48	4
NMTAP	78	240	0
EXTAP	78	288	1
NMSTR	79	0	6
NMSI_	79	0	6	96	48	3
EXTAP	79	96	6
EXTAP	79	96	7
NMSTR	79	192	6
NMSI_	79	192	6	96	48	3
NMSTR	79	192	7
NMSI_	79	192	7	96	48	3
NMSTR	80	0	0
NMSV_	80	0	0	96	48	5
EXTAP	80	96	6
NMSTR	80	192	7
NMSV_	80	192	7	96	48	2
NMTAP	80	240	1
EXTAP	80	288	1
NMSTR	81	0	0
NMSV_	81	0	0	96	48	5
EXTAP	81	96	6
NMSTR	81	192	7
NMSV_	81	192	7	96	48	2
NMTAP	81	240	1
EXTAP	81	288	1
NMTAP	82	0	1
NMTAP	82	0	3
NMTAP	82	96	3
NMTAP	82	96	4
NMTAP	82	192	4
NMTAP	82	192	6
NMTAP	82	288	0
NMTAP	82	288	7
BXTAP	83	0	0
BXTAP	83	0	7
EXTAP	83	16	1
EXTAP	83	16	6
EXTAP	83	32	2
EXTAP	83	32	5
EXTAP	83	48	3
EXTAP	83	48	4
BXTAP	83	96	0
BXTAP	83	96	7
EXTAP	83	112	1
EXTAP	83	112	6
EXTAP	83	128	2
EXTAP	83	128	5
EXTAP	83	144	3
EXTAP	83	144	4
BXTAP	83	192	0
BXTAP	83	192	7
EXTAP	83	208	1
EXTAP	83	208	6
EXTAP	83	224	2
EXTAP	83	224	5
EXTAP	83	240	3
EXTAP	83	240	4
NMHLD	84	0	1	96
NMHLD	84	0	3	96
NMHLD	84	144	3	96
NMHLD	84	144	4	96
NMTAP	84	288	4
NMTAP	84	288	6
NMSTR	84	336	4
NMSXR	84	336	4	96	240	1
NMSTR	84	336	6
NMSXR	84	336	6	96	240	3
NMHLD	86	0	2	96
NMHLD	86	0	3	96
NMHLD	86	144	0	96
NMHLD	86	144	7	96
NMTAP	86	288	4
NMTAP	86	288	5
NMSTR	86	336	4
NMSSR	86	336	4	96	240	0
NMSTR	86	336	5
NMSSL	86	336	5	96	240	1
NMTAP	88	0	7
NMTAP	88	48	7
NMTAP	88	96	0
NMTAP	88	144	0
NMTAP	88	192	1
NMTAP	88	240	1
NMTAP	88	288	2
NMTAP	88	336	2
NMTAP	89	0	3
NMTAP	89	48	4
NMTAP	89	96	5
NMTAP	89	144	6
NMTAP	89	192	7
NMTAP	89	240	0
NMTAP	89	288	1
NMTAP	89	336	2
NMTAP	90	0	3
NMTAP	90	24	4
NMTAP	90	48	5
NMTAP	90	72	6
NMTAP	90	96	7
NMTAP	90	120	0
NMTAP	90	144	1
NMTAP	90	168	2
EXTAP	90	192	3
EXTAP	90	204	4
EXTAP	90	216	5
EXTAP	90	228	6
EXTAP	90	240	7
EXTAP	90	252	0
EXTAP	90	264	1
EXTAP	90	276	2
EXTAP	90	288	3
EXTAP	90	300	4
EXTAP	90	312	5
EXTAP	90	324	6
EXTAP	90	336	7
EXTAP	90	348	0
EXTAP	90	360	1
EXTAP	90	372	2
EXSTR	91	0	3
NMSCR	91	0	3	96	12	4
NMSSL	91	0	3	96	96	7
CNSI_	91	108	4	0	84	7
BXTAP	91	288	0
NMSTR	92	0	1
NMSCR	92	0	1	96	48	3
NMTAP	92	48	1
NMSTR	92	96	7
NMSCL	92	96	7	96	48	5
NMTAP	92	144	7
NMTAP	92	192	0
NMTAP	92	216	1
NMTAP	92	240	2
NMTAP	92	264	3
NMTAP	92	288	0
NMTAP	92	312	7
NMTAP	92	336	6
NMTAP	92	360	5
NMSTR	93	0	1
NMSI_	93	0	1	96	48	4
NMTAP	93	48	1
NMSTR	93	96	6
NMSI_	93	96	6	96	48	3
NMTAP	93	144	6
NMTAP	93	192	7
NMTAP	93	216	0
NMTAP	93	240	1
NMTAP	93	264	2
NMTAP	93	288	7
NMTAP	93	312	6
NMTAP	93	336	5
NMTAP	93	360	4
NMSTR	94	0	0
NMSI_	94	0	0	96	48	2
NMTAP	94	48	0
NMSTR	94	96	7
NMSI_	94	96	7	96	48	5
NMTAP	94	144	7
NMTAP	94	192	0
NMTAP	94	216	1
NMTAP	94	240	2
NMTAP	94	264	3
NMTAP	94	288	4
NMTAP	94	312	5
NMTAP	94	336	6
NMTAP	94	360	7
NMTAP	95	0	0
NMTAP	95	48	3
NMTAP	95	72	2
NMTAP	95	120	5
NMTAP	95	144	4
NMSTR	95	192	3
NMSI_	95	192	3	96	48	1
NMSTR	95	192	4
NMSI_	95	192	4	96	48	6
NMTAP	95	240	2
NMTAP	95	240	5
EXSTR	96	0	7
NMSCL	96	0	7	96	48	4
NMTAP	96	48	3
NMTAP	96	96	7
NMTAP	96	144	1
NMSTR	96	192	7
NMSI_	96	192	7	96	48	3
NMTAP	96	240	2
NMTAP	96	288	7
NMTAP	96	336	0
NMSTR	97	0	7
NMSI_	97	0	7	96	48	5
NMTAP	97	48	2
NMSTR	97	96	7
NMSI_	97	96	7	96	48	3
NMTAP	97	144	1
NMSTR	97	192	7
NMSCL	97	192	7	96	48	4
NMTAP	97	240	0
NMTAP	97	288	7
NMTAP	97	336	1
NMSTR	98	0	1
NMSI_	98	0	1	96	48	3
NMSTR	98	48	6
NMSI_	98	48	6	96	48	4
NMTAP	98	96	1
NMTAP	98	144	6
NMSTR	98	192	0
NMSI_	98	192	0	96	48	2
NMSTR	98	240	7
NMSI_	98	240	7	96	48	5
NMTAP	98	288	0
NMTAP	98	336	7
NMTHO	99	0	0	192	C	0	M1
BRTAP	99	288	1
BRTAP	99	288	6
NMSTR	100	0	5
NMSCR	100	0	5	96	48	7
NMTAP	100	48	5
NMSTR	100	96	2
NMSCL	100	96	2	96	48	0
NMTAP	100	144	2
NMSTR	100	192	4
NMSUR	100	192	4	96	48	0
NMTAP	100	240	4
NMSTR	100	288	3
NMSUL	100	288	3	96	48	7
NMTAP	100	336	3
NMSTR	101	0	5
NMSCR	101	0	5	96	48	0
NMTAP	101	48	5
NMSTR	101	96	2
NMSCL	101	96	2	96	48	7
NMTAP	101	144	2
NMSTR	101	192	4
NMSUR	101	192	4	96	48	1
NMTAP	101	240	4
NMSTR	101	288	3
NMSUL	101	288	3	96	48	6
NMTAP	101	336	3
NMSTR	102	0	5
NMSI_	102	0	5	96	48	0
NMTAP	102	48	5
NMSTR	102	96	2
NMSI_	102	96	2	96	48	7
NMTAP	102	144	2
NMTAP	102	192	4
NMTAP	102	240	4
EXSTR	102	288	3
NMSI_	102	288	3	96	48	0
EXSTR	102	288	4
NMSI_	102	288	4	96	48	7
NMTTP	103	0	4	E	0	M1
NMTTP	103	12	0	C	1	M1
NMTTP	103	24	0	E	0	M1
NMTAP	103	192	0
NMTAP	103	192	7
NMTAP	103	240	1
NMTAP	103	240	6
NMTAP	103	288	2
NMTAP	103	288	5
NMSTR	104	0	5
NMSI_	104	0	5	96	48	0
NMTAP	104	48	5
NMSTR	104	96	4
NMSV_	104	96	4	96	48	1
NMTAP	104	144	4
NMSTR	104	192	5
NMSCR	104	192	5	96	48	0
NMTAP	104	240	5
NMTAP	104	288	4
NMTAP	104	336	3
NMSTR	105	0	2
NMSI_	105	0	2	96	48	7
NMTAP	105	48	2
NMSTR	105	96	3
NMSV_	105	96	3	96	48	6
NMTAP	105	144	3
NMSTR	105	192	2
NMSCL	105	192	2	96	48	0
NMTAP	105	240	2
NMTAP	105	288	5
NMTAP	105	336	5
NMTAP	106	0	6
NMTAP	106	0	7
NMTAP	106	48	5
NMTAP	106	96	3
NMTAP	106	96	4
NMTAP	106	144	2
NMTAP	106	192	1
NMTAP	106	192	7
NMTAP	106	240	2
NMTAP	106	288	3
NMTAP	106	288	5
NMTAP	106	336	6
NMSTR	107	0	0
BRSCR	107	0	0	96	48	2
NMSTR	107	0	7
BRSCL	107	0	7	96	48	5
CNSUR	107	144	2	0	144	3
CNSUL	107	144	5	0	144	4
NMHLD	108	0	4	96
NMTAP	108	0	5
EXTAP	108	96	6
NMTAP	108	192	4
NMTAP	108	192	5
NMTAP	108	240	5
EXTAP	108	288	7
NMHLD	109	0	4	96
NMTAP	109	0	5
EXTAP	109	96	6
NMTAP	109	192	4
NMTAP	109	192	5
NMTAP	109	240	5
EXTAP	109	288	0
NMTAP	110	0	2
NMHLD	110	0	3	96
EXTAP	110	96	1
NMTAP	110	192	2
NMTAP	110	192	3
NMTAP	110	240	2
EXTAP	110	288	0
NMTAP	111	0	2
NMTAP	111	0	3
NMSTR	111	96	1
NMSI_	111	96	1	96	96	5
NMSTR	111	96	2
NMSV_	111	96	2	96	96	5
EXTAP	112	0	4
EXTAP	112	0	6
NMTAP	112	48	5
EXTAP	112	96	1
EXTAP	112	96	3
NMTAP	112	144	2
EXTAP	112	192	4
EXTAP	112	192	7
NMTAP	112	240	5
EXTAP	112	288	0
EXTAP	112	288	3
NMTAP	112	336	2
NMTAP	113	0	3
EXTAP	113	0	7
NMTAP	113	48	3
EXTAP	113	48	7
EXTAP	113	96	2
NMTAP	113	96	6
EXTAP	113	144	2
NMTAP	113	144	6
NMTAP	113	192	1
EXTAP	113	192	5
NMTAP	113	240	1
EXTAP	113	240	5
EXTAP	113	288	0
EXTAP	113	300	7
EXTAP	113	312	6
EXTAP	113	324	5
EXTAP	113	336	4
EXTAP	113	348	3
EXTAP	113	360	2
EXTAP	113	372	1
BXSTR	114	0	0
NMSI_	114	0	0	96	48	4
NMTAP	114	96	5
BRSTR	114	144	7
NMSI_	114	144	7	96	48	3
NMTAP	114	240	2
BRTAP	114	288	0
BRTAP	114	336	1
BRTAP	114	336	5

T_REC_TAP	339
T_REC_BRK	8
T_REC_XTP	133
T_REC_BXX	8
T_REC_HLD	54
T_REC_XHO	24
T_REC_BHO	0
T_REC_BXH	0
T_REC_STR	88
T_REC_BST	5
T_REC_XST	18
T_REC_XBS	1
T_REC_TTP	95
T_REC_THO	5
T_REC_SLD	106
T_REC_BSL	10
T_REC_ALL	894
T_NUM_TAP	673
T_NUM_BRK	32
T_NUM_HLD	83
T_NUM_SLD	106
T_NUM_ALL	894
T_JUDGE_TAP	695
T_JUDGE_HLD	196
T_JUDGE_SLD	116
T_JUDGE_ALL	1007
TTM_EACHPAIRS	150
TTM_SCR_TAP	336500
TTM_SCR_BRK	83200
TTM_SCR_HLD	83000
TTM_SCR_SLD	159000
TTM_SCR_ALL	661700
TTM_SCR_S	638750
TTM_SCR_SS	658500
TTM_RAT_ACV	10048

