VERSION	0.00.00	1.04.00
FES_MODE	0
BPM_DEF	224.000	224.000	224.000	224.000
MET_DEF	4	4
RESOLUTION	384
CLK_DEF	384
COMPATIBLE_CODE	MA2

BPM	0	0	224.000
MET	0	0	4	4

EXHLD	4	0	2	336
EXHLD	4	0	4	288
EXTAP	5	96	2
EXTAP	5	96	4
EXHLD	6	0	3	288
EXHLD	6	0	5	336
EXTAP	7	96	3
EXTAP	7	96	5
EXTAP	7	240	2
EXTAP	7	240	4
NMHLD	8	0	1	336
NMHLD	8	0	3	288
NMTAP	9	96	1
NMTAP	9	96	3
NMTAP	10	0	2
NMTAP	10	0	4
NMTAP	10	144	3
NMTAP	10	144	5
NMTAP	10	288	3
NMTAP	10	288	4
NMTAP	10	336	3
NMSTR	10	336	4
NMSI_	10	336	4	96	144	0
NMTAP	12	0	0
NMHLD	12	0	1	144
NMHLD	12	144	2	144
NMHLD	12	288	3	144
NMTAP	13	48	4
NMTAP	13	192	4
NMTAP	13	192	5
NMTAP	13	288	4
NMTAP	13	288	5
NMTAP	14	0	3
NMHLD	14	0	6	144
NMHLD	14	144	5	144
NMHLD	14	288	4	144
NMTAP	15	48	3
NMTAP	15	192	2
NMTAP	15	192	3
NMTAP	15	288	2
NMTAP	15	288	3
NMSTR	16	0	4
NMSI_	16	0	4	96	96	6
NMSTR	16	192	3
NMSI_	16	192	3	96	96	1
NMSTR	17	0	4
NMSI_	17	0	4	96	96	7
NMSTR	17	192	3
NMSI_	17	192	3	96	96	0
NMSTR	18	0	7
NMSI_	18	0	7	96	96	1
NMSLR	18	0	7	96	288	6
CNSCR	18	192	1	0	24	2
CNSI_	18	216	2	0	168	5
EXTAP	19	192	4
EXTAP	19	192	7
NMTAP	20	0	5
NMTAP	20	96	5
NMTAP	20	192	3
NMTAP	20	192	5
NMTAP	20	288	3
NMTAP	20	288	5
NMTAP	21	0	4
NMTAP	21	0	5
NMTAP	21	96	4
NMTAP	21	96	5
NMTAP	21	192	3
NMTAP	21	192	5
NMTAP	21	288	3
NMTAP	21	288	5
NMHLD	22	0	4	96
NMHLD	22	0	5	96
NMTAP	22	192	3
NMTAP	22	192	4
NMSTR	22	288	3
NMSI_	22	288	3	96	96	0
NMSTR	22	288	4
NMSI_	22	288	4	96	96	7
EXTAP	23	192	1
EXTAP	23	192	6
NMTAP	24	0	2
NMTAP	24	96	2
NMTAP	24	192	2
NMTAP	24	192	4
NMTAP	24	288	2
NMTAP	24	288	4
NMTAP	25	0	2
NMTAP	25	0	3
NMTAP	25	96	2
NMTAP	25	96	3
NMTAP	25	192	1
NMTAP	25	192	2
NMTAP	25	288	1
NMTAP	25	288	2
BXHLD	26	0	0	96
BXHLD	26	0	1	96
BXHLD	26	144	0	96
BXHLD	26	144	1	96
BXTAP	26	288	2
BXTAP	26	288	7
BXTAP	26	336	2
BXTAP	26	336	7
BXTAP	27	48	0
BXTAP	27	48	1
BXTAP	27	96	0
BXSTR	27	96	1
BRSI_	27	96	1	96	96	5
NMTAP	28	0	4
NMTAP	28	0	6
NMTAP	28	96	3
NMTAP	28	192	2
NMTAP	28	192	4
NMTAP	28	288	0
NMTAP	29	0	1
NMTAP	29	0	3
NMTAP	29	96	4
NMTAP	29	192	3
NMTAP	29	192	5
NMTAP	29	288	7
NMTAP	30	0	4
NMTAP	30	0	6
NMTAP	30	96	4
NMTAP	30	96	6
NMTAP	30	192	3
NMTAP	30	192	4
NMTAP	30	288	3
NMTAP	30	288	4
NMTAP	31	0	1
NMTAP	31	0	3
NMTAP	31	96	1
NMTAP	31	96	3
NMTAP	31	192	0
NMTAP	31	192	7
NMTAP	31	288	0
NMTAP	31	288	7
NMSTR	32	0	0
NMSI_	32	0	0	96	96	4
NMSTR	32	192	7
NMSI_	32	192	7	96	96	3
NMSTR	33	0	1
NMSI_	33	0	1	96	96	5
NMTAP	33	192	6
NMHLD	33	288	6	96
BXTAP	34	0	7
EXHLD	34	144	0	144
BXTAP	34	144	5
BXTAP	34	288	3
BXTAP	34	336	3
BXTAP	35	48	2
BXTAP	35	48	4
BXTAP	35	96	2
BXSTR	35	96	4
NMSLR	35	96	4	96	144	0
NMTTP	36	0	1	E	0	M1
NMTTP	36	96	2	E	0	M1
NMTTP	36	192	3	E	0	M1
NMTTP	36	288	4	E	0	M1
NMTTP	37	0	5	E	0	M1
NMTTP	37	96	6	E	0	M1
NMTTP	37	192	7	E	0	M1
NMTTP	37	288	0	E	0	M1
NMTTP	38	0	1	E	0	M1
NMTTP	38	96	0	C	0	M1
NMTTP	38	192	5	E	0	M1
NMTTP	38	288	6	E	0	M1
NMTTP	39	0	7	E	0	M1
NMTTP	39	96	0	C	0	M1
NMTTP	39	192	2	E	0	M1
NMTTP	39	192	3	E	0	M1
NMTAP	40	0	1
NMTAP	40	48	1
NMTAP	40	96	3
NMTAP	40	144	3
NMTAP	40	192	2
NMTAP	40	240	2
NMTAP	40	288	4
NMTAP	40	336	4
NMTAP	41	0	3
NMTAP	41	48	3
NMTAP	41	96	5
NMTAP	41	144	5
NMTAP	41	192	4
NMTAP	41	240	4
NMSTR	41	288	7
BRSI_	41	288	7	96	96	3
NMTHO	43	0	0	192	C	0	M1
NMTTP	43	0	3	B	0	M1
NMTTP	43	0	4	B	0	M1
BRTAP	44	0	0
NMHLD	44	0	7	192
NMTAP	44	96	6
NMHLD	44	192	0	192
NMTAP	44	288	1
NMHLD	45	0	7	192
NMTAP	45	96	5
NMHLD	45	192	0	192
NMTAP	45	288	2
NMHLD	46	0	6	192
NMTAP	46	96	4
NMHLD	46	192	2	192
NMTAP	46	288	3
NMHLD	47	0	5	96
NMTAP	47	96	4
NMTAP	47	192	3
NMTAP	47	192	4
NMTAP	47	288	3
NMTAP	47	288	4
NMHLD	48	0	2	192
NMTAP	48	0	3
NMTAP	48	96	0
NMHLD	48	192	3	192
NMTAP	48	288	0
NMHLD	49	0	4	192
NMTAP	49	96	7
NMHLD	49	192	5	192
NMTAP	49	288	7
NMTAP	50	0	4
NMTAP	50	96	3
NMTAP	50	96	6
NMTAP	50	192	2
NMTAP	50	192	3
NMTAP	50	288	1
NMSTR	50	288	4
NMSF_	50	288	4	96	144	0
EXTAP	51	288	1
EXTAP	51	288	7
NMTAP	52	0	2
NMTAP	52	0	6
NMTAP	52	48	2
NMTAP	52	48	6
NMTAP	52	96	2
NMTAP	52	96	6
NMTAP	52	192	1
NMTAP	52	192	5
NMTAP	52	288	2
NMTAP	52	288	6
NMTAP	53	0	1
NMTAP	53	0	5
NMTAP	53	96	2
NMTAP	53	96	6
NMTAP	53	192	1
NMTAP	53	192	5
NMTAP	53	288	2
NMTAP	53	288	6
NMTAP	54	0	0
NMTAP	54	0	5
NMTAP	54	96	2
NMTAP	54	96	7
NMTAP	54	192	0
NMTAP	54	192	5
NMTAP	54	288	2
NMTAP	54	288	7
NMTAP	55	0	0
NMTAP	55	0	5
NMTAP	55	96	2
NMTAP	55	96	7
BRHLD	55	192	0	96
BRHLD	55	192	5	96
NMSTR	56	0	1
NMSCR	56	0	1	96	96	4
NMTAP	56	192	5
NMTAP	56	288	5
NMSTR	57	0	6
NMSUL	57	0	6	96	96	2
NMTAP	57	192	1
NMTAP	57	288	1
NMSTR	58	0	0
NMSI_	58	0	0	96	96	3
NMTAP	58	192	7
NMTAP	58	288	6
NMHLD	59	0	2	96
NMHLD	59	0	5	96
EXTAP	59	144	2
EXTAP	59	144	5
NMTAP	60	0	1
NMTAP	60	0	4
NMTAP	60	96	2
NMTAP	60	144	2
NMTAP	60	144	3
NMTAP	60	240	4
NMTAP	60	288	3
NMTAP	60	288	4
NMTAP	61	0	2
NMTAP	61	48	2
NMTAP	61	48	3
NMTAP	61	144	5
NMTAP	61	192	4
NMTAP	61	192	5
NMTAP	61	288	2
NMTAP	61	288	7
NMTAP	62	0	3
NMTAP	62	0	6
NMTAP	62	96	5
NMTAP	62	144	4
NMTAP	62	144	5
NMTAP	62	240	3
NMTAP	62	288	3
NMTAP	62	288	4
NMTAP	63	0	5
NMTAP	63	48	4
NMTAP	63	48	5
NMTAP	63	144	2
EXTAP	63	192	2
EXTAP	63	192	3
EXTAP	63	288	1
EXTAP	63	288	4
NMTAP	64	0	1
NMTAP	64	48	1
NMTAP	64	96	3
NMTAP	64	144	2
NMTAP	64	192	5
NMTAP	64	240	5
NMTAP	64	288	4
NMTAP	64	336	6
NMTAP	65	0	0
NMTAP	65	48	0
NMTAP	65	96	7
NMTAP	65	144	7
NMTAP	65	192	1
NMTAP	65	240	1
NMTAP	65	288	1
NMTAP	65	288	6
NMSTR	66	0	0
BRSI_	66	0	0	96	96	4
NMSTR	66	0	7
BRSI_	66	0	7	96	96	3
BRHLD	67	0	2	96
BRHLD	67	0	5	192
NMTTP	68	0	3	B	0	M1
NMTTP	68	0	4	B	0	M1
NMTTP	68	0	4	E	0	M1
NMTTP	68	192	0	B	0	M1
NMTTP	68	192	0	E	0	M1
NMTTP	68	192	7	B	0	M1
NMTTP	69	0	6	E	0	M1
NMTTP	69	96	0	C	0	M1
NMTTP	69	192	2	E	0	M1
NMTTP	70	0	0	B	0	M1
NMTTP	70	0	1	B	0	M1
NMTTP	70	0	1	E	0	M1
NMTTP	70	192	4	B	0	M1
NMTTP	70	192	5	B	0	M1
NMTTP	70	192	5	E	0	M1
NMTTP	71	0	7	E	0	M1
NMTTP	71	96	0	C	0	M1
NMTTP	71	192	3	E	0	M1
NMTTP	72	0	5	B	0	M1
NMTTP	72	0	6	B	0	M1
NMTTP	72	0	6	E	0	M1
NMTTP	72	192	1	B	0	M1
NMTTP	72	192	2	B	0	M1
NMTTP	72	192	2	E	0	M1
NMTTP	73	0	0	E	0	M1
NMTTP	73	96	0	C	0	M1
NMTTP	73	192	4	E	0	M1
NMTHO	74	0	0	384	C	0	M1
BRTAP	75	192	0
BRTAP	75	192	7
NMSTR	76	0	1
NMSI_	76	0	1	96	96	4
NMSTR	76	192	6
NMSI_	76	192	6	96	96	3
NMTAP	77	0	2
NMTAP	77	96	2
NMHLD	77	192	1	96
NMHLD	77	192	3	96
NMSTR	78	0	1
NMSI_	78	0	1	96	96	5
NMTAP	78	0	3
NMSTR	78	192	6
NMSI_	78	192	6	96	96	2
NMTAP	79	0	1
NMTAP	79	96	1
NMHLD	79	192	0	96
NMHLD	79	192	2	96
NMTAP	80	0	3
NMSTR	80	0	7
NMSI_	80	0	7	96	96	4
NMSTR	80	192	1
NMSI_	80	192	1	96	96	4
NMSTR	81	0	6
NMSI_	81	0	6	96	96	1
NMSTR	81	192	2
NMSI_	81	192	2	96	96	5
NMTAP	82	0	6
NMTAP	82	96	6
NMTAP	82	192	4
NMTAP	82	192	5
NMTAP	82	288	2
NMTAP	82	288	3
BRTAP	83	0	3
BRTAP	83	0	4
BRTAP	83	96	3
BRTAP	83	96	4
BRTAP	83	192	3
BRTAP	83	192	4
NMHLD	84	0	5	96
NMHLD	84	144	5	96
NMTAP	84	288	4
NMTAP	84	288	6
NMTAP	84	336	4
NMSTR	84	336	6
NMSUL	84	336	6	96	288	3
NMHLD	86	0	2	96
NMHLD	86	144	2	96
NMTAP	86	288	1
NMTAP	86	288	3
NMTAP	86	336	1
NMSTR	86	336	3
NMSI_	86	336	3	96	144	0
NMSUR	86	336	3	96	144	7
NMHLD	88	0	1	96
NMHLD	88	96	3	96
NMHLD	88	192	4	96
NMHLD	88	288	6	96
NMHLD	89	0	0	96
NMHLD	89	96	2	96
NMHLD	89	192	4	96
NMSTR	89	288	6
NMSCR	89	288	6	96	384	5
NMTTP	91	0	3	B	0	M1
NMTTP	91	0	4	B	0	M1
NMTTP	91	0	4	E	1	M1
EXTAP	91	192	0
EXTAP	91	192	7
BRTAP	92	0	1
BRTAP	92	0	3
NMTAP	92	96	4
NMTAP	92	96	5
NMTAP	92	192	0
NMTAP	92	192	1
NMTAP	92	288	6
NMTAP	92	288	7
NMTAP	93	0	2
NMTAP	93	0	3
NMTAP	93	96	4
NMTAP	93	96	6
NMTAP	93	192	0
NMTAP	93	192	1
NMTAP	93	288	6
NMTAP	93	288	7
NMTAP	94	0	1
NMTAP	94	0	3
NMTAP	94	96	4
NMTAP	94	96	5
NMTAP	94	192	0
NMTAP	94	192	1
NMTAP	94	288	6
NMTAP	94	288	7
NMTAP	95	0	3
NMTAP	95	0	5
NMTAP	95	96	0
NMTAP	95	96	1
NMTAP	95	192	2
NMTAP	95	192	4
NMTAP	95	288	6
NMTAP	95	288	7
NMTAP	96	0	1
NMTAP	96	0	3
NMTAP	96	96	4
NMTAP	96	96	6
NMTAP	96	192	0
NMTAP	96	192	1
NMTAP	96	288	6
NMTAP	96	288	7
NMTAP	97	0	1
NMTAP	97	0	2
NMTAP	97	96	4
NMTAP	97	96	5
NMTAP	97	192	0
NMTAP	97	192	2
NMTAP	97	288	6
NMTAP	97	288	7
NMTAP	98	0	4
NMTAP	98	0	5
NMTAP	98	96	2
NMTAP	98	96	3
NMTAP	98	192	0
NMTAP	98	192	1
NMSTR	98	288	2
NMSI_	98	288	2	96	96	4
NMTAP	98	288	7
CNSI_	99	96	4	0	96	1
CNSI_	99	192	1	0	96	5
BRTAP	100	0	4
BRTAP	100	0	6
NMTAP	100	96	0
NMTAP	100	96	1
NMTAP	100	192	4
NMTAP	100	192	5
NMTAP	100	240	6
NMTAP	100	288	0
NMTAP	100	288	7
NMTAP	101	0	1
NMTAP	101	0	3
NMTAP	101	96	6
NMTAP	101	96	7
NMTAP	101	192	2
NMTAP	101	192	3
NMTAP	101	240	1
NMTAP	101	288	0
NMTAP	101	288	7
NMTAP	102	0	4
NMTAP	102	0	6
NMTAP	102	96	0
NMTAP	102	96	1
NMTAP	102	192	4
NMTAP	102	192	5
NMTAP	102	240	6
NMTAP	102	288	0
NMTAP	102	288	7
NMTAP	103	0	0
NMSTR	103	0	1
NMSI_	103	0	1	96	48	5
NMSTR	103	192	6
NMSI_	103	192	6	96	48	2
NMTAP	103	192	7
EXTAP	104	0	1
EXTAP	104	0	3
NMTAP	104	96	6
NMTAP	104	96	7
NMTAP	104	192	3
NMTAP	104	192	4
NMTAP	104	240	2
NMTAP	104	288	1
NMTAP	104	288	7
EXTAP	105	0	4
EXTAP	105	0	6
NMTAP	105	96	0
NMTAP	105	96	1
NMTAP	105	192	3
NMTAP	105	192	4
NMTAP	105	240	5
NMTAP	105	288	0
NMTAP	105	288	6
NMTAP	106	0	1
NMTAP	106	48	1
NMTAP	106	96	4
NMTAP	106	144	4
NMTAP	106	192	3
NMTAP	106	240	3
NMTAP	106	288	6
NMTAP	106	336	6
BRTAP	107	0	0
BRTAP	107	48	0
BRTAP	107	96	7
BRTAP	107	192	1
BRTAP	107	192	5
NMSTR	108	0	7
NMSCL	108	0	7	96	96	4
NMSTR	108	192	0
NMSCR	108	192	0	96	96	3
NMHLD	109	0	5	288
NMTAP	109	96	4
NMTAP	109	192	6
NMTAP	109	288	4
NMSTR	110	0	3
NMSCL	110	0	3	96	96	0
NMSTR	110	192	4
NMSCR	110	192	4	96	96	7
NMHLD	111	0	1	96
NMSTR	111	96	0
NMSF_	111	96	0	96	96	4
BRTAP	112	0	2
BRTAP	112	0	6
BRTAP	112	96	1
BRTAP	112	96	5
BRTAP	112	192	2
BRTAP	112	192	7
BRTAP	112	288	0
BRTAP	112	288	5
NMTAP	113	0	6
NMTAP	113	0	7
NMTAP	113	48	6
NMTAP	113	48	7
NMTAP	113	96	6
NMTAP	113	96	7
NMTAP	113	192	0
NMTAP	113	192	1
NMTAP	113	240	0
NMTAP	113	240	1
NMTAP	113	288	0
NMTAP	113	288	1
NMTTP	114	0	2	B	0	M1
NMTTP	114	0	2	E	0	M1
NMTTP	114	0	3	B	0	M1
NMTTP	114	0	3	E	1	M1
NMTTP	114	144	4	B	0	M1
NMTTP	114	144	5	B	0	M1
NMTTP	114	144	5	E	1	M1
NMTTP	114	144	6	E	0	M1
BRTAP	114	288	1
BRTAP	114	288	7
BRTAP	114	336	1
BRTAP	114	336	7

T_REC_TAP	331
T_REC_BRK	30
T_REC_XTP	24
T_REC_BXX	14
T_REC_HLD	41
T_REC_XHO	5
T_REC_BHO	4
T_REC_BXH	4
T_REC_STR	37
T_REC_BST	0
T_REC_XST	0
T_REC_XBS	2
T_REC_TTP	56
T_REC_THO	2
T_REC_SLD	37
T_REC_BSL	4
T_REC_ALL	591
T_NUM_TAP	448
T_NUM_BRK	58
T_NUM_HLD	48
T_NUM_SLD	37
T_NUM_ALL	591
T_JUDGE_TAP	494
T_JUDGE_HLD	180
T_JUDGE_SLD	41
T_JUDGE_ALL	715
TTM_EACHPAIRS	174
TTM_SCR_TAP	224000
TTM_SCR_BRK	150800
TTM_SCR_HLD	48000
TTM_SCR_SLD	55500
TTM_SCR_ALL	478300
TTM_SCR_S	458350
TTM_SCR_SS	472500
TTM_RAT_ACV	10122

