VERSION	0.00.00	1.04.00
FES_MODE	0
BPM_DEF	181.000	181.000	181.000	181.000
MET_DEF	4	4
RESOLUTION	384
CLK_DEF	384
COMPATIBLE_CODE	MA2

BPM	0	0	181.000
MET	0	0	4	4

NMTHO	1	128	0	288	C	0	M1
NMTAP	1	128	7
NMTTP	2	32	5	A	0	M1
NMTTP	2	32	6	E	0	M1
NMTTP	2	32	6	A	0	M1
BRTAP	2	256	1
BRTAP	2	256	7
EXHLD	3	0	0	96
EXSTR	3	0	5
NMSI_	3	0	5	96	96	2
NMHLD	3	192	1	96
CNSI_	3	192	2	0	96	4
NMHLD	4	0	0	96
NMSTR	4	0	5
NMSI_	4	0	5	96	96	2
NMHLD	4	192	1	96
CNSI_	4	192	2	0	96	4
NMTAP	5	0	0
NMSTR	5	0	5
NMSI_	5	0	5	96	96	2
NMTAP	5	48	0
NMTAP	5	96	0
NMHLD	5	192	1	96
CNSI_	5	192	2	0	96	4
NMHLD	6	0	0	96
NMSTR	6	0	5
NMSI_	6	0	5	96	96	2
NMHLD	6	192	1	96
CNSI_	6	192	2	0	96	4
NMHLD	7	0	0	96
NMTAP	7	0	4
NMTAP	7	96	4
NMHLD	7	192	1	96
NMTAP	7	192	3
NMTAP	7	288	3
NMHLD	8	0	0	96
NMTAP	8	0	4
NMTAP	8	96	4
NMHLD	8	192	1	96
NMTAP	8	192	3
NMTAP	8	288	3
NMTAP	9	0	2
NMTAP	9	0	4
NMTAP	9	48	2
NMTAP	9	96	3
NMTAP	9	96	5
NMTAP	9	144	5
NMTAP	9	192	2
NMTAP	9	192	4
NMTAP	9	288	3
NMHLD	9	288	5	192
EXTAP	10	0	4
NMSTR	10	96	4
BRSF_	10	96	4	96	48	0
NMTTP	10	192	4	A	1	M1
EXTAP	11	0	0
EXTAP	11	0	7
NMHLD	11	48	6	96
NMTAP	11	144	7
NMHLD	11	192	1	48
NMHLD	11	192	4	48
NMHLD	11	288	3	48
NMHLD	11	288	6	48
NMSTR	12	0	2
NMSI_	12	0	2	96	48	0
NMSTR	12	0	4
NMSI_	12	0	4	96	48	6
NMTAP	12	48	2
NMTAP	12	48	4
NMSTR	12	192	2
NMSCL	12	192	2	96	48	0
NMSTR	12	192	4
NMSCR	12	192	4	96	48	6
NMTAP	12	240	2
NMTAP	12	240	4
NMTAP	13	0	1
NMTAP	13	0	7
NMHLD	13	48	6	96
NMTAP	13	144	7
NMHLD	13	192	1	48
NMHLD	13	192	4	48
NMHLD	13	288	3	48
NMHLD	13	288	6	48
NMSTR	14	0	4
NMSI_	14	0	4	96	48	0
NMSTR	14	0	5
NMSI_	14	0	5	96	48	7
NMTAP	14	48	4
NMTAP	14	48	5
NMSTR	14	192	2
NMSI_	14	192	2	96	48	0
NMSTR	14	192	3
NMSI_	14	192	3	96	48	7
NMTAP	14	240	2
NMTAP	14	240	3
EXTAP	15	0	0
EXTAP	15	0	7
NMHLD	15	48	1	96
NMTAP	15	48	6
NMTAP	15	144	0
NMHLD	15	192	3	48
NMHLD	15	192	6	48
NMHLD	15	288	1	48
NMHLD	15	288	4	48
NMSTR	16	0	2
NMSI_	16	0	2	96	48	6
NMSTR	16	0	3
NMSI_	16	0	3	96	48	7
NMTAP	16	48	2
NMTAP	16	48	3
NMSTR	16	192	4
NMSI_	16	192	4	96	48	0
NMSTR	16	192	5
NMSI_	16	192	5	96	48	1
NMTAP	16	240	4
NMTAP	16	240	5
EXTAP	17	0	0
EXTAP	17	0	1
NMHLD	17	48	6	96
NMTAP	17	144	7
NMHLD	17	192	1	48
NMHLD	17	192	4	48
NMHLD	17	288	3	48
NMHLD	17	288	6	48
NMSTR	18	0	4
NMSI_	18	0	4	96	48	2
NMSTR	18	0	5
NMSI_	18	0	5	96	48	1
NMTAP	18	48	4
NMTAP	18	48	5
NMSTR	18	192	0
NMSI_	18	192	0	96	48	4
NMSTR	18	192	7
NMSI_	18	192	7	96	48	3
NMTAP	18	240	0
NMTAP	18	240	7
EXHLD	19	0	2	576
BRTAP	19	0	5
NMTTP	20	192	4	B	0	M1
NMTTP	20	192	5	B	0	M1
NMTTP	20	288	2	B	0	M1
NMTTP	20	288	3	B	0	M1
NMHLD	21	0	1	192
NMHLD	21	192	0	192
NMHLD	22	0	7	192
NMTTP	22	192	4	B	0	M1
NMTTP	22	192	5	B	0	M1
NMTTP	22	288	2	B	0	M1
NMTTP	22	288	3	B	0	M1
NMTAP	23	0	0
NMHLD	23	0	1	192
NMHLD	23	192	3	192
NMHLD	24	0	4	192
NMTTP	24	192	4	B	0	M1
NMTTP	24	192	5	B	0	M1
NMTTP	24	288	2	B	0	M1
NMTTP	24	288	3	B	0	M1
NMTAP	25	0	6
NMTAP	25	64	5
NMTAP	25	128	4
NMTAP	25	192	5
NMTAP	25	256	4
NMTAP	25	320	3
NMTAP	26	0	4
NMTAP	26	64	3
NMTAP	26	128	2
NMTAP	26	192	1
NMTAP	26	256	2
NMTAP	26	320	3
NMTAP	26	320	5
NMSTR	27	0	4
NMSI_	27	0	4	96	32	6
NMHLD	27	64	4	64
NMSTR	27	192	4
NMSI_	27	192	4	96	32	2
NMHLD	27	256	4	64
NMSTR	28	0	4
NMSI_	28	0	4	96	32	6
NMHLD	28	64	4	64
EXTAP	28	192	7
EXTAP	28	288	0
EXTAP	28	288	6
NMSTR	29	0	3
NMSI_	29	0	3	96	32	1
NMHLD	29	64	3	64
NMSTR	29	192	3
NMSI_	29	192	3	96	32	5
NMHLD	29	256	3	64
NMSTR	30	0	3
NMSI_	30	0	3	96	32	1
NMHLD	30	64	3	64
EXTAP	30	192	0
EXTAP	30	288	1
EXTAP	30	288	7
NMHLD	31	0	6	72
NMHLD	31	72	5	72
NMTAP	31	144	4
NMHLD	31	192	2	72
NMHLD	31	264	3	72
NMTAP	31	336	4
NMHLD	32	0	5	72
NMHLD	32	72	6	72
NMTAP	32	144	7
EXTAP	32	192	0
EXTAP	32	192	6
EXTAP	32	288	1
EXTAP	32	288	5
EXTAP	33	0	2
NMTAP	33	24	4
NMTAP	33	48	2
EXTAP	33	72	4
NMTAP	33	96	2
NMTAP	33	120	4
EXTAP	33	144	2
NMTAP	33	168	4
EXTAP	33	192	2
NMTAP	33	216	4
NMTAP	33	240	2
EXTAP	33	264	4
NMTAP	33	288	2
NMTAP	33	312	4
EXTAP	33	336	2
NMTAP	33	360	4
EXTAP	34	0	1
NMTAP	34	24	5
NMTAP	34	48	1
EXTAP	34	72	5
NMTAP	34	96	1
NMTAP	34	120	5
EXTAP	34	144	1
NMTAP	34	168	5
EXTAP	34	192	0
NMTAP	34	216	6
NMTAP	34	240	0
EXTAP	34	264	6
NMSTR	34	288	0
NMSSL	34	288	0	96	144	4
NMTAP	34	312	6
EXTAP	34	336	0
NMTAP	34	360	6
NMTAP	35	288	5
NMTAP	35	320	5
NMTAP	35	352	4
BRTAP	36	0	6
NMTAP	36	64	2
NMTAP	36	96	1
NMTAP	36	96	3
NMTAP	36	160	0
NMTAP	36	160	7
BRSTR	36	192	0
NMSCR	36	192	0	96	32	3
NMTAP	36	192	7
BRSTR	36	256	0
NMSI_	36	256	0	96	32	5
BRTAP	36	320	0
NMHLD	37	0	4	64
NMTAP	37	64	5
NMTAP	37	96	4
NMTAP	37	128	6
NMTAP	37	160	2
NMTAP	37	192	4
NMTAP	37	224	2
NMTAP	37	256	6
EXTAP	37	288	0
NMTAP	38	0	1
NMTAP	38	0	7
NMTAP	38	64	5
NMTAP	38	96	4
NMTAP	38	96	6
NMTAP	38	160	0
NMTAP	38	160	7
NMTAP	38	192	0
BRSTR	38	192	7
NMSCL	38	192	7	96	32	4
BRSTR	38	256	7
NMSI_	38	256	7	96	32	2
BRTAP	38	320	7
NMHLD	39	0	3	64
NMTAP	39	64	2
NMTAP	39	96	3
NMTAP	39	128	1
NMTAP	39	160	7
NMTAP	39	192	2
NMTAP	39	224	3
NMTAP	39	256	1
NMTAP	39	288	6
NMTAP	39	320	4
NMTAP	39	352	5
NMTAP	40	0	2
NMTAP	40	32	2
NMTAP	40	64	3
NMTAP	40	96	1
NMTAP	40	160	0
NMTAP	40	160	7
BRSTR	40	192	0
NMSI_	40	192	0	96	32	4
NMTAP	40	192	7
BRSTR	40	256	0
NMSCL	40	256	0	96	32	5
BRTAP	40	320	0
NMHLD	41	0	3	64
NMTAP	41	64	4
NMTAP	41	96	2
NMTAP	41	128	4
NMTAP	41	160	1
NMTAP	41	192	6
NMTAP	41	224	4
NMTAP	41	256	6
EXTAP	41	288	0
NMTAP	42	0	1
NMTAP	42	0	7
NMTAP	42	64	5
NMTAP	42	96	4
NMTAP	42	96	6
NMTAP	42	160	0
NMTAP	42	160	7
NMTAP	42	192	0
BRSTR	42	192	7
NMSI_	42	192	7	96	32	3
BRSTR	42	256	7
NMSCR	42	256	7	96	32	2
BRTAP	42	320	7
NMHLD	43	0	4	64
NMTAP	43	64	3
NMTAP	43	96	5
NMTAP	43	128	1
NMTAP	43	160	3
NMTAP	43	192	2
NMTAP	43	224	4
NMTAP	43	256	1
NMTAP	43	288	0
BRTAP	43	288	5
NMHLD	44	0	6	64
NMHLD	44	0	7	64
NMSTR	44	96	6
NMSI_	44	96	6	96	48	2
NMSI_	44	96	6	96	48	2
NMTAP	44	96	7
CNSI_	44	240	2	0	48	0
CNSI_	44	240	2	0	48	4
EXTAP	45	0	0
EXTAP	45	0	6
NMTAP	45	96	7
NMTAP	45	128	7
NMTAP	45	160	7
EXTAP	45	192	0
EXTAP	45	192	6
EXTAP	45	256	1
EXTAP	45	256	5
EXTAP	45	320	2
EXTAP	45	320	4
NMHLD	46	0	0	64
NMHLD	46	0	1	64
NMTAP	46	96	0
NMSTR	46	96	1
NMSI_	46	96	1	96	48	5
NMSI_	46	96	1	96	48	5
CNSI_	46	240	5	0	48	3
CNSI_	46	240	5	0	48	7
EXTAP	47	0	1
EXTAP	47	0	7
NMTAP	47	96	0
NMTAP	47	128	0
NMTAP	47	160	0
EXTAP	47	192	1
EXTAP	47	192	7
EXTAP	47	256	2
EXTAP	47	256	6
EXTAP	47	320	3
EXTAP	47	320	5
NMSTR	48	0	4
NMSI_	48	0	4	96	48	1
NMSI_	48	0	4	96	48	7
CNSI_	48	144	1	0	24	3
CNSI_	48	144	7	0	24	5
CNSV_	48	168	3	0	48	0
CNSV_	48	168	5	0	48	0
NMTTP	48	192	0	C	1	M1
NMSTR	49	0	7
NMSI_	49	0	7	96	48	3
NMSTR	49	96	3
NMSF_	49	96	3	96	48	7
NMTAP	49	96	7
NMTTP	49	192	0	C	1	M1
EXTAP	50	0	0
EXTAP	50	16	7
EXTAP	50	32	0
EXTAP	50	48	7
EXTAP	50	64	0
EXTAP	50	80	7
EXTAP	50	96	0
EXTAP	50	112	7
EXTAP	50	128	0
EXTAP	50	144	7
EXTAP	50	160	0
EXTAP	50	176	7
EXTAP	50	192	0
EXTAP	50	208	7
EXTAP	50	224	0
EXTAP	50	240	7
EXTAP	50	256	0
EXTAP	50	272	7
EXTAP	50	288	0
EXTAP	50	304	7
EXTAP	50	320	0
EXTAP	50	336	7
EXTAP	50	352	0
EXTAP	50	368	7
BXTAP	51	0	0
NMTAP	51	12	1
NMTAP	51	24	2
NMTAP	51	36	3
NMTAP	51	48	4
NMTAP	51	60	5
NMTAP	51	72	6
NMTAP	51	84	7
EXTAP	51	96	0
NMTAP	51	108	1
NMTAP	51	120	2
NMTAP	51	132	3
NMTAP	51	144	4
NMTAP	51	156	5
NMTAP	51	168	6
NMTAP	51	180	7
EXTAP	51	192	0
NMTAP	51	204	1
NMTAP	51	216	2
NMTAP	51	228	3
NMTAP	51	240	4
NMTAP	51	252	5
NMTAP	51	264	6
NMTAP	51	276	7
EXTAP	51	288	0
NMTAP	51	300	1
NMTAP	51	312	2
NMTAP	51	324	3
NMTAP	51	336	4
NMTAP	51	348	5
NMTAP	51	360	6
NMTAP	51	372	7
BXSTR	52	0	0
NMTTP	52	0	0	C	1	M1
NMSI_	52	0	0	96	32	2
NMTAP	52	96	0
EXSTR	52	96	6
NMSI_	52	96	6	96	32	4
NMTAP	52	192	6
EXSTR	52	192	7
BRSI_	52	192	7	96	32	3
EXSTR	52	288	4
NMSI_	52	288	4	96	32	0
NMTAP	52	288	7
EXSTR	53	0	1
NMSI_	53	0	1	96	32	5
NMTAP	53	0	4
EXSTR	53	96	0
NMSI_	53	96	0	96	32	6
NMTAP	53	96	1
NMTAP	53	192	0
EXSTR	53	192	2
NMSI_	53	192	2	96	32	4
NMTAP	53	288	2
EXSTR	53	288	5
NMSI_	53	288	5	96	32	7
EXSTR	54	0	3
NMSI_	54	0	3	96	32	1
NMTAP	54	0	5
NMTAP	54	96	3
EXSTR	54	96	4
NMSI_	54	96	4	96	32	0
EXSTR	54	192	1
NMSI_	54	192	1	96	48	5
NMTAP	54	192	4
NMTAP	54	288	1
EXSTR	54	288	7
NMSCL	54	288	7	96	32	4
EXSTR	55	0	0
NMSCR	55	0	0	96	32	3
NMTAP	55	0	7
NMTAP	55	96	0
NMTAP	55	96	7
NMTAP	55	192	4
BRTAP	55	192	6
BRTAP	55	256	3
NMTAP	55	256	4
BRTAP	55	320	1
NMTAP	55	320	3
BXSTR	56	0	4
NMSI_	56	0	4	96	32	6
BXSTR	56	96	2
NMSI_	56	96	2	96	32	0
NMTAP	56	96	4
NMTAP	56	192	2
BXSTR	56	192	3
BRSI_	56	192	3	96	32	7
BXSTR	56	288	0
NMSI_	56	288	0	96	32	4
NMTAP	56	288	3
NMTAP	57	0	0
BXSTR	57	0	5
NMSI_	57	0	5	96	32	1
BXSTR	57	96	4
NMSI_	57	96	4	96	32	2
NMTAP	57	96	5
NMTAP	57	192	4
BXSTR	57	192	6
NMSI_	57	192	6	96	32	0
BXSTR	57	288	1
NMSI_	57	288	1	96	32	3
NMTAP	57	288	6
NMTAP	58	0	1
BXSTR	58	0	7
NMSI_	58	0	7	96	32	5
BXSTR	58	96	0
NMSI_	58	96	0	96	32	4
NMTAP	58	96	7
NMTAP	58	192	0
BXTAP	58	192	5
BRSTR	58	288	3
NMSCL	58	288	3	96	32	0
NMTAP	58	288	7
NMTAP	59	0	3
BRSTR	59	0	4
NMSCR	59	0	4	96	32	7
BRTAP	59	96	3
NMTAP	59	96	4
NMHLD	59	192	0	32
BRHLD	59	192	1	32
NMHLD	59	256	2	32
BRHLD	59	256	7	32
BRHLD	59	320	3	32
NMHLD	59	320	6	32
EXTAP	60	0	4
EXTAP	60	0	5
NMTAP	60	64	6
NMHLD	60	96	6	64
NMTAP	60	160	4
NMTAP	60	192	4
NMTAP	60	288	3
NMTAP	60	288	5
NMTAP	61	0	2
NMTAP	61	0	3
NMTAP	61	64	1
NMHLD	61	96	1	64
NMTAP	61	160	3
NMTAP	61	192	3
NMTAP	61	288	2
NMTAP	61	288	4
NMTAP	62	0	4
NMTAP	62	0	5
NMTAP	62	64	6
NMHLD	62	96	6	64
NMTAP	62	160	4
NMTAP	62	192	4
NMTAP	62	288	3
NMTAP	62	288	5
NMTAP	63	0	2
NMTAP	63	0	4
NMTAP	63	64	1
NMTAP	63	96	3
NMTAP	63	160	3
NMTAP	63	192	4
NMTAP	63	256	4
NMTAP	63	288	5
NMTAP	64	0	6
NMTAP	64	0	7
NMTAP	64	64	5
NMHLD	64	96	5	64
NMTAP	64	160	4
NMTAP	64	192	4
NMTAP	64	288	2
NMTAP	64	288	3
NMTAP	65	0	0
NMTAP	65	0	1
NMTAP	65	64	2
NMHLD	65	96	2	64
NMTAP	65	160	3
NMTAP	65	192	3
NMTAP	65	288	3
NMTAP	65	288	4
NMTAP	66	0	4
NMTAP	66	0	6
NMTAP	66	64	5
NMTAP	66	96	5
NMTAP	66	160	3
NMTAP	66	192	4
NMTAP	66	256	2
NMTAP	66	288	2
NMTAP	66	352	4
NMTAP	67	0	3
NMTAP	67	96	4
NMTAP	67	96	6
NMTAP	67	192	3
NMTAP	67	192	7
NMTAP	67	288	0
NMTAP	67	288	5
NMHLD	68	0	1	64
NMTAP	68	64	3
NMSTR	68	96	3
NMSI_	68	96	3	96	32	5
NMTAP	68	160	2
NMTAP	68	192	2
NMTAP	68	288	3
EXTAP	68	288	6
NMHLD	69	0	6	64
NMTAP	69	64	4
NMSTR	69	96	4
NMSI_	69	96	4	96	32	2
NMTAP	69	160	5
NMTAP	69	192	5
EXTAP	69	288	1
NMTAP	69	288	4
NMHLD	70	0	2	64
NMTAP	70	64	3
NMSTR	70	96	3
NMSI_	70	96	3	96	32	5
NMTAP	70	160	1
NMSTR	70	192	1
NMSI_	70	192	1	96	32	3
EXTAP	70	288	6
NMHLD	71	0	5	64
NMTAP	71	64	4
NMSTR	71	96	4
NMSI_	71	96	4	96	32	2
NMTAP	71	160	6
NMSTR	71	192	6
NMSI_	71	192	6	96	32	4
EXTAP	71	288	1
NMTAP	72	0	2
NMTAP	72	64	1
NMTAP	72	64	3
NMHLD	72	96	1	64
NMTAP	72	96	3
NMTAP	72	160	0
NMTAP	72	192	0
NMTAP	72	288	2
NMTAP	72	288	7
NMTAP	73	0	5
NMTAP	73	64	4
NMTAP	73	64	6
NMTAP	73	96	4
NMHLD	73	96	6	64
NMTAP	73	160	7
NMTAP	73	192	7
NMTAP	73	288	1
NMTAP	73	288	5
NMSTR	74	0	2
NMSI_	74	0	2	96	32	4
NMSTR	74	0	6
NMSI_	74	0	6	96	32	4
NMSTR	74	96	2
NMSI_	74	96	2	96	64	0
NMSTR	74	96	6
NMSI_	74	96	6	96	64	0
CNSV_	74	256	0	0	64	3
CNSV_	74	256	0	0	64	5
NMTAP	75	0	2
NMHLD	75	0	6	192
NMSTR	75	192	0
BRSI_	75	192	0	96	48	4
BRTAP	75	288	0
NMTAP	76	0	5
NMTAP	76	32	5
NMTAP	76	64	4
NMTAP	76	96	6
NMTAP	76	160	0
NMTAP	76	160	7
NMTAP	76	192	0
BRSTR	76	192	7
NMSI_	76	192	7	96	32	4
BRSTR	76	256	2
NMSI_	76	256	2	96	32	7
NMTAP	76	256	7
BRTAP	76	320	2
NMHLD	77	0	3	64
NMTAP	77	64	0
NMTAP	77	96	4
NMTAP	77	128	2
NMTAP	77	160	7
NMTAP	77	192	3
NMTAP	77	224	5
NMTAP	77	256	1
NMHLD	77	288	7	96
NMTAP	78	0	0
NMTAP	78	64	2
NMTAP	78	96	1
NMTAP	78	96	3
NMTAP	78	160	0
NMTAP	78	160	7
BRSTR	78	192	0
NMSI_	78	192	0	96	32	3
NMTAP	78	192	7
NMTAP	78	256	0
BRSTR	78	256	5
NMSI_	78	256	5	96	32	0
BRTAP	78	320	5
NMHLD	79	0	4	64
NMTAP	79	64	7
NMTAP	79	96	3
NMTAP	79	128	5
NMTAP	79	160	2
NMTAP	79	192	4
NMTAP	79	224	0
NMTAP	79	256	6
NMTAP	79	288	2
NMTAP	79	320	4
NMTAP	79	352	0
NMTAP	80	0	5
NMTAP	80	32	5
NMTAP	80	64	4
NMTAP	80	96	6
NMTAP	80	160	0
NMTAP	80	160	1
BRSTR	80	192	0
NMSCL	80	192	0	96	32	5
NMTAP	80	192	1
NMTAP	80	256	0
BRSTR	80	256	3
NMSCL	80	256	3	96	32	0
BRTAP	80	320	3
NMHLD	81	0	4	64
NMTAP	81	64	0
NMTAP	81	96	3
NMTAP	81	128	2
NMTAP	81	160	5
NMTAP	81	192	4
NMTAP	81	224	6
NMTAP	81	256	1
NMHLD	81	288	7	96
NMTAP	82	0	0
NMTAP	82	64	2
NMTAP	82	96	1
NMTAP	82	96	3
NMTAP	82	160	6
NMTAP	82	160	7
NMTAP	82	192	6
BRSTR	82	192	7
NMSCR	82	192	7	96	32	2
BRSTR	82	256	4
NMSCR	82	256	4	96	32	7
NMTAP	82	256	7
BRTAP	82	320	4
NMHLD	83	0	3	64
NMTAP	83	64	6
NMTAP	83	96	4
NMTAP	83	128	5
NMTAP	83	160	0
NMTAP	83	192	4
NMTAP	83	224	2
NMTAP	83	256	7
BRTAP	83	288	0
BRTAP	83	288	6
NMTAP	84	0	2
NMTAP	84	32	2
NMTAP	84	64	3
NMTAP	84	96	1
NMTAP	84	96	4
NMTAP	84	160	6
NMTAP	84	160	7
NMTAP	84	192	0
BRSTR	84	192	5
NMSI_	84	192	5	96	32	0
BRSTR	84	256	2
NMSI_	84	256	2	96	32	5
BRTAP	84	256	5
BRTAP	84	320	2
NMHLD	85	0	7	64
NMTAP	85	64	4
NMTAP	85	96	6
NMTAP	85	128	3
NMTAP	85	160	5
NMSTR	85	192	0
BRSI_	85	192	0	96	32	4
NMTAP	85	224	7
NMTAP	85	256	1
NMTAP	85	288	0
BRTAP	86	0	2
BRTAP	86	0	6
NMTAP	86	64	5
NMTAP	86	96	4
NMTAP	86	96	6
NMTAP	86	160	0
NMTAP	86	160	1
BRSTR	86	192	2
NMSI_	86	192	2	96	32	7
NMTAP	86	192	7
BRTAP	86	256	2
BRSTR	86	256	5
NMSI_	86	256	5	96	32	2
BRTAP	86	320	5
NMHLD	87	0	0	64
NMTAP	87	64	3
NMTAP	87	96	1
NMTAP	87	128	5
NMTAP	87	160	3
NMTAP	87	192	6
NMTAP	87	224	0
NMTAP	87	256	7
NMTAP	87	288	3
NMTAP	87	320	4
NMTAP	87	352	2
BRTAP	88	0	6
NMTAP	88	32	6
NMTAP	88	64	7
NMTAP	88	96	0
NMTAP	88	96	5
NMTAP	88	160	2
NMTAP	88	160	3
NMTAP	88	192	2
BRSTR	88	192	3
NMSI_	88	192	3	96	32	6
BRSTR	88	256	0
NMSI_	88	256	0	96	32	4
BRTAP	88	256	3
BRTAP	88	320	0
NMHLD	89	0	7	64
NMTAP	89	64	3
NMTAP	89	96	5
NMTAP	89	128	2
NMTAP	89	160	4
NMSTR	89	192	0
BRSI_	89	192	0	96	32	4
NMTAP	89	224	7
NMTAP	89	256	1
NMTAP	89	288	0
BRTAP	90	0	3
BRTAP	90	0	5
NMTAP	90	64	0
NMTAP	90	64	1
NMTAP	90	96	2
NMTAP	90	96	7
NMTAP	90	160	4
NMTAP	90	160	5
BRSTR	90	192	4
NMSI_	90	192	4	96	32	1
NMTAP	90	192	5
BRTAP	90	256	4
BRSTR	90	256	7
NMSI_	90	256	7	96	32	3
BRTAP	90	320	7
NMHLD	91	0	0	64
NMTAP	91	64	4
NMTAP	91	96	2
NMTAP	91	128	6
NMTAP	91	160	1
NMSTR	91	192	7
BRSF_	91	192	7	96	32	3
NMTAP	91	224	0
NMTAP	91	256	6
NMTTP	91	288	0	C	1	M1
NMTTP	91	288	1	B	0	M1
NMTTP	91	288	3	B	0	M1
NMTTP	91	288	3	A	0	M1
NMTTP	91	288	5	B	0	M1
NMTTP	91	288	7	B	0	M1
NMTTP	91	288	7	A	0	M1

T_REC_TAP	418
T_REC_BRK	33
T_REC_XTP	80
T_REC_BXX	2
T_REC_HLD	82
T_REC_XHO	2
T_REC_BHO	3
T_REC_BXH	0
T_REC_STR	46
T_REC_BST	26
T_REC_XST	13
T_REC_XBS	11
T_REC_TTP	26
T_REC_THO	1
T_REC_SLD	92
T_REC_BSL	7
T_REC_ALL	842
T_NUM_TAP	583
T_NUM_BRK	82
T_NUM_HLD	85
T_NUM_SLD	92
T_NUM_ALL	842
T_JUDGE_TAP	655
T_JUDGE_HLD	184
T_JUDGE_SLD	99
T_JUDGE_ALL	938
TTM_EACHPAIRS	168
TTM_SCR_TAP	291500
TTM_SCR_BRK	213200
TTM_SCR_HLD	85000
TTM_SCR_SLD	138000
TTM_SCR_ALL	727700
TTM_SCR_S	697950
TTM_SCR_SS	719500
TTM_RAT_ACV	10113

