VERSION	0.00.00	1.04.00
FES_MODE	0
BPM_DEF	181.000	181.000	181.000	181.000
MET_DEF	4	4
RESOLUTION	384
CLK_DEF	384
COMPATIBLE_CODE	MA2

BPM	0	0	181.000
MET	0	0	4	4

NMTAP	3	0	3
NMTAP	3	96	3
NMTAP	3	192	0
NMTAP	3	192	6
NMTAP	4	0	4
NMTAP	4	96	4
NMTAP	4	192	1
NMTAP	4	192	7
NMTAP	5	0	3
NMTAP	5	96	3
NMTAP	5	192	0
NMTAP	5	192	6
NMTAP	6	0	4
NMTAP	6	96	4
NMTAP	6	192	1
NMTAP	6	192	7
NMTAP	7	0	3
NMTAP	7	96	3
NMTAP	7	192	0
NMTAP	7	192	6
NMTAP	8	0	4
NMTAP	8	96	4
NMTAP	8	192	1
NMTAP	8	192	7
NMSTR	9	0	2
NMSXL	9	0	2	96	288	3
NMSLL	9	0	2	96	288	3
NMTTP	10	192	0	E	1	M1
NMTTP	10	192	1	E	0	M1
NMTTP	10	192	7	E	0	M1
NMTAP	11	0	2
NMTAP	11	0	3
NMTAP	11	96	1
NMTAP	11	192	4
NMTAP	11	192	5
NMTAP	11	288	6
NMTAP	12	0	2
NMTAP	12	0	3
NMTAP	12	96	0
NMTAP	12	192	2
NMTAP	12	192	3
NMTAP	12	288	0
NMTAP	13	0	4
NMTAP	13	0	5
NMTAP	13	96	6
NMTAP	13	192	2
NMTAP	13	192	3
NMTAP	13	288	1
NMTAP	14	0	4
NMTAP	14	0	5
NMTAP	14	96	7
NMTAP	14	192	4
NMTAP	14	192	5
NMTAP	14	288	7
NMTAP	15	0	1
NMTAP	15	0	3
NMTAP	15	96	0
NMTAP	15	192	4
NMTAP	15	192	6
NMTAP	15	288	7
NMTAP	16	0	1
NMTAP	16	0	3
NMTAP	16	96	0
NMTAP	16	96	7
NMTAP	16	192	1
NMTAP	16	192	3
NMTAP	16	288	0
NMTAP	16	288	7
NMTAP	17	0	4
NMTAP	17	0	6
NMTAP	17	96	7
NMTAP	17	192	1
NMTAP	17	192	3
NMTAP	17	288	0
NMTAP	18	0	4
NMTAP	18	0	6
NMTAP	18	96	0
NMTAP	18	96	7
NMTAP	18	192	1
NMTAP	18	192	3
BRTAP	18	288	0
BRTAP	18	288	7
NMHLD	19	0	4	192
NMTAP	19	0	6
NMHLD	19	192	3	192
NMHLD	20	0	2	192
BRTAP	20	192	0
BRTAP	20	288	0
BRTAP	20	288	1
NMTAP	21	0	2
NMHLD	21	0	3	192
NMHLD	21	192	4	192
NMHLD	22	0	5	192
BRTAP	22	192	7
BRTAP	22	288	6
BRTAP	22	288	7
NMHLD	23	0	4	192
NMTAP	23	0	5
NMHLD	23	192	3	192
NMHLD	24	0	2	192
BRTAP	24	192	0
BRTAP	24	288	0
BRTAP	24	288	1
NMSTR	25	0	2
NMSI_	25	0	2	96	48	4
NMSTR	25	192	6
NMSI_	25	192	6	96	48	3
NMSTR	26	0	0
NMSI_	26	0	0	96	48	4
NMTAP	26	192	5
NMTAP	26	288	3
NMTAP	26	288	4
NMHLD	27	0	1	72
NMHLD	27	72	3	72
NMTAP	27	144	2
NMHLD	27	192	6	72
NMHLD	27	264	4	72
NMTAP	27	336	5
NMHLD	28	0	2	72
NMHLD	28	72	3	72
NMTAP	28	144	0
BRTAP	28	192	0
BRTAP	28	288	1
BRTAP	28	288	7
NMHLD	29	0	6	72
NMHLD	29	72	4	72
NMTAP	29	144	5
NMHLD	29	192	1	72
NMHLD	29	264	3	72
NMTAP	29	336	2
NMHLD	30	0	5	72
NMHLD	30	72	4	72
NMTAP	30	144	7
BRTAP	30	192	7
BRTAP	30	288	0
BRTAP	30	288	6
NMHLD	31	0	1	72
NMHLD	31	72	0	72
NMTAP	31	144	2
NMHLD	31	192	6	72
NMHLD	31	264	7	72
NMTAP	31	336	5
NMHLD	32	0	1	72
NMHLD	32	72	3	72
NMTAP	32	144	2
BRTAP	32	192	2
BRTAP	32	288	2
BRTAP	32	288	5
EXTAP	33	0	3
EXTAP	33	0	4
EXTAP	33	64	3
EXTAP	33	64	4
EXTAP	33	128	3
EXTAP	33	128	4
EXTAP	33	192	2
EXTAP	33	192	5
EXTAP	33	256	2
EXTAP	33	256	5
EXTAP	33	320	2
EXTAP	33	320	5
EXTAP	34	0	1
EXTAP	34	0	6
EXTAP	34	64	1
EXTAP	34	64	6
EXTAP	34	128	1
EXTAP	34	128	6
EXTAP	34	192	0
EXTAP	34	192	7
EXTAP	34	256	0
EXTAP	34	256	7
EXSTR	34	320	0
NMSUL	34	320	0	96	256	4
NMSUR	34	320	0	96	256	4
EXTAP	34	320	7
NMTAP	36	0	3
NMTAP	36	0	5
NMTAP	36	96	6
NMTAP	36	96	7
NMTAP	36	192	0
NMTAP	36	192	1
NMTAP	36	256	0
NMTAP	36	256	1
NMTAP	36	320	0
NMTAP	36	320	1
NMSTR	37	0	2
NMSI_	37	0	2	96	48	4
NMSTR	37	96	7
NMSI_	37	96	7	96	48	3
NMTAP	37	192	0
NMTAP	37	288	1
NMTAP	37	288	4
NMTAP	38	0	2
NMTAP	38	0	3
NMTAP	38	96	0
NMTAP	38	96	1
NMTAP	38	192	6
NMTAP	38	192	7
NMTAP	38	256	6
NMTAP	38	256	7
NMTAP	38	320	6
NMTAP	38	320	7
NMSTR	39	0	6
NMSI_	39	0	6	96	48	3
NMSTR	39	0	7
NMSI_	39	0	7	96	48	3
NMTAP	39	192	0
NMTAP	39	192	1
NMTAP	39	288	3
NMTAP	39	288	4
NMTAP	40	0	6
NMTAP	40	0	7
NMTAP	40	96	4
NMTAP	40	96	5
NMTAP	40	192	2
NMTAP	40	192	3
NMTAP	40	256	2
NMTAP	40	256	3
NMTAP	40	320	2
NMTAP	40	320	3
NMSTR	41	0	1
NMSI_	41	0	1	96	48	7
NMSTR	41	96	4
NMSI_	41	96	4	96	48	0
NMTAP	41	192	1
NMTAP	41	288	1
NMTAP	41	288	7
NMTAP	42	0	0
NMTAP	42	0	1
NMTAP	42	96	2
NMTAP	42	96	3
NMTAP	42	192	4
NMTAP	42	192	5
NMTAP	42	256	4
NMTAP	42	256	5
NMTAP	42	320	4
NMTAP	42	320	5
NMTAP	43	0	4
NMTAP	43	0	5
NMTAP	43	96	1
NMTAP	43	96	2
BRTAP	43	192	6
BRTAP	43	192	7
NMTAP	44	0	5
NMTAP	44	0	6
NMSTR	44	96	5
NMSI_	44	96	5	96	48	2
NMSTR	44	96	6
NMSI_	44	96	6	96	48	1
NMTTP	45	0	2	E	0	M1
NMTTP	45	192	1	D	0	M1
NMTTP	45	192	3	D	0	M1
NMTAP	46	0	1
NMTAP	46	0	2
NMSTR	46	96	1
NMSI_	46	96	1	96	48	6
NMSTR	46	96	2
NMSI_	46	96	2	96	48	5
NMTTP	47	0	6	E	0	M1
NMTTP	47	192	5	D	0	M1
NMTTP	47	192	7	D	0	M1
NMTAP	48	0	5
NMTAP	48	0	6
NMTAP	48	96	4
NMTAP	48	96	5
NMTAP	48	192	3
NMTAP	48	192	4
NMTAP	48	288	2
NMSTR	48	288	3
BRSF_	48	288	3	96	192	7
NMTAP	50	0	7
NMTAP	50	96	0
NMTAP	50	96	6
NMTAP	50	192	1
NMTAP	50	192	5
NMTAP	50	288	2
NMTAP	50	288	4
NMTTP	51	0	0	C	1	M1
NMTTP	51	0	3	B	0	M1
NMTTP	51	0	3	A	0	M1
NMTTP	51	0	7	B	0	M1
NMTTP	51	0	7	A	0	M1
NMHLD	52	0	2	96
NMHLD	52	96	3	96
NMHLD	52	192	4	96
NMHLD	52	288	5	96
NMHLD	53	0	2	96
NMHLD	53	96	3	96
NMHLD	53	192	4	96
NMHLD	53	288	5	96
NMHLD	54	0	1	96
NMHLD	54	96	3	96
NMHLD	54	192	4	96
NMHLD	54	288	6	96
NMTAP	55	0	7
NMTAP	55	96	0
NMTAP	55	96	6
BRTAP	55	192	1
BRTAP	55	192	5
NMHLD	56	0	1	96
NMHLD	56	96	0	96
NMHLD	56	192	7	96
NMHLD	56	288	6	96
NMHLD	57	0	1	96
NMHLD	57	96	0	96
NMHLD	57	192	7	96
NMHLD	57	288	6	96
NMHLD	58	0	2	96
NMHLD	58	96	0	96
NMHLD	58	192	7	96
NMHLD	58	288	5	96
NMTAP	59	0	4
NMTAP	59	96	3
NMTAP	59	96	5
BRTAP	59	192	2
BRTAP	59	192	6
NMHLD	60	0	1	768
NMTTP	60	192	1	E	0	M1
NMTTP	61	0	3	E	0	M1
NMTTP	61	96	4	E	0	M1
NMTTP	61	192	5	E	0	M1
NMHLD	62	0	6	768
NMTTP	62	192	7	E	0	M1
NMTTP	63	0	5	E	0	M1
NMTTP	63	96	4	E	0	M1
NMTTP	63	192	3	E	0	M1
NMHLD	64	0	2	768
NMTTP	64	192	3	E	0	M1
NMTTP	65	0	1	E	0	M1
NMTTP	65	96	0	E	0	M1
NMTTP	65	192	7	E	0	M1
NMHLD	66	0	5	576
NMTTP	66	192	5	E	0	M1
NMTTP	67	0	7	E	0	M1
NMTTP	67	96	0	E	0	M1
NMTTP	67	192	0	C	0	M1
NMHLD	68	0	1	672
NMTAP	68	96	7
NMTAP	68	192	7
NMTAP	68	288	0
NMTAP	69	0	2
NMTAP	69	96	3
NMTAP	69	192	4
NMTAP	69	288	5
NMHLD	70	0	6	576
NMTAP	70	96	0
NMTAP	70	192	0
NMTAP	70	288	7
NMTAP	71	0	5
NMTAP	71	96	4
NMTAP	71	192	3
NMTAP	71	288	3
NMTAP	71	288	4
NMHLD	72	0	2	192
NMTAP	72	96	3
NMHLD	72	192	5	192
NMTAP	72	288	4
NMHLD	73	0	1	192
NMTAP	73	96	3
NMHLD	73	192	6	192
NMTAP	73	288	4
NMHLD	74	0	0	192
NMTAP	74	96	3
NMHLD	74	192	7	96
NMSTR	74	288	4
NMSF_	74	288	4	96	192	0
BRTAP	75	288	2
BRTAP	75	288	6
NMTAP	76	0	4
NMTAP	76	0	5
NMTAP	76	96	0
NMTAP	76	96	7
NMTAP	76	192	2
NMTAP	76	192	3
NMTAP	76	256	3
NMTAP	76	256	4
NMTAP	76	320	4
NMTAP	76	320	5
NMSTR	77	0	6
NMSI_	77	0	6	96	48	2
NMSTR	77	96	0
NMSI_	77	96	0	96	48	4
NMTAP	77	192	7
NMTAP	77	288	3
NMTAP	77	288	5
NMTAP	78	0	2
NMTAP	78	0	3
NMTAP	78	96	0
NMTAP	78	96	7
NMTAP	78	192	4
NMTAP	78	192	5
NMTAP	78	256	3
NMTAP	78	256	4
NMTAP	78	320	2
NMTAP	78	320	3
NMSTR	79	0	2
NMSI_	79	0	2	96	48	7
NMSTR	79	0	3
NMSI_	79	0	3	96	48	7
NMTAP	79	192	4
NMTAP	79	192	5
NMTAP	79	288	3
NMTAP	79	288	6
NMTAP	80	0	0
NMTAP	80	0	1
NMTAP	80	96	3
NMTAP	80	96	4
NMTAP	80	192	6
NMTAP	80	192	7
NMTAP	80	256	0
NMTAP	80	256	7
NMTAP	80	320	0
NMTAP	80	320	1
NMSTR	81	0	2
NMSI_	81	0	2	96	48	6
NMSTR	81	96	4
NMSI_	81	96	4	96	48	0
NMTAP	81	192	1
NMTAP	81	288	1
NMTAP	81	288	7
NMTAP	82	0	6
NMTAP	82	0	7
NMTAP	82	96	3
NMTAP	82	96	4
NMTAP	82	192	0
NMTAP	82	192	1
NMTAP	82	256	0
NMTAP	82	256	7
NMTAP	82	320	6
NMTAP	82	320	7
NMTAP	83	0	6
NMTAP	83	0	7
NMTAP	83	96	4
NMTAP	83	96	5
NMTAP	83	192	2
NMTAP	83	192	3
BRTAP	83	288	1
BRTAP	83	288	4
EXTAP	84	0	4
EXTAP	84	0	5
NMTAP	84	96	1
NMTAP	84	96	2
NMTAP	84	192	0
NMTAP	84	192	1
NMTAP	84	256	2
NMTAP	84	256	3
NMTAP	84	320	4
NMTAP	84	320	5
NMSTR	85	0	6
NMSCL	85	0	6	96	48	3
NMTAP	85	0	7
NMSTR	85	96	0
NMSUR	85	96	0	96	48	4
NMTAP	85	192	5
NMTAP	85	288	5
NMTAP	85	288	6
NMTAP	86	0	6
NMTAP	86	0	7
NMTAP	86	96	1
NMTAP	86	96	2
NMTAP	86	192	2
NMTAP	86	192	3
NMTAP	86	256	0
NMTAP	86	256	1
NMTAP	86	320	6
NMTAP	86	320	7
NMSTR	87	0	4
NMSI_	87	0	4	96	48	1
NMSTR	87	0	5
NMSI_	87	0	5	96	48	0
NMTAP	87	192	2
NMTAP	87	192	3
NMTAP	87	288	0
NMTAP	87	288	6
NMTAP	88	0	0
NMTAP	88	0	1
NMTAP	88	96	5
NMTAP	88	96	6
NMTAP	88	192	4
NMTAP	88	192	5
NMTAP	88	256	6
NMTAP	88	256	7
NMTAP	88	320	0
NMTAP	88	320	1
NMSTR	89	0	2
NMSCL	89	0	2	96	48	7
NMTAP	89	0	3
NMSTR	89	96	4
NMSUR	89	96	4	96	48	0
NMTAP	89	192	1
NMTAP	89	288	1
NMTAP	89	288	2
NMTAP	90	0	2
NMTAP	90	0	3
NMTAP	90	96	5
NMTAP	90	96	6
NMTAP	90	192	6
NMTAP	90	192	7
NMTAP	90	256	4
NMTAP	90	256	5
NMTAP	90	320	2
NMTAP	90	320	3
NMTAP	91	0	0
NMTAP	91	0	1
NMTAP	91	96	4
NMTAP	91	96	6
NMSTR	91	192	2
BRSF_	91	192	2	96	48	6
NMTAP	91	192	3

T_REC_TAP	298
T_REC_BRK	30
T_REC_XTP	25
T_REC_BXX	0
T_REC_HLD	63
T_REC_XHO	0
T_REC_BHO	0
T_REC_BXH	0
T_REC_STR	29
T_REC_BST	0
T_REC_XST	1
T_REC_XBS	0
T_REC_TTP	30
T_REC_THO	0
T_REC_SLD	30
T_REC_BSL	2
T_REC_ALL	508
T_NUM_TAP	383
T_NUM_BRK	32
T_NUM_HLD	63
T_NUM_SLD	30
T_NUM_ALL	508
T_JUDGE_TAP	413
T_JUDGE_HLD	228
T_JUDGE_SLD	32
T_JUDGE_ALL	673
TTM_EACHPAIRS	152
TTM_SCR_TAP	191500
TTM_SCR_BRK	83200
TTM_SCR_HLD	63000
TTM_SCR_SLD	45000
TTM_SCR_ALL	382700
TTM_SCR_S	368150
TTM_SCR_SS	379500
TTM_RAT_ACV	10084

