VERSION	0.00.00	1.04.00
FES_MODE	0
BPM_DEF	139.000	139.000	139.000	139.000
MET_DEF	4	4
RESOLUTION	384
CLK_DEF	384
COMPATIBLE_CODE	MA2

BPM	0	0	139.000
MET	0	0	4	4
MET	29	0	4	2
MET	29	192	4	4
MET	58	192	4	2
MET	59	0	4	4

NMHLD	2	0	2	576
NMTTP	2	192	3	A	0	M1
NMTTP	3	0	4	B	0	M1
NMTTP	3	192	6	E	0	M1
NMHLD	4	0	5	576
NMTTP	4	192	4	A	0	M1
NMTTP	5	0	3	B	0	M1
NMTTP	5	192	2	E	0	M1
NMHLD	6	0	1	576
NMTTP	6	192	4	D	0	M1
NMTTP	7	0	5	B	0	M1
NMTTP	7	192	7	D	0	M1
NMHLD	8	0	6	576
NMTTP	8	192	4	D	0	M1
NMTTP	9	0	2	B	0	M1
NMTTP	9	192	1	D	0	M1
EXSTR	9	288	0
NMSI_	9	288	0	96	48	3
NMTAP	10	0	4
NMHLD	10	96	5	96
NMTAP	10	192	4
NMTAP	10	240	3
NMHLD	10	288	2	96
NMTAP	11	0	4
NMHLD	11	96	5	96
NMTAP	11	192	4
NMTAP	11	240	3
NMTAP	11	288	2
NMTAP	12	0	2
NMHLD	12	96	4	96
NMTAP	12	192	3
NMTAP	12	240	2
NMHLD	12	288	1	96
NMTAP	13	0	3
NMHLD	13	96	4	96
NMTAP	13	192	3
NMTAP	13	240	2
NMSTR	13	288	1
NMSI_	13	288	1	96	48	6
NMTAP	14	0	5
NMHLD	14	96	4	96
NMTAP	14	192	0
NMTAP	14	240	1
NMHLD	14	288	2	96
NMTAP	15	0	3
NMHLD	15	96	4	192
NMTAP	15	192	3
NMTAP	15	240	2
NMSTR	15	288	1
NMSUR	15	288	1	96	192	3
NMSXR	15	288	1	96	192	4
NMTAP	17	0	3
NMTAP	17	0	4
NMTAP	17	96	0
NMSTR	17	96	5
NMSCL	17	96	5	96	48	2
NMTAP	17	192	2
NMTAP	17	192	5
NMHLD	18	0	1	288
NMTTP	18	96	3	A	0	M1
NMTTP	18	192	4	A	0	M1
NMTTP	18	288	5	A	0	M1
NMTTP	19	0	6	A	0	M1
NMTTP	19	96	7	A	0	M1
NMTTP	19	192	0	A	0	M1
NMTTP	19	288	1	A	0	M1
NMTTP	20	0	2	E	0	M1
NMTTP	20	96	3	E	0	M1
NMTTP	20	192	4	E	0	M1
NMTTP	20	288	5	E	0	M1
NMTTP	21	0	0	B	0	M1
NMTTP	21	0	0	C	0	M1
NMTTP	21	0	7	B	0	M1
NMTTP	21	192	2	E	0	M1
NMTTP	21	192	6	E	0	M1
NMTAP	22	0	0
NMTAP	22	0	4
NMTAP	22	96	1
NMTAP	22	96	5
NMTAP	22	192	2
NMTAP	22	192	6
NMSTR	22	288	3
NMSV_	22	288	3	96	96	1
NMSTR	22	288	7
NMSV_	22	288	7	96	96	5
NMTTP	23	192	0	A	0	M1
NMTTP	23	192	1	E	0	M1
NMTTP	23	192	1	A	0	M1
NMTTP	23	192	4	A	0	M1
NMTTP	23	192	5	E	0	M1
NMTTP	23	192	5	A	0	M1
NMHLD	24	0	6	96
NMTAP	24	96	4
NMHLD	24	192	1	96
NMTAP	24	288	3
NMHLD	25	0	2	192
NMSTR	25	0	6
NMSCR	25	0	6	96	96	1
CNSCL	25	192	1	0	96	6
EXHLD	26	0	5	96
EXHLD	26	8	3	96
EXHLD	26	144	4	96
EXHLD	26	152	2	96
EXSTR	26	336	7
NMSI_	26	336	7	96	336	3
EXSTR	26	344	1
NMSSR	26	344	1	96	328	5
NMTAP	29	48	1
NMTAP	29	48	6
NMTAP	29	96	1
NMTAP	29	96	6
NMTAP	29	192	0
NMSTR	29	192	7
NMSI_	29	192	7	96	48	3
NMTAP	29	288	6
EXTAP	29	288	7
NMTAP	30	0	0
NMSTR	30	0	7
NMSI_	30	0	7	96	48	3
NMTAP	30	96	6
EXTAP	30	96	7
NMTAP	30	144	6
NMTAP	30	240	4
NMTAP	30	240	5
NMTAP	30	288	2
NMTAP	30	336	1
NMHLD	30	336	3	96
NMTAP	31	0	1
NMTTP	31	48	0	A	0	M1
NMTTP	31	48	1	E	0	M1
NMTTP	31	48	1	A	0	M1
NMTTP	31	96	0	A	0	M1
NMTTP	31	96	1	E	0	M1
NMTTP	31	96	1	A	0	M1
NMTAP	31	144	2
NMSTR	31	192	2
NMSCL	31	192	2	96	48	7
NMTAP	31	288	4
NMTAP	31	336	5
NMSTR	32	0	5
NMSCR	32	0	5	96	48	0
NMTAP	32	96	3
NMSTR	32	144	3
NMSXR	32	144	3	96	96	3
NMTAP	32	240	6
NMTAP	32	336	7
NMHLD	33	0	7	48
NMTTP	33	48	2	A	0	M1
NMTTP	33	48	3	E	0	M1
NMTTP	33	48	3	A	0	M1
NMTTP	33	96	2	A	0	M1
NMTTP	33	96	3	E	0	M1
NMTTP	33	96	3	A	0	M1
NMSTR	33	192	0
NMSI_	33	192	0	96	48	3
NMTAP	33	192	1
EXTAP	33	288	0
NMTAP	33	288	7
NMSTR	34	0	0
NMSI_	34	0	0	96	48	3
NMTAP	34	0	1
EXTAP	34	96	0
NMTAP	34	96	7
NMTAP	34	144	7
NMTAP	34	240	4
NMTAP	34	240	6
NMTAP	34	288	3
NMTAP	34	336	2
NMHLD	34	336	4	96
NMTAP	35	0	2
NMTTP	35	48	1	A	0	M1
NMTTP	35	48	2	E	0	M1
NMTTP	35	48	2	A	0	M1
NMTTP	35	96	1	A	0	M1
NMTTP	35	96	2	E	0	M1
NMTTP	35	96	2	A	0	M1
NMTAP	35	144	0
NMSTR	35	192	0
NMSI_	35	192	0	96	48	3
NMTAP	35	288	3
NMSTR	35	336	4
NMSI_	35	336	4	96	48	7
NMTAP	36	48	3
NMSTR	36	144	2
NMSI_	36	144	2	96	48	5
NMTAP	36	240	6
NMTAP	36	336	7
NMTAP	37	0	7
NMTAP	37	96	1
NMTAP	37	96	6
NMSTR	37	192	0
NMSI_	37	192	0	96	48	4
NMTAP	37	192	7
EXTAP	37	288	0
NMTAP	37	288	1
NMSTR	38	0	0
NMSI_	38	0	0	96	48	4
NMTAP	38	0	7
EXTAP	38	96	0
NMTAP	38	96	1
NMTAP	38	144	1
NMTAP	38	240	2
NMTAP	38	240	3
NMTAP	38	288	5
NMHLD	38	336	4	96
NMTAP	38	336	6
NMTAP	39	0	6
NMTTP	39	48	6	A	0	M1
NMTTP	39	48	7	E	0	M1
NMTTP	39	48	7	A	0	M1
NMTTP	39	96	6	A	0	M1
NMTTP	39	96	7	E	0	M1
NMTTP	39	96	7	A	0	M1
NMTAP	39	144	3
NMSTR	39	192	3
NMSCL	39	192	3	96	192	6
NMTAP	39	336	5
NMTAP	40	0	5
NMTAP	40	96	4
NMTAP	40	144	4
NMTAP	40	240	1
NMTAP	40	240	3
NMTAP	40	336	0
NMHLD	41	0	0	48
NMTTP	41	48	4	A	0	M1
NMTTP	41	48	5	E	0	M1
NMTTP	41	48	5	A	0	M1
NMTTP	41	96	4	A	0	M1
NMTTP	41	96	5	E	0	M1
NMTTP	41	96	5	A	0	M1
NMTAP	41	192	6
NMSTR	41	192	7
NMSI_	41	192	7	96	48	4
NMTAP	41	288	0
EXTAP	41	288	7
NMTAP	42	0	6
NMSTR	42	0	7
NMSI_	42	0	7	96	48	4
NMTAP	42	96	0
EXTAP	42	96	7
NMTAP	42	144	0
NMTAP	42	240	1
NMTAP	42	240	3
NMTAP	42	288	4
NMTAP	42	336	3
NMHLD	42	336	5	96
NMTAP	43	0	3
NMTTP	43	48	3	A	0	M1
NMTTP	43	48	4	E	0	M1
NMTTP	43	48	4	A	0	M1
NMTTP	43	96	3	A	0	M1
NMTTP	43	96	4	E	0	M1
NMTTP	43	96	4	A	0	M1
NMTAP	43	144	5
NMSTR	43	192	5
NMSI_	43	192	5	96	48	1
NMTAP	43	288	4
NMSTR	43	336	3
NMSI_	43	336	3	96	48	7
NMTAP	44	48	7
NMTAP	44	144	6
NMTAP	44	192	6
NMTAP	44	240	3
NMTAP	44	240	5
NMTAP	44	336	2
NMTAP	44	336	4
NMTAP	45	0	2
NMTAP	45	0	4
NMTAP	45	96	2
NMTAP	45	96	3
EXTAP	45	192	0
EXTAP	45	192	1
NMTAP	45	240	2
NMTAP	45	264	3
NMTAP	45	288	2
NMTAP	45	336	4
NMTAP	46	0	5
NMHLD	46	48	6	96
NMTAP	46	144	4
NMTAP	46	240	5
NMTAP	46	288	3
NMTAP	46	288	4
NMTAP	46	336	2
NMTAP	47	0	2
NMTAP	47	24	4
NMTAP	47	48	3
NMTAP	47	72	5
NMTAP	47	96	4
NMTAP	47	144	4
EXTAP	47	192	3
EXTAP	47	192	6
NMTAP	47	240	5
NMTAP	47	264	4
NMTAP	47	288	5
NMTAP	47	336	3
NMTAP	48	0	2
NMHLD	48	48	1	96
NMTAP	48	144	3
NMTAP	48	240	0
NMSTR	48	288	7
NMSI_	48	288	7	96	48	2
NMTAP	48	336	6
NMTAP	49	0	5
NMTAP	49	48	4
NMTAP	49	96	3
NMTAP	49	144	2
NMHLD	49	192	2	48
NMHLD	49	240	3	48
NMHLD	49	288	4	48
NMHLD	49	336	5	48
NMTAP	50	0	6
NMTAP	50	48	7
NMTAP	50	144	0
NMTAP	50	144	1
NMHLD	50	240	2	48
NMHLD	50	288	1	48
NMHLD	50	336	0	48
NMHLD	51	0	7	48
NMHLD	51	48	6	48
NMHLD	51	96	5	48
NMHLD	51	144	4	48
EXSTR	51	192	3
NMSI_	51	192	3	96	48	7
EXTAP	51	288	2
EXSTR	51	336	1
NMSI_	51	336	1	96	48	5
EXTAP	52	48	3
EXSTR	52	96	4
NMSI_	52	96	4	96	48	7
EXTAP	52	192	2
EXSTR	52	240	3
NMSI_	52	240	3	96	48	0
EXTAP	52	336	6
EXSTR	53	0	7
NMSF_	53	0	7	96	48	3
NMTAP	53	96	7
NMTAP	53	192	1
NMTAP	53	192	5
NMTAP	53	288	1
NMTAP	53	288	4
NMTAP	54	0	1
NMTAP	54	0	3
NMTAP	54	96	1
NMTAP	54	96	3
NMTAP	54	192	0
NMTAP	54	192	1
NMTAP	54	288	0
NMTAP	54	288	7
NMTAP	55	0	6
NMTAP	55	0	7
NMTAP	55	96	6
NMTAP	55	96	7
NMTAP	55	192	5
NMTAP	55	192	6
NMTAP	55	288	3
NMTAP	55	288	5
NMTAP	56	0	2
NMTAP	56	0	4
NMTAP	56	96	2
NMTAP	56	96	4
NMTAP	56	192	2
NMTAP	56	192	3
NMTAP	56	288	1
NMTAP	56	288	2
NMSTR	57	0	0
NMSI_	57	0	0	96	48	3
NMTAP	57	0	1
NMTAP	57	96	0
NMHLD	57	96	7	528
NMTAP	59	0	1
NMSTR	59	0	7
NMSI_	59	0	7	96	48	3
NMTAP	59	96	6
EXTAP	59	96	7
NMTAP	59	192	1
NMSTR	59	192	7
NMSI_	59	192	7	96	48	3
NMTAP	59	288	6
EXTAP	59	288	7
NMTAP	59	336	6
NMTAP	60	48	6
NMTAP	60	48	7
NMTAP	60	96	0
NMHLD	60	144	1	96
NMTAP	60	144	7
NMTAP	60	192	7
NMTTP	60	240	2	A	0	M1
NMTTP	60	240	3	E	0	M1
NMTTP	60	240	3	A	0	M1
NMTTP	60	288	2	A	0	M1
NMTTP	60	288	3	E	0	M1
NMTTP	60	288	3	A	0	M1
NMTAP	60	336	5
NMSTR	61	0	5
NMSCR	61	0	5	96	48	0
NMTAP	61	96	3
NMTAP	61	144	2
NMSTR	61	192	2
NMSCL	61	192	2	96	48	7
NMTAP	61	288	5
NMSTR	61	336	5
NMSCL	61	336	5	96	48	2
NMTAP	62	48	1
NMTAP	62	144	0
NMHLD	62	192	0	48
NMTTP	62	240	3	A	0	M1
NMTTP	62	240	3	D	0	M1
NMTTP	62	240	4	D	0	M1
NMTTP	62	288	3	A	0	M1
NMTTP	62	288	3	D	0	M1
NMTTP	62	288	4	D	0	M1
NMSTR	63	0	0
NMSI_	63	0	0	96	48	3
NMTAP	63	0	2
EXTAP	63	96	0
NMTAP	63	96	7
NMSTR	63	192	0
NMSI_	63	192	0	96	48	3
NMTAP	63	192	2
EXTAP	63	288	0
NMTAP	63	288	7
NMTAP	63	336	7
NMTAP	64	48	4
NMTAP	64	48	6
NMTAP	64	96	2
NMHLD	64	144	1	96
NMTAP	64	144	3
NMTAP	64	192	3
NMTTP	64	240	4	A	0	M1
NMTTP	64	240	4	D	0	M1
NMTTP	64	240	5	D	0	M1
NMTTP	64	288	4	A	0	M1
NMTTP	64	288	4	D	0	M1
NMTTP	64	288	5	D	0	M1
NMTAP	64	336	2
NMSTR	65	0	1
NMSI_	65	0	1	96	48	4
NMTAP	65	96	4
NMSTR	65	144	5
NMSI_	65	144	5	96	48	0
NMTAP	65	240	4
NMSTR	65	336	2
NMSI_	65	336	2	96	48	5
NMTAP	66	48	6
NMTAP	66	144	7
NMTAP	66	192	7
NMTAP	66	288	1
NMTAP	66	288	5
NMTAP	67	0	2
NMSTR	67	0	4
NMSI_	67	0	4	96	48	0
EXTAP	67	96	4
NMTAP	67	96	6
NMTAP	67	192	2
NMSTR	67	192	4
NMSI_	67	192	4	96	48	0
EXTAP	67	288	4
NMTAP	67	288	6
NMTAP	67	336	6
NMTAP	68	48	4
NMTAP	68	48	5
NMTAP	68	96	3
NMHLD	68	144	2	96
NMTAP	68	144	4
NMTAP	68	192	4
NMTTP	68	240	5	A	0	M1
NMTTP	68	240	6	A	0	M1
NMTTP	68	240	6	D	0	M1
NMTTP	68	288	5	A	0	M1
NMTTP	68	288	6	A	0	M1
NMTTP	68	288	6	D	0	M1
NMTAP	68	336	3
NMSTR	69	0	3
NMSCL	69	0	3	96	96	0
NMTAP	69	96	5
NMTAP	69	144	4
CNSI_	69	192	0	0	96	4
NMSTR	69	192	4
NMSI_	69	192	4	96	72	1
NMTAP	69	288	7
NMTAP	69	336	7
NMTAP	70	48	5
NMTAP	70	144	4
NMTAP	70	192	1
NMTAP	70	192	3
NMTAP	70	240	1
NMTAP	70	240	3
NMSTR	70	288	2
BRSI_	70	288	2	96	48	6
EXTAP	71	0	2
EXTAP	71	0	6
NMTTP	71	12	0	C	0	M1
NMTAP	71	288	0
NMTAP	71	288	7
NMHLD	71	336	1	96
NMTAP	71	336	6
NMTAP	72	48	3
NMTAP	72	96	4
NMTAP	72	144	5
NMHLD	72	192	6	48
NMTTP	72	240	0	E	0	M1
NMTTP	72	240	0	A	0	M1
NMTTP	72	240	7	A	0	M1
NMTTP	72	288	0	E	0	M1
NMTTP	72	288	0	A	0	M1
NMTTP	72	288	7	A	0	M1
NMTAP	72	336	5
NMSTR	73	0	6
NMSI_	73	0	6	96	48	2
NMTAP	73	96	1
NMSTR	73	144	0
NMSI_	73	144	0	96	48	4
NMTAP	73	240	4
NMTAP	73	336	5
NMTAP	74	0	5
NMTAP	74	48	4
NMTAP	74	48	6
NMTAP	74	144	1
NMTAP	74	144	3
NMTAP	74	192	1
NMTAP	74	192	3
BRTAP	74	288	0
BRTAP	74	288	7
NMTAP	75	0	4
NMTAP	75	0	5
NMTAP	75	48	3
NMTAP	75	72	4
NMTAP	75	96	2
NMTAP	75	144	1
NMTAP	75	192	0
NMSTR	75	240	7
NMSI_	75	240	7	96	48	3
NMTAP	75	336	5
NMTAP	75	336	7
NMTAP	76	48	5
NMTAP	76	96	6
NMTAP	76	144	7
NMTAP	76	192	2
NMTAP	76	216	0
NMTAP	76	240	1
NMTAP	76	264	7
NMTAP	76	288	0
NMTAP	76	336	6
NMTAP	76	336	7
NMHLD	77	0	0	480
NMSTR	77	0	5
NMSI_	77	0	5	96	48	1
NMSTR	77	192	6
NMSI_	77	192	6	96	48	2
NMSTR	78	0	7
NMSI_	78	0	7	96	48	3
NMSTR	78	192	2
NMSI_	78	192	2	96	48	5
NMSI_	78	192	2	96	48	7
EXTAP	78	288	2
NMTAP	79	0	0
NMTAP	79	0	6
NMTAP	79	48	1
NMTAP	79	72	0
NMTAP	79	96	2
NMTAP	79	144	2
NMTAP	79	192	3
NMSTR	79	240	4
NMSI_	79	240	4	96	48	0
NMTAP	79	336	4
NMTAP	79	336	6
NMTAP	80	48	5
NMTAP	80	96	4
NMTAP	80	144	0
NMTAP	80	144	3
NMTAP	80	192	1
NMTAP	80	216	3
NMTAP	80	240	2
NMTAP	80	264	4
NMTAP	80	288	3
NMTAP	80	336	4
NMTAP	80	336	5
NMHLD	81	0	3	384
NMSTR	81	0	6
NMSI_	81	0	6	96	48	2
NMSTR	81	192	5
NMSI_	81	192	5	96	48	1
BXSTR	82	0	4
NMSI_	82	0	4	96	48	0
BXSTR	82	96	4
BRSF_	82	96	4	96	48	0
BXTAP	82	192	4
NMSTR	83	0	2
NMSCR	83	0	2	96	24	3
CNSCR	83	120	3	0	24	4
CNSCR	83	144	4	0	24	5
CNSCR	83	168	5	0	24	6
CNSCR	83	192	6	0	48	7
CNSCR	83	240	7	0	48	0
CNSCR	83	288	0	0	384	1
NMSTR	85	0	1
NMSCR	85	0	1	96	24	2
CNSCR	85	120	2	0	24	3
CNSCR	85	144	3	0	24	4
CNSCR	85	168	4	0	24	5
CNSCR	85	192	5	0	48	6
CNSCR	85	240	6	0	48	7
CNSCR	85	288	7	0	384	0
NMSTR	87	0	0
NMSCR	87	0	0	96	24	1
CNSCR	87	120	1	0	24	2
CNSCR	87	144	2	0	24	3
CNSCR	87	168	3	0	24	4
CNSCR	87	192	4	0	48	5
CNSCR	87	240	5	0	48	6
CNSCR	87	288	6	0	384	7
NMSTR	89	0	7
NMSCR	89	0	7	96	48	0
CNSCR	89	144	0	0	48	1
CNSCR	89	192	1	0	48	2
NMSTR	89	192	3
NMSCR	89	192	3	96	48	4
CNSCR	89	240	2	0	48	3
CNSCR	89	336	4	0	48	5
CNSCR	90	0	5	0	48	6
NMSTR	90	0	7
NMSCR	90	0	7	96	48	0
CNSCR	90	48	6	0	48	7
CNSCR	90	144	0	0	48	1
CNSCR	90	192	1	0	48	2
NMSTR	90	192	3
NMSI_	90	192	3	96	96	7
CNSCR	90	240	2	0	48	3

T_REC_TAP	285
T_REC_BRK	2
T_REC_XTP	25
T_REC_BXX	1
T_REC_HLD	45
T_REC_XHO	4
T_REC_BHO	0
T_REC_BXH	0
T_REC_STR	57
T_REC_BST	0
T_REC_XST	8
T_REC_XBS	2
T_REC_TTP	101
T_REC_THO	0
T_REC_SLD	67
T_REC_BSL	2
T_REC_ALL	599
T_NUM_TAP	476
T_NUM_BRK	7
T_NUM_HLD	49
T_NUM_SLD	67
T_NUM_ALL	599
T_JUDGE_TAP	481
T_JUDGE_HLD	154
T_JUDGE_SLD	69
T_JUDGE_ALL	704
TTM_EACHPAIRS	97
TTM_SCR_TAP	238000
TTM_SCR_BRK	18200
TTM_SCR_HLD	49000
TTM_SCR_SLD	100500
TTM_SCR_ALL	405700
TTM_SCR_S	392850
TTM_SCR_SS	405000
TTM_RAT_ACV	10017

