VERSION	0.00.00	1.04.00
FES_MODE	0
BPM_DEF	139.000	139.000	139.000	139.000
MET_DEF	4	4
RESOLUTION	384
CLK_DEF	384
COMPATIBLE_CODE	MA2

BPM	0	0	139.000
MET	0	0	4	4
MET	29	0	4	2
MET	29	192	4	4
MET	58	192	4	2
MET	59	0	4	4

NMHLD	2	0	5	576
NMTAP	2	192	3
NMTAP	3	0	4
NMHLD	3	192	3	96
NMHLD	3	288	4	96
NMHLD	4	0	2	576
NMTAP	4	192	4
NMTAP	5	0	3
NMHLD	5	192	4	96
NMHLD	5	288	3	96
NMHLD	6	0	5	576
NMTAP	6	192	3
NMTAP	7	0	4
NMHLD	7	192	3	96
NMHLD	7	288	4	96
NMTAP	8	0	2
NMTAP	8	96	1
NMSTR	8	192	0
NMSV_	8	192	0	96	192	3
NMSV_	8	192	0	96	192	5
NMTTP	9	288	3	E	0	M1
NMTTP	9	288	5	E	0	M1
NMHLD	10	0	2	672
NMTAP	10	0	3
NMTAP	10	144	1
NMTAP	10	192	1
NMTAP	10	336	3
NMTAP	11	0	3
NMTAP	11	144	1
NMTAP	11	192	1
NMTAP	11	288	3
NMTAP	12	0	4
NMHLD	12	0	5	672
NMTAP	12	144	6
NMTAP	12	192	6
NMTAP	12	336	4
NMTAP	13	0	4
NMTAP	13	144	6
NMTAP	13	192	6
NMTAP	13	288	4
NMHLD	14	0	2	672
NMTAP	14	0	3
NMTAP	14	144	1
NMTAP	14	192	1
NMTAP	14	336	3
NMTAP	15	0	3
NMTAP	15	144	1
NMTAP	15	192	1
NMTAP	15	288	3
EXHLD	16	0	3	48
EXHLD	16	0	5	48
EXHLD	16	144	2	48
EXHLD	16	144	4	48
EXHLD	16	288	3	48
EXHLD	16	288	5	48
NMSTR	17	48	2
NMSCR	17	48	2	96	144	5
NMTAP	18	0	0
NMHLD	18	0	6	288
NMTAP	18	96	7
NMTAP	18	192	0
NMTAP	18	288	7
NMSTR	19	0	0
NMSCR	19	0	0	96	192	3
NMSTR	19	0	7
NMSCL	19	0	7	96	192	4
NMTAP	20	0	2
NMTAP	20	96	3
NMTAP	20	192	4
NMHLD	20	288	5	288
NMTTP	21	0	1	E	0	M1
NMTTP	21	96	4	E	0	M1
NMTTP	21	192	7	E	0	M1
NMHLD	22	0	1	288
NMTAP	22	0	7
NMTAP	22	96	0
NMTAP	22	192	7
NMTAP	22	288	0
NMSTR	23	0	0
NMSCL	23	0	0	96	48	7
NMSTR	23	0	6
NMSCR	23	0	6	96	48	7
CNSV_	23	144	7	0	144	2
CNSV_	23	144	7	0	144	4
NMTAP	24	0	5
NMTAP	24	96	4
NMTAP	24	192	3
NMHLD	24	288	2	192
NMSTR	25	96	0
NMSCL	25	96	0	96	96	6
EXHLD	26	0	6	144
EXHLD	26	144	5	192
EXHLD	26	336	4	192
EXSTR	27	144	3
NMSCL	27	144	3	96	336	4
NMTAP	29	192	2
NMHLD	29	192	3	96
NMTAP	29	288	1
NMHLD	30	0	4	96
NMTAP	30	0	5
NMTAP	30	96	6
NMHLD	30	144	6	144
NMTAP	30	240	7
NMTAP	30	288	7
BRTAP	31	0	0
BRTAP	31	0	5
NMTAP	31	144	0
NMTAP	31	144	7
NMSTR	31	192	0
NMSI_	31	192	0	96	96	4
NMSTR	31	192	7
NMSI_	31	192	7	96	96	3
NMTAP	32	96	2
NMHLD	32	144	2	144
NMTAP	32	240	3
NMTAP	32	288	3
NMTAP	33	0	0
NMTAP	33	0	1
NMTAP	33	96	2
NMTAP	33	96	7
NMHLD	33	192	4	96
NMTAP	33	192	5
NMTAP	33	288	6
NMTAP	34	0	2
NMHLD	34	0	3	96
NMTAP	34	96	1
NMHLD	34	144	1	144
NMTAP	34	240	0
NMTAP	34	288	0
BRTAP	35	0	2
BRTAP	35	0	7
NMTAP	35	144	5
NMTAP	35	192	5
NMTAP	35	288	6
NMTAP	35	288	7
NMTAP	35	336	6
NMTAP	35	336	7
NMTAP	36	48	0
NMTAP	36	48	7
NMSTR	36	144	0
NMSUL	36	144	0	96	144	4
NMTAP	36	144	1
NMTAP	37	192	6
NMHLD	37	192	7	96
NMTAP	37	288	5
NMHLD	38	0	0	96
NMTAP	38	0	1
NMTAP	38	96	2
NMHLD	38	144	2	144
NMTAP	38	240	3
NMTAP	38	288	3
BRTAP	39	0	1
BRTAP	39	0	4
NMTAP	39	144	3
NMTAP	39	144	4
NMSTR	39	192	3
NMSI_	39	192	3	96	96	7
NMSTR	39	192	4
NMSI_	39	192	4	96	96	0
NMTAP	40	96	6
NMHLD	40	144	6	144
NMTAP	40	240	7
NMTAP	40	288	7
NMTAP	41	0	4
NMTAP	41	0	5
NMTAP	41	96	3
NMTAP	41	96	6
NMHLD	41	192	0	96
NMTAP	41	192	1
NMTAP	41	288	2
NMTAP	42	0	6
NMHLD	42	0	7	96
NMTAP	42	96	4
EXSTR	42	144	4
NMSXL	42	144	4	96	144	4
NMSXR	42	144	4	96	144	4
NMTAP	43	144	6
NMTAP	43	192	6
NMTAP	43	288	4
NMTAP	43	288	5
NMTAP	43	336	4
NMTAP	43	336	5
NMTAP	44	48	3
NMTAP	44	48	4
NMTAP	44	144	2
NMSTR	44	144	3
NMSUR	44	144	3	96	144	7
NMTAP	45	192	5
NMTAP	45	288	3
NMTAP	45	288	6
NMTAP	46	0	2
NMTAP	46	48	2
NMSTR	46	96	1
NMSCR	46	96	1	96	96	3
NMSTR	46	96	4
NMSCR	46	96	4	96	96	6
EXTAP	47	0	0
EXTAP	47	0	7
EXTAP	47	48	0
EXTAP	47	48	7
EXTAP	47	96	0
EXTAP	47	96	7
NMTAP	47	192	2
NMTAP	47	288	1
NMTAP	47	288	4
NMTAP	48	0	5
NMTAP	48	48	5
NMSTR	48	96	3
NMSCL	48	96	3	96	96	1
NMSTR	48	96	6
NMSCL	48	96	6	96	96	4
EXTAP	49	0	0
EXTAP	49	0	7
EXTAP	49	48	0
EXTAP	49	48	7
EXTAP	49	96	0
EXTAP	49	96	7
NMTAP	49	192	3
NMHLD	49	192	6	288
NMTTP	49	288	6	E	0	M1
NMTTP	50	0	5	E	0	M1
NMTTP	50	96	4	E	0	M1
NMHLD	50	192	1	288
NMTAP	50	192	4
NMTTP	50	288	2	E	0	M1
NMTTP	51	0	3	E	0	M1
NMTTP	51	96	4	E	0	M1
EXHLD	51	192	6	144
EXHLD	51	336	7	144
EXHLD	52	96	0	144
EXHLD	52	240	1	144
NMTTP	53	0	4	E	0	M1
NMTTP	53	96	2	B	0	M1
NMTTP	53	96	5	B	0	M1
NMTAP	53	192	3
NMTAP	53	192	7
NMTAP	53	288	2
NMTAP	53	288	6
NMTAP	54	0	1
NMTAP	54	0	5
EXTAP	54	96	1
EXTAP	54	96	5
NMTAP	54	192	0
NMTAP	54	192	4
NMTAP	54	288	1
NMTAP	54	288	5
NMTAP	55	0	2
NMTAP	55	0	6
EXTAP	55	96	2
EXTAP	55	96	6
NMHLD	55	192	2	288
NMTAP	55	192	7
NMTAP	55	288	6
NMTAP	56	0	5
EXTAP	56	96	5
NMTAP	56	192	0
NMHLD	56	192	5	816
NMTAP	56	288	1
NMTAP	57	0	2
EXHLD	57	96	2	528
NMTAP	59	0	4
NMHLD	59	0	5	96
NMTAP	59	96	6
NMHLD	59	192	2	96
NMTAP	59	192	3
NMTAP	59	288	0
NMHLD	59	336	0	144
NMTAP	60	48	1
NMTAP	60	96	1
BRTAP	60	192	2
BRTAP	60	192	7
NMTAP	60	336	1
NMTAP	60	336	7
NMSTR	61	0	1
NMSI_	61	0	1	96	96	5
NMSTR	61	0	7
NMSI_	61	0	7	96	96	3
NMTAP	61	288	4
NMHLD	61	336	4	144
NMTAP	62	48	5
NMTAP	62	96	5
NMTAP	62	192	6
NMTAP	62	192	7
NMTAP	62	288	0
NMTAP	62	288	1
NMHLD	63	0	2	96
NMTAP	63	0	3
NMTAP	63	96	1
NMTAP	63	192	4
NMHLD	63	192	5	96
NMTAP	63	288	7
NMHLD	63	336	7	144
NMTAP	64	48	6
NMTAP	64	96	6
BRTAP	64	192	0
BRTAP	64	192	5
NMTAP	64	336	5
NMTAP	65	0	5
NMTAP	65	96	6
NMTAP	65	96	7
NMTAP	65	144	6
NMTAP	65	144	7
NMTAP	65	240	0
NMTAP	65	240	7
NMSTR	65	336	0
NMSCL	65	336	0	96	144	4
NMTAP	65	336	1
NMTAP	67	0	0
NMHLD	67	0	1	96
NMTAP	67	96	2
NMHLD	67	192	6	96
NMTAP	67	192	7
NMTAP	67	288	4
NMHLD	67	336	4	144
NMTAP	68	48	5
NMTAP	68	96	5
BRTAP	68	192	3
BRTAP	68	192	6
NMTAP	68	336	2
NMTAP	68	336	4
NMSTR	69	0	2
NMSI_	69	0	2	96	96	6
NMSTR	69	0	4
NMSI_	69	0	4	96	96	0
NMTAP	69	288	7
NMHLD	69	336	7	144
NMTAP	70	48	6
NMTAP	70	96	6
NMTAP	70	192	4
NMTAP	70	192	5
NMTAP	70	288	2
NMTAP	70	288	3
NMTHO	71	0	0	336	C	1	M1
EXTAP	72	192	0
EXTAP	72	192	7
NMTAP	72	336	6
NMTAP	73	0	6
NMTAP	73	96	4
NMTAP	73	96	5
NMTAP	73	144	4
NMTAP	73	144	5
NMTAP	73	240	3
NMTAP	73	240	4
NMTAP	73	336	2
NMSTR	73	336	3
NMSCR	73	336	3	96	144	7
NMTAP	75	0	2
NMTAP	75	0	3
NMTAP	75	96	1
NMTAP	75	96	4
NMTAP	75	192	4
NMTAP	75	192	5
NMTAP	75	240	4
NMTAP	75	240	5
NMTAP	75	288	3
NMTAP	75	288	6
NMTAP	76	0	2
NMTAP	76	0	3
NMSTR	76	96	0
NMSCL	76	96	0	96	96	5
NMSTR	76	96	1
NMSUL	76	96	1	96	96	4
NMSTR	77	0	3
NMSCL	77	0	3	96	96	0
NMSTR	77	192	7
NMSCL	77	192	7	96	96	4
NMSTR	78	0	3
NMSCL	78	0	3	96	96	0
NMTAP	78	192	7
NMTAP	78	288	1
NMTAP	78	288	6
NMTAP	79	0	4
NMTAP	79	0	5
NMTAP	79	96	3
NMTAP	79	96	6
NMTAP	79	192	2
NMTAP	79	192	3
NMTAP	79	240	2
NMTAP	79	240	3
NMTAP	79	288	1
NMTAP	79	288	4
NMTAP	80	0	4
NMTAP	80	0	5
NMSTR	80	96	6
NMSUR	80	96	6	96	96	3
NMSTR	80	96	7
NMSCR	80	96	7	96	96	2
NMSTR	81	0	4
NMSCR	81	0	4	96	96	7
NMSTR	81	192	0
NMSCR	81	192	0	96	96	3
EXHLD	82	0	4	96
EXHLD	82	96	5	96
EXHLD	82	192	6	96
EXTAP	82	288	7
NMHLD	83	0	5	576
NMTAP	83	144	3
NMTAP	83	192	3
NMTAP	83	336	4
NMTAP	84	0	4
NMTAP	84	144	3
NMHLD	84	192	3	96
NMHLD	84	288	4	96
NMHLD	85	0	2	576
NMTAP	85	144	4
NMTAP	85	192	4
NMTAP	85	336	3
NMTAP	86	0	3
NMTAP	86	144	4
NMHLD	86	192	4	96
NMHLD	86	288	3	96
NMHLD	87	0	5	672
NMTAP	87	144	6
NMTAP	87	192	6
NMTAP	87	336	4
NMTAP	88	0	4
NMTAP	88	144	6
NMTAP	88	192	6
NMTAP	88	288	4
EXHLD	89	0	3	48
EXHLD	89	0	5	48
EXHLD	89	144	2	48
EXHLD	89	144	4	48
EXHLD	89	288	3	48
EXHLD	89	288	5	48
NMSTR	90	48	2
NMSCR	90	48	2	96	144	5

T_REC_TAP	232
T_REC_BRK	12
T_REC_XTP	20
T_REC_BXX	0
T_REC_HLD	51
T_REC_XHO	23
T_REC_BHO	0
T_REC_BXH	0
T_REC_STR	33
T_REC_BST	0
T_REC_XST	2
T_REC_XBS	0
T_REC_TTP	14
T_REC_THO	1
T_REC_SLD	37
T_REC_BSL	0
T_REC_ALL	425
T_NUM_TAP	301
T_NUM_BRK	12
T_NUM_HLD	75
T_NUM_SLD	37
T_NUM_ALL	425
T_JUDGE_TAP	313
T_JUDGE_HLD	310
T_JUDGE_SLD	37
T_JUDGE_ALL	660
TTM_EACHPAIRS	103
TTM_SCR_TAP	150500
TTM_SCR_BRK	31200
TTM_SCR_HLD	75000
TTM_SCR_SLD	55500
TTM_SCR_ALL	312200
TTM_SCR_S	301700
TTM_SCR_SS	311000
TTM_RAT_ACV	10038

