VERSION	0.00.00	1.04.00
FES_MODE	0
BPM_DEF	128.000	128.000	128.000	128.000
MET_DEF	4	4
RESOLUTION	384
CLK_DEF	384
COMPATIBLE_CODE	MA2

BPM	0	0	128.000
MET	0	0	4	4

NMHLD	2	0	1	96
NMTAP	2	48	3
NMHLD	2	96	5	96
NMTAP	2	144	3
NMTAP	2	192	1
NMTAP	2	240	2
NMTAP	2	240	3
NMTAP	2	272	4
NMTAP	2	288	3
NMTAP	2	336	4
NMTAP	2	336	6
NMHLD	3	0	7	96
NMTAP	3	48	0
NMHLD	3	96	1	96
NMTAP	3	144	0
NMTAP	3	192	7
NMTAP	3	240	0
NMTAP	3	240	6
NMTAP	3	272	5
NMTAP	3	288	4
NMTAP	3	336	3
NMTAP	3	336	4
NMHLD	4	0	1	96
NMTAP	4	48	2
NMHLD	4	96	4	96
NMTAP	4	144	3
NMTAP	4	192	1
NMTAP	4	240	2
NMTAP	4	240	3
NMTAP	4	272	4
NMTAP	4	288	3
NMTAP	4	336	4
NMTAP	4	336	6
NMTAP	5	0	7
NMTAP	5	48	3
NMTAP	5	48	5
NMTAP	5	96	0
NMTAP	5	144	2
NMTAP	5	144	4
NMTAP	5	192	4
NMTAP	5	192	5
NMTAP	5	240	3
NMTAP	5	240	6
NMTAP	5	288	2
NMTAP	5	288	7
NMHLD	6	0	6	96
NMTAP	6	48	4
NMHLD	6	96	2	96
NMTAP	6	144	4
NMTAP	6	192	6
NMTAP	6	240	4
NMTAP	6	240	5
NMTAP	6	272	3
NMTAP	6	288	4
NMTAP	6	336	1
NMTAP	6	336	3
NMHLD	7	0	0	96
NMTAP	7	48	7
NMHLD	7	96	6	96
NMTAP	7	144	7
NMTAP	7	192	0
NMTAP	7	240	1
NMTAP	7	240	7
NMTAP	7	272	2
NMTAP	7	288	3
NMTAP	7	336	3
NMTAP	7	336	4
NMHLD	8	0	6	96
NMTAP	8	48	5
NMHLD	8	96	3	96
NMTAP	8	144	4
NMTAP	8	192	6
NMTAP	8	240	4
NMTAP	8	240	5
NMTAP	8	272	3
NMTAP	8	288	4
NMTAP	8	336	1
NMTAP	8	336	3
NMTAP	9	0	0
NMTAP	9	48	2
NMTAP	9	48	4
NMTAP	9	96	7
NMTAP	9	144	3
NMTAP	9	144	5
NMTAP	9	192	2
NMTAP	9	192	3
NMTAP	9	240	1
NMTAP	9	240	4
NMTAP	9	288	0
NMTAP	9	288	5
NMSTR	10	0	1
NMSI_	10	0	1	96	48	3
NMTAP	10	96	3
NMTAP	10	144	4
NMSTR	10	192	4
NMSI_	10	192	4	96	48	2
NMTAP	10	288	2
NMTAP	10	336	1
NMTAP	11	0	1
NMTAP	11	48	1
NMTAP	11	48	2
NMTAP	11	96	1
NMTAP	11	96	2
NMTAP	11	144	1
NMTAP	11	144	3
NMSTR	11	192	1
NMSV_	11	192	1	96	48	4
NMHLD	11	192	3	96
NMSTR	12	0	5
NMSI_	12	0	5	96	48	3
NMTAP	12	96	3
NMTAP	12	144	2
NMSTR	12	192	2
NMSI_	12	192	2	96	48	4
NMTAP	12	288	4
NMTAP	12	336	5
NMTAP	13	0	5
NMTAP	13	48	4
NMTAP	13	48	5
NMTAP	13	96	3
NMTAP	13	96	5
NMTAP	13	144	2
NMTAP	13	144	5
NMSTR	13	192	1
NMSCL	13	192	1	96	48	7
NMTAP	13	192	5
NMTAP	13	240	1
NMTAP	13	240	5
NMSTR	14	0	6
NMSI_	14	0	6	96	48	4
NMTAP	14	96	4
NMTAP	14	144	3
NMSTR	14	192	3
NMSI_	14	192	3	96	48	5
NMTAP	14	288	5
NMTAP	14	336	6
NMTAP	15	0	6
NMTAP	15	48	5
NMTAP	15	48	6
NMTAP	15	96	5
NMTAP	15	96	6
NMTAP	15	144	4
NMTAP	15	144	6
NMHLD	15	192	3	96
NMTAP	15	192	6
NMTAP	15	240	4
NMHLD	15	288	5	96
NMTAP	15	336	4
NMTAP	16	0	2
NMTTP	16	48	1	E	0	M1
NMTTP	16	48	1	D	0	M1
NMTTP	16	96	0	E	0	M1
NMTTP	16	96	0	D	0	M1
NMTTP	16	144	7	E	0	M1
NMTTP	16	144	7	D	0	M1
NMTTP	16	192	5	B	0	M1
NMTTP	16	224	4	B	0	M1
NMTTP	16	240	3	B	0	M1
NMTTP	16	272	2	B	0	M1
NMTAP	16	336	7
NMTAP	17	0	0
NMTAP	17	0	6
NMTAP	17	48	5
NMHLD	17	80	5	48
NMHLD	17	128	4	48
NMSTR	17	176	3
NMSI_	17	176	3	96	16	6
CNSI_	17	288	6	0	48	4
NMTAP	17	336	1
CNSI_	17	336	4	0	48	2
NMTAP	18	0	1
NMTAP	18	48	0
NMTAP	18	48	3
NMTAP	18	96	4
NMTAP	18	144	2
NMTAP	18	144	5
NMTAP	18	192	1
NMTAP	18	224	1
NMTAP	18	240	3
NMTAP	18	272	3
NMTAP	18	288	2
NMTAP	18	320	2
NMTAP	18	336	4
NMTAP	19	0	6
NMTAP	19	48	3
NMTAP	19	48	5
NMTAP	19	96	1
NMTAP	19	144	2
NMTAP	19	144	4
NMTAP	19	192	5
NMTAP	19	224	5
NMTAP	19	240	3
NMTAP	19	272	3
NMTAP	19	288	4
NMTAP	19	320	4
NMTAP	19	336	2
NMTAP	20	0	1
NMTAP	20	48	0
NMTAP	20	48	5
NMTAP	20	96	7
NMTAP	20	144	4
NMTAP	20	144	6
NMTAP	20	192	3
NMTAP	20	224	3
NMTAP	20	240	5
NMTAP	20	272	5
NMTAP	20	288	4
NMTAP	20	320	4
NMTAP	20	336	6
NMSTR	21	0	7
NMSI_	21	0	7	96	48	3
NMTAP	21	48	3
NMSTR	21	96	1
NMSXR	21	96	1	96	144	5
NMTAP	21	144	1
NMTAP	21	192	4
NMHLD	21	240	4	96
NMTAP	22	0	7
NMTAP	22	48	4
NMTAP	22	48	6
NMTAP	22	96	2
NMTAP	22	144	3
NMTAP	22	144	5
NMTAP	22	192	6
NMTAP	22	224	6
NMTAP	22	240	4
NMTAP	22	272	4
NMTAP	22	288	5
NMTAP	22	320	5
NMTAP	22	336	3
NMTAP	23	0	1
NMTAP	23	48	0
NMTAP	23	48	4
NMTAP	23	96	6
NMTAP	23	144	3
NMTAP	23	144	7
NMTAP	23	192	2
NMTAP	23	224	2
NMTAP	23	240	4
NMTAP	23	272	4
NMTAP	23	288	3
NMTAP	23	320	3
NMTAP	23	336	5
NMTAP	24	0	2
NMTAP	24	0	6
NMTAP	24	48	1
NMTAP	24	80	1
NMTAP	24	96	3
NMTAP	24	128	3
NMTAP	24	144	2
NMTAP	24	176	2
NMTAP	24	192	4
NMTAP	24	224	4
NMTAP	24	240	3
NMTAP	24	272	3
NMTAP	24	288	5
NMTAP	24	320	5
NMTAP	24	336	4
NMTAP	24	368	4
NMHLD	25	0	6	96
NMTAP	25	48	5
NMHLD	25	96	3	96
NMTAP	25	144	4
NMTAP	25	192	5
NMTAP	25	240	4
NMTAP	25	240	6
BRTAP	25	288	3
BRTAP	25	288	7
NMSTR	26	0	0
NMSCR	26	0	0	96	96	5
NMSTR	26	192	6
NMSUR	26	192	6	96	80	3
NMSTR	26	368	1
NMSUR	26	368	1	96	96	4
NMHLD	27	176	5	112
EXTAP	27	288	4
EXTAP	27	320	3
EXTAP	27	352	2
EXSTR	28	0	1
NMSXL	28	0	1	96	80	3
NMSTR	28	176	5
NMSV_	28	176	5	96	64	7
NMTAP	28	288	0
NMTAP	28	336	1
NMSTR	29	0	2
NMSCR	29	0	2	96	48	4
NMSTR	29	0	6
NMSCR	29	0	6	96	48	0
NMTAP	29	192	3
NMTAP	29	192	7
NMSTR	29	288	7
NMSI_	29	288	7	96	48	5
NMSTR	29	336	0
NMSI_	29	336	0	96	48	4
NMSTR	30	0	7
NMSI_	30	0	7	96	48	3
NMTAP	30	48	0
NMTAP	30	96	7
NMTAP	30	144	2
NMSTR	30	176	2
NMSXR	30	176	2	96	112	4
NMTAP	30	288	4
NMTAP	30	336	5
NMSTR	31	0	6
NMSXL	31	0	6	96	48	0
NMSXR	31	0	6	96	48	4
BRTAP	31	192	1
BRTAP	31	192	5
NMSTR	31	288	7
NMSUL	31	288	7	96	48	3
NMTAP	31	336	4
NMTAP	31	336	6
NMTAP	32	0	3
NMSTR	32	96	0
NMSUR	32	96	0	96	48	4
NMTAP	32	144	1
NMTAP	32	144	3
NMTAP	32	192	4
NMSTR	32	288	0
NMSI_	32	288	0	96	48	3
NMSTR	32	288	7
NMSI_	32	288	7	96	48	4
NMTAP	32	336	1
NMTAP	32	336	6
NMTAP	33	96	2
NMTAP	33	128	4
NMTAP	33	144	1
NMTAP	33	176	3
BRTAP	33	192	0
NMTAP	34	0	2
NMSTR	34	0	3
NMSCL	34	0	3	96	48	7
NMTAP	34	48	5
BXTAP	34	80	3
EXHLD	34	80	5	64
NMSTR	34	192	4
NMSCR	34	192	4	96	32	6
NMTAP	34	192	6
NMTAP	34	240	2
EXTAP	34	272	2
BXTAP	34	272	4
NMTAP	34	320	0
EXTAP	34	336	7
NMTAP	35	0	0
NMTAP	35	0	1
NMTAP	35	48	2
NMTAP	35	48	3
NMTAP	35	96	4
NMTAP	35	96	5
NMTAP	35	144	3
NMTAP	35	144	6
NMTAP	35	176	3
NMHLD	35	176	6	64
NMTAP	35	240	7
NMTAP	35	288	0
NMTAP	35	288	5
NMTAP	35	336	1
NMTAP	35	336	4
NMTAP	36	0	2
NMSTR	36	0	3
NMSCL	36	0	3	96	48	7
NMTAP	36	48	5
BXTAP	36	80	3
EXHLD	36	80	5	64
NMSTR	36	192	4
NMSCR	36	192	4	96	48	6
NMTAP	36	192	6
NMTAP	36	240	2
EXTAP	36	272	2
BXTAP	36	272	4
NMTAP	36	320	0
EXTAP	36	336	7
NMTAP	37	0	1
NMTAP	37	0	3
NMTAP	37	48	3
NMTAP	37	48	4
NMTAP	37	96	4
NMTAP	37	96	6
NMTAP	37	144	3
NMTAP	37	176	4
BRTAP	37	192	0
NMTAP	37	288	1
NMTAP	37	288	7
NMTAP	37	336	2
NMTAP	37	336	6
NMHLD	38	0	3	80
NMTAP	38	0	4
NMTAP	38	48	2
NMHLD	38	80	2	48
NMTAP	38	128	1
NMSTR	38	176	0
NMSSL	38	176	0	96	112	4
NMTAP	38	176	3
NMTAP	38	240	4
NMTAP	38	288	5
NMTAP	38	336	6
NMHLD	39	0	7	48
NMTAP	39	48	4
NMSTR	39	80	4
NMSCL	39	80	4	96	48	0
NMSCR	39	80	4	96	48	0
NMTAP	39	128	2
NMTAP	39	128	6
BRTAP	39	176	4
NMTAP	39	288	0
NMTAP	39	288	7
NMTAP	39	336	1
NMTAP	39	336	6
NMTAP	40	0	2
NMHLD	40	0	5	128
NMTAP	40	48	4
NMSTR	40	80	4
NMSLR	40	80	4	96	64	0
NMTAP	40	128	3
NMTAP	40	176	2
NMTAP	40	240	1
NMTAP	40	288	1
NMSTR	40	288	7
NMSI_	40	288	7	96	48	4
NMTAP	40	336	0
NMTAP	40	336	6
NMSTR	41	0	5
NMSXL	41	0	5	96	144	2
NMTAP	41	0	7
EXHLD	41	80	3	160
EXTAP	41	80	5
NMTAP	41	288	3
NMTAP	41	320	3
NMTAP	41	336	4
NMTAP	41	368	4
EXTAP	42	0	0
NMTAP	42	16	1
NMTAP	42	32	2
EXTAP	42	48	6
NMTAP	42	64	5
NMTAP	42	80	4
EXTAP	42	96	1
NMTAP	42	112	2
NMTAP	42	128	3
EXTAP	42	144	7
NMTAP	42	160	6
NMTAP	42	176	5
BRTAP	42	192	0
NMSTR	43	0	2
NMSCL	43	0	2	96	144	3
NMTAP	43	0	5
NMTTP	43	80	0	C	1	M1
NMTAP	44	0	2
NMTAP	44	32	2
NMTAP	44	48	4
NMTAP	44	80	3
NMTAP	44	80	4
NMTAP	44	128	5
NMTAP	44	144	4
NMHLD	44	192	6	144
NMTTP	44	240	6	B	0	M1
NMTTP	44	240	6	E	0	M1
NMTTP	44	288	4	B	0	M1
NMTTP	44	288	4	E	0	M1
NMTTP	44	336	2	B	0	M1
NMTTP	44	336	3	E	0	M1
NMTAP	45	0	1
NMTAP	45	32	1
NMTAP	45	48	0
NMTAP	45	80	0
NMTAP	45	96	7
NMTAP	45	128	7
NMTAP	45	144	6
NMTAP	45	176	6
NMHLD	45	192	7	48
NMTAP	45	240	5
NMTAP	45	272	5
NMTAP	45	288	4
NMTAP	45	320	4
NMTAP	45	336	3
NMTAP	45	368	3
NMTAP	46	0	2
NMTAP	46	48	0
NMTAP	46	48	1
NMTAP	46	96	2
NMTAP	46	96	3
NMTAP	46	144	4
NMTAP	46	144	5
NMTAP	46	192	6
NMTAP	46	192	7
NMTAP	46	224	6
NMTAP	46	224	7
NMTAP	46	272	0
NMTAP	46	272	5
NMTAP	46	320	1
NMTAP	46	320	4
EXTAP	46	368	1
EXTAP	46	368	4
NMTAP	47	32	2
NMTAP	47	48	3
NMHLD	47	80	2	48
NMTAP	47	128	4
NMTAP	47	144	3
NMHLD	47	176	4	48
NMTAP	47	224	1
NMTAP	47	240	2
NMHLD	47	272	1	48
NMTAP	47	320	5
NMTAP	47	336	4
NMHLD	47	368	5	48
NMTAP	48	32	3
NMTAP	48	48	4
NMTAP	48	80	4
NMTAP	48	96	2
NMTAP	48	128	2
NMTAP	48	144	5
NMTAP	48	176	5
NMTAP	48	192	3
NMTAP	48	224	3
NMTAP	48	240	6
NMTAP	48	272	6
NMTAP	48	288	4
NMTAP	48	320	4
NMSTR	48	336	7
NMSCL	48	336	7	96	48	3
EXTAP	49	32	3
EXTAP	49	48	2
EXTAP	49	64	1
EXTAP	49	80	0
EXTAP	49	96	7
NMTAP	49	192	2
NMTAP	49	224	2
NMTAP	49	240	3
NMTAP	49	272	3
NMTAP	49	288	4
NMTAP	49	320	4
NMTAP	49	336	5
NMTAP	49	368	5
NMTAP	50	0	6
NMTAP	50	32	6
NMTAP	50	48	7
NMTAP	50	80	7
NMTAP	50	96	0
NMTAP	50	128	0
NMTAP	50	144	1
NMTAP	50	176	1
NMTAP	50	192	2
NMTAP	50	224	2
NMTAP	50	240	3
NMTAP	50	272	3
NMTAP	50	288	4
NMTAP	50	320	4
NMTAP	50	336	6
BRTAP	50	368	6
NMSTR	52	0	2
NMSCR	52	0	2	96	96	4
NMHLD	52	240	5	80
NMSTR	53	0	5
NMSCL	53	0	5	96	96	3
NMHLD	53	240	2	80
NMSTR	54	0	1
NMSCR	54	0	1	96	96	4
NMSTR	54	240	6
NMSUR	54	240	6	96	336	0
NMSTR	54	320	4
BRSUL	54	320	4	96	256	2
NMTAP	56	0	1
NMTAP	56	96	1
NMTAP	56	192	2
NMTAP	56	192	5
NMTAP	56	288	2
NMTAP	56	288	5
NMTAP	57	0	3
NMTAP	57	0	6
NMTAP	57	96	3
NMTAP	57	96	6
NMTAP	57	192	4
NMTAP	57	192	7
NMTAP	57	288	4
NMTAP	57	288	7
NMTAP	58	0	6
NMTAP	58	48	6
NMTAP	58	96	4
NMTAP	58	144	4
NMTAP	58	192	5
NMTAP	58	240	5
NMTAP	58	288	3
NMTAP	58	336	3
NMTAP	59	0	2
NMTAP	59	0	4
NMTAP	59	48	2
NMTAP	59	48	4
NMTAP	59	96	3
NMTAP	59	96	5
NMTAP	59	144	3
NMTAP	59	144	5
NMTAP	59	192	6
NMTAP	59	224	6
NMTAP	59	240	2
NMTAP	59	272	2
NMTAP	59	288	7
NMTAP	59	320	7
NMTAP	59	336	3
EXSTR	60	0	0
NMSUL	60	0	0	96	48	4
EXSTR	60	0	4
NMSUL	60	0	4	96	48	0
BXTAP	60	96	0
BXTAP	60	96	4
NMTTP	60	112	0	C	1	M1
BXHLD	60	192	2	80
BXHLD	60	192	6	80
NMTAP	60	320	7
NMTAP	60	336	0
NMTAP	61	0	0
NMTAP	61	0	1
NMTAP	61	48	2
NMTAP	61	48	3
NMTAP	61	96	4
NMTAP	61	96	5
NMTAP	61	144	3
NMTAP	61	144	6
NMTAP	61	176	3
NMHLD	61	176	6	64
NMTAP	61	240	7
NMTAP	61	288	0
NMTAP	61	288	5
NMTAP	61	336	1
NMTAP	61	336	4
NMSTR	62	0	2
NMSCL	62	0	2	96	48	6
NMSTR	62	0	3
NMSUL	62	0	3	96	48	5
NMTAP	62	48	4
BXTAP	62	80	2
BXTAP	62	80	3
NMSTR	62	192	4
NMSUR	62	192	4	96	48	2
NMSTR	62	192	5
NMSCR	62	192	5	96	48	1
NMTAP	62	240	3
BXTAP	62	272	4
BXTAP	62	272	5
BRTAP	63	0	1
BRTAP	63	0	3
BRTAP	63	48	3
BRTAP	63	48	4
BRTAP	63	96	4
BRTAP	63	96	6
BRTAP	63	144	3
BRTAP	63	176	4
BXTAP	63	192	0
NMTAP	63	288	1
NMTAP	63	288	7
NMTAP	63	336	2
NMTAP	63	336	6
NMTAP	64	0	3
NMTAP	64	0	5
NMTAP	64	48	4
NMSTR	64	80	4
NMSCL	64	80	4	96	48	0
NMSCR	64	80	4	96	48	0
NMTAP	64	128	2
NMTAP	64	128	6
BRTAP	64	176	4
NMTAP	64	288	0
NMTAP	64	288	7
NMTAP	64	336	1
NMTAP	64	336	5
NMTAP	65	0	2
NMTAP	65	0	3
NMTAP	65	48	0
NMTAP	65	48	6
NMSTR	65	80	0
NMSI_	65	80	0	96	48	4
NMSTR	65	80	6
NMSI_	65	80	6	96	48	2
NMTAP	65	128	2
NMTAP	65	128	4
BRTAP	65	176	0
BRTAP	65	176	6
NMTAP	65	288	0
NMTAP	65	288	7
NMTAP	65	336	1
NMTAP	65	336	6
NMHLD	66	0	2	128
NMTAP	66	0	5
NMTAP	66	48	3
NMSTR	66	80	3
NMSLL	66	80	3	96	64	7
NMTAP	66	128	4
NMHLD	66	176	5	64
NMSTR	66	288	0
NMSI_	66	288	0	96	48	3
NMTAP	66	288	6
NMTAP	66	336	1
NMTAP	66	336	7
NMTAP	67	0	0
NMSTR	67	0	2
NMSXR	67	0	2	96	144	5
EXTAP	67	80	2
EXHLD	67	80	4	160
NMTAP	67	288	4
NMTAP	67	320	4
NMTAP	67	336	3
NMTAP	67	368	3
EXTAP	68	0	7
NMTAP	68	16	6
NMTAP	68	32	5
EXTAP	68	48	1
NMTAP	68	64	2
NMTAP	68	80	3
EXTAP	68	96	6
NMTAP	68	112	5
NMTAP	68	128	4
EXTAP	68	144	0
NMTAP	68	160	1
NMTAP	68	176	2
BRTAP	68	192	7
NMHLD	69	0	6	96
NMTAP	69	48	0
NMHLD	69	96	3	96
NMTAP	69	144	0
NMTAP	69	192	6
NMTAP	69	240	4
NMTAP	69	240	6
NMTAP	69	272	5
NMTAP	69	288	3
NMTAP	69	336	2
NMTAP	69	336	4
NMHLD	70	0	1	96
NMTAP	70	48	7
NMHLD	70	96	4	96
NMTAP	70	144	7
NMTAP	70	192	1
NMTAP	70	240	1
NMTAP	70	240	3
NMTAP	70	272	2
NMTAP	70	288	4
NMTAP	70	336	3
NMTAP	70	336	5
NMSTR	71	0	4
NMSCR	71	0	4	96	48	7
NMTAP	71	0	6
NMTAP	71	48	2
EXHLD	71	80	2	208
EXTAP	71	80	4
CNSUR	71	144	7	0	96	0
CNSCR	71	240	0	0	48	3
NMHLD	72	0	1	96
NMTAP	72	48	2
NMHLD	72	96	4	96
NMTAP	72	144	3
NMTAP	72	192	1
NMTAP	72	240	0
NMTAP	72	240	1
NMTAP	72	272	7
NMTAP	72	288	0
NMTAP	72	336	6
NMTAP	72	336	7
NMSTR	73	0	0
NMSCR	73	0	0	96	144	6
NMTAP	73	0	5
NMTAP	73	48	2
EXTAP	73	80	0
EXHLD	73	80	2	160
NMSTR	73	288	2
NMSUL	73	288	2	96	48	5
NMSTR	73	288	6
NMSCR	73	288	6	96	48	1
NMTAP	73	336	1
NMTAP	73	336	5
BXTAP	74	0	2
BXTAP	74	0	6
NMTAP	74	144	2
NMTAP	74	144	4
NMTAP	74	192	2
NMHLD	74	192	4	96
NMTAP	74	240	7
NMHLD	74	288	2	96
NMTAP	74	336	0
NMHLD	75	0	4	128
NMTAP	75	48	3
NMSTR	75	80	3
NMSLR	75	80	3	96	64	7
NMTAP	75	128	2
NMHLD	75	176	1	64
NMSTR	75	288	0
NMSI_	75	288	0	96	48	4
NMTAP	75	288	6
NMTAP	75	336	1
NMTAP	75	336	7
NMTAP	76	0	0
NMSTR	76	0	2
NMSUR	76	0	2	96	64	6
EXTAP	76	80	2
EXHLD	76	80	5	160
CNSUR	76	160	6	0	80	4
NMTAP	76	288	3
NMTAP	76	320	3
NMTAP	76	336	4
NMTAP	76	368	4
EXTAP	77	0	2
NMTAP	77	16	1
NMTAP	77	32	0
EXTAP	77	48	6
NMTAP	77	64	5
NMTAP	77	80	4
EXTAP	77	96	1
NMTAP	77	112	2
NMTAP	77	128	3
EXTAP	77	144	5
NMTAP	77	160	6
NMTAP	77	176	7
BRTAP	77	192	4
NMTAP	78	0	3
NMTAP	78	0	7
NMSTR	78	80	2
BRSXR	78	80	2	96	208	3
NMSTR	78	80	6
NMSXR	78	80	6	96	208	7
CNSCL	79	0	3	0	96	2
CNSCL	79	0	7	0	96	6
CNSLL	79	96	2	0	192	6
CNSLL	79	96	6	0	192	2
BXTAP	80	0	1
BXTAP	80	0	6

T_REC_TAP	540
T_REC_BRK	22
T_REC_XTP	31
T_REC_BXX	15
T_REC_HLD	47
T_REC_XHO	7
T_REC_BHO	0
T_REC_BXH	2
T_REC_STR	61
T_REC_BST	0
T_REC_XST	3
T_REC_XBS	0
T_REC_TTP	18
T_REC_THO	0
T_REC_SLD	65
T_REC_BSL	2
T_REC_ALL	813
T_NUM_TAP	653
T_NUM_BRK	41
T_NUM_HLD	54
T_NUM_SLD	65
T_NUM_ALL	813
T_JUDGE_TAP	690
T_JUDGE_HLD	119
T_JUDGE_SLD	67
T_JUDGE_ALL	876
TTM_EACHPAIRS	163
TTM_SCR_TAP	326500
TTM_SCR_BRK	106600
TTM_SCR_HLD	54000
TTM_SCR_SLD	97500
TTM_SCR_ALL	584600
TTM_SCR_S	563100
TTM_SCR_SS	580500
TTM_RAT_ACV	10070

