VERSION	0.00.00	1.04.00
FES_MODE	0
BPM_DEF	128.000	128.000	128.000	128.000
MET_DEF	4	4
RESOLUTION	384
CLK_DEF	384
COMPATIBLE_CODE	MA2

BPM	0	0	128.000
MET	0	0	4	4

NMTAP	1	192	3
NMTAP	1	192	4
NMTAP	1	240	3
NMTAP	1	240	4
NMTAP	1	288	2
NMTAP	1	288	5
NMHLD	2	0	6	192
NMTAP	2	96	4
NMHLD	2	192	1	192
NMTAP	2	288	3
NMHLD	3	0	6	192
NMTAP	3	96	4
NMTAP	3	192	3
NMTAP	3	240	3
NMTAP	3	288	2
NMTAP	3	288	4
NMHLD	4	0	1	192
NMTAP	4	96	3
NMHLD	4	192	6	192
NMTAP	4	288	4
NMHLD	5	0	1	192
NMTAP	5	96	3
NMTAP	5	192	4
NMTAP	5	288	3
NMTAP	5	288	4
NMHLD	6	0	5	192
NMTAP	6	96	7
NMHLD	6	192	2	192
NMTAP	6	288	0
NMHLD	7	0	5	192
NMTAP	7	96	7
NMTAP	7	192	0
NMTAP	7	240	0
NMTAP	7	288	1
NMTAP	7	288	7
NMHLD	8	0	2	192
NMTAP	8	96	0
NMHLD	8	192	5	192
NMTAP	8	288	7
NMHLD	9	0	2	192
NMTAP	9	96	0
NMTAP	9	192	4
NMTAP	9	288	4
NMTAP	9	288	5
NMHLD	10	0	4	96
NMHLD	10	0	6	96
NMTAP	10	144	3
NMHLD	10	192	2	96
NMHLD	10	192	4	96
NMTAP	10	336	1
NMHLD	11	0	1	96
NMTAP	11	96	3
NMTAP	11	192	2
NMTAP	11	192	3
NMTAP	11	288	2
NMTAP	11	288	3
NMHLD	12	0	1	96
NMHLD	12	0	3	96
NMTAP	12	144	4
NMHLD	12	192	3	96
NMHLD	12	192	5	96
NMTAP	12	336	6
NMHLD	13	0	6	96
NMHLD	13	96	4	96
NMHLD	13	192	3	96
NMTAP	13	288	1
NMHLD	14	0	1	96
NMHLD	14	0	3	96
NMTAP	14	144	4
NMHLD	14	192	3	96
NMHLD	14	192	5	96
NMTAP	14	336	6
NMHLD	15	0	6	96
NMTAP	15	96	4
NMTAP	15	192	4
NMTAP	15	192	5
NMTAP	15	288	4
NMTAP	15	288	5
NMTAP	16	0	3
NMTAP	16	0	6
NMTAP	16	96	4
NMTAP	16	96	5
NMTAP	16	192	1
NMTAP	16	192	4
NMTAP	16	288	2
NMTAP	16	288	3
NMSTR	17	0	0
NMSI_	17	0	0	96	96	4
NMSTR	17	0	7
NMSI_	17	0	7	96	96	3
NMTAP	17	288	2
NMTAP	17	288	5
NMHLD	18	0	1	96
NMHLD	18	0	3	96
NMTAP	18	144	0
NMHLD	18	192	0	96
NMHLD	18	192	7	96
NMTAP	18	336	6
NMHLD	19	0	6	96
NMTAP	19	96	4
NMTAP	19	192	4
NMTAP	19	192	5
NMTAP	19	288	4
NMTAP	19	288	5
NMHLD	20	0	4	96
NMHLD	20	0	6	96
NMTAP	20	144	7
NMHLD	20	192	0	96
NMHLD	20	192	7	96
NMTAP	20	336	1
NMHLD	21	0	1	96
NMSTR	21	96	3
NMSI_	21	96	3	96	96	7
NMHLD	22	0	4	96
NMHLD	22	0	6	96
NMTAP	22	144	7
NMHLD	22	192	0	96
NMHLD	22	192	7	96
NMTAP	22	336	1
NMHLD	23	0	1	96
NMTAP	23	96	3
NMHLD	23	192	6	96
NMTAP	23	288	4
NMTAP	24	0	4
NMTAP	24	0	6
NMTAP	24	96	5
NMTAP	24	192	1
NMTAP	24	192	3
NMTAP	24	288	2
NMSTR	25	0	3
NMSCL	25	0	3	96	96	0
NMSTR	25	0	4
NMSCR	25	0	4	96	96	7
EXTAP	25	288	0
EXTAP	25	288	7
NMTAP	26	0	3
NMTAP	26	0	6
NMTAP	26	96	5
NMTAP	26	144	5
NMTAP	26	192	4
NMTAP	26	288	2
NMTAP	26	336	2
NMTAP	27	0	3
NMTAP	27	96	0
NMSTR	27	96	1
NMSCR	27	96	1	96	96	4
NMTAP	27	288	6
NMTAP	27	336	6
NMTAP	28	0	7
NMTAP	28	96	4
NMTAP	28	96	5
NMTAP	28	192	2
NMTAP	28	240	2
NMSTR	28	288	3
NMSI_	28	288	3	96	96	0
CNSI_	29	96	0	0	96	4
CNSI_	29	192	4	0	96	7
NMTAP	30	0	0
NMTAP	30	0	1
NMTAP	30	96	2
NMTAP	30	144	2
NMTAP	30	192	3
NMTAP	30	288	5
NMTAP	30	336	5
NMTAP	31	0	4
NMTAP	31	96	0
NMTAP	31	96	7
NMHLD	31	192	1	96
NMHLD	31	192	6	96
NMSTR	32	0	7
NMSI_	32	0	7	96	96	3
NMSTR	32	192	0
NMSI_	32	192	0	96	96	4
NMSTR	33	0	7
NMSF_	33	0	7	96	96	3
NMTAP	33	288	1
NMTAP	33	288	5
NMSTR	34	0	6
NMSI_	34	0	6	96	48	3
NMSTR	34	0	7
NMSI_	34	0	7	96	48	3
NMSTR	34	192	0
NMSI_	34	192	0	96	48	4
NMSTR	34	192	1
NMSI_	34	192	1	96	48	4
NMTAP	35	0	6
NMTAP	35	48	6
NMTAP	35	96	4
NMTAP	35	144	4
NMTAP	35	192	5
NMTAP	35	288	6
NMTAP	35	288	7
NMSTR	36	0	0
NMSI_	36	0	0	96	48	4
NMSTR	36	0	1
NMSI_	36	0	1	96	48	4
NMSTR	36	192	6
NMSI_	36	192	6	96	48	3
NMSTR	36	192	7
NMSI_	36	192	7	96	48	3
NMTAP	37	0	1
NMTAP	37	48	1
NMTAP	37	96	0
NMTAP	37	96	1
NMTAP	37	192	2
NMTAP	37	192	7
NMTAP	37	288	2
NMTAP	37	288	7
NMSTR	38	0	6
NMSCL	38	0	6	96	96	3
NMSTR	38	192	2
NMSCL	38	192	2	96	96	7
NMHLD	39	0	6	96
NMHLD	39	96	4	96
NMHLD	39	192	3	96
NMTAP	39	288	1
NMSTR	40	0	0
NMSCR	40	0	0	96	96	3
NMSTR	40	192	4
NMSCR	40	192	4	96	96	7
NMHLD	41	0	2	96
NMHLD	41	96	0	96
NMTAP	41	192	7
NMTAP	41	288	1
NMTAP	41	288	6
NMTAP	42	0	3
NMTAP	42	0	5
NMTAP	42	48	3
NMTAP	42	48	5
NMTAP	42	96	2
NMTAP	42	96	4
NMTAP	42	144	2
NMTAP	42	144	4
NMHLD	42	192	1	96
NMHLD	42	192	5	96
NMTAP	43	0	6
NMTAP	43	48	6
NMTAP	43	96	4
NMTAP	43	96	5
NMTAP	43	192	1
NMTAP	43	240	1
NMTAP	43	288	2
NMTAP	43	288	3
NMSTR	44	0	6
NMSI_	44	0	6	96	48	4
NMSTR	44	96	0
NMSI_	44	96	0	96	48	2
NMSTR	44	192	7
NMSI_	44	192	7	96	48	3
EXTAP	44	288	1
NMTAP	45	0	2
NMTAP	45	48	2
NMTAP	45	96	0
NMTAP	45	96	1
NMTAP	45	192	5
NMTAP	45	240	5
NMTAP	45	288	6
NMTAP	45	288	7
NMTAP	46	0	2
NMTAP	46	48	2
NMTAP	46	96	2
NMTAP	46	96	3
NMTAP	46	144	2
NMTAP	46	144	3
NMTAP	46	192	4
NMTAP	46	240	4
NMTAP	46	288	4
NMTAP	46	288	5
NMSTR	47	0	3
NMSCL	47	0	3	96	96	0
NMSTR	47	192	4
NMSCR	47	192	4	96	96	7
NMTAP	48	0	1
NMTAP	48	48	1
NMTAP	48	96	0
NMTAP	48	192	2
NMTAP	48	192	7
NMTAP	48	240	2
NMTAP	48	240	7
NMTAP	48	288	2
NMTAP	48	288	7
NMTAP	49	0	4
NMTAP	49	0	5
NMTAP	49	96	6
NMTAP	49	96	7
NMTAP	49	192	0
NMTAP	49	192	1
NMTAP	49	288	2
NMTAP	49	288	3
NMTAP	50	0	4
NMTAP	50	48	4
NMTAP	50	96	2
NMTAP	50	144	2
NMTAP	50	192	6
NMTAP	50	240	6
NMTAP	50	288	0
NMHLD	50	336	0	240
NMHLD	52	0	5	768
NMTTP	52	96	4	E	0	M1
NMTTP	52	288	5	E	0	M1
NMTTP	53	96	0	C	0	M1
NMTTP	53	288	1	E	0	M1
NMHLD	54	0	2	768
NMTTP	54	96	4	E	0	M1
NMTTP	54	288	3	E	0	M1
NMTTP	55	96	0	C	0	M1
NMTTP	55	288	7	E	0	M1
NMTAP	56	0	5
NMTAP	56	96	5
NMTAP	56	192	4
NMTAP	56	288	4
NMTAP	57	0	3
NMTAP	57	96	3
NMTAP	57	192	2
NMTAP	57	288	2
NMTAP	58	0	4
NMTAP	58	48	4
NMTAP	58	96	3
NMTAP	58	144	3
NMTAP	58	192	5
NMTAP	58	240	5
NMTAP	58	288	2
NMTAP	58	336	2
NMTAP	59	0	4
NMTAP	59	48	4
NMTAP	59	96	3
NMTAP	59	96	4
NMTAP	59	144	3
NMTAP	59	144	4
NMTAP	59	192	3
NMTAP	59	192	4
BRSTR	59	288	1
NMSI_	59	288	1	96	48	3
BRSTR	59	288	6
NMSI_	59	288	6	96	48	4
BXTAP	60	96	0
BXTAP	60	96	7
NMTAP	60	192	2
NMTAP	60	192	5
NMTAP	60	288	6
NMTAP	60	336	6
NMTAP	61	0	4
NMTAP	61	48	4
NMTAP	61	96	7
NMTAP	61	144	7
NMTAP	61	192	0
NMTAP	61	288	0
NMTAP	61	288	1
NMSTR	62	0	0
NMSI_	62	0	0	96	48	4
NMSTR	62	0	1
NMSV_	62	0	1	96	48	4
NMSTR	62	192	6
NMSV_	62	192	6	96	48	3
NMSTR	62	192	7
NMSI_	62	192	7	96	48	3
NMTAP	63	0	1
NMTAP	63	48	1
NMTAP	63	96	3
NMTAP	63	144	3
BRTAP	63	192	0
NMTAP	63	288	1
NMTAP	63	288	7
NMSTR	64	0	6
NMSCR	64	0	6	96	96	1
NMSTR	64	192	2
NMSCR	64	192	2	96	96	5
NMSTR	65	0	6
NMSI_	65	0	6	96	96	2
NMSTR	65	192	0
NMSI_	65	192	0	96	96	4
NMHLD	66	0	6	96
NMHLD	66	96	4	96
NMHLD	66	192	3	96
NMHLD	66	288	1	96
NMSTR	67	0	7
NMSCL	67	0	7	96	192	0
NMTAP	68	0	0
NMTAP	68	0	7
NMTAP	68	48	0
NMTAP	68	48	7
NMTAP	68	96	0
NMTAP	68	96	7
NMTAP	68	144	0
NMTAP	68	144	7
NMTAP	68	192	0
NMTAP	68	192	7
BRTAP	68	288	1
BRTAP	68	288	6
NMTAP	69	0	5
NMTAP	69	96	6
NMTAP	69	96	7
NMTAP	69	192	2
NMTAP	69	288	0
NMTAP	69	288	1
NMTAP	70	0	5
NMTAP	70	96	6
NMTAP	70	144	6
NMTAP	70	192	0
NMTAP	70	240	0
NMTAP	70	288	7
NMTAP	70	336	7
NMSTR	71	0	1
NMSI_	71	0	1	96	96	4
NMSTR	71	192	5
NMSI_	71	192	5	96	96	0
NMHLD	72	0	1	96
NMTAP	72	96	3
NMTAP	72	144	3
NMTAP	72	192	2
NMTAP	72	240	2
NMTAP	72	288	4
NMSTR	73	0	5
NMSI_	73	0	5	96	96	0
NMSTR	73	192	1
NMSI_	73	192	1	96	96	4
BRTAP	74	0	7
NMTAP	74	96	0
NMTAP	74	96	6
NMTAP	74	144	0
NMTAP	74	144	6
NMTAP	74	192	1
NMTAP	74	192	5
NMTAP	74	240	1
NMTAP	74	240	5
NMTAP	74	288	2
NMTAP	74	288	4
NMHLD	75	0	1	96
NMTAP	75	96	3
NMHLD	75	192	6	96
NMTAP	75	288	4
NMHLD	76	0	2	96
NMHLD	76	96	0	96
NMHLD	76	192	7	96
NMHLD	76	288	5	96
NMTAP	77	0	3
NMTAP	77	48	3
NMTAP	77	96	4
NMTAP	77	144	4
NMTAP	77	192	2
NMTAP	77	192	5
NMHLD	77	288	1	672
NMHLD	78	0	6	576
BXSTR	79	288	0
NMSI_	79	288	0	96	48	3
BXSTR	79	288	7
NMSI_	79	288	7	96	48	4

T_REC_TAP	270
T_REC_BRK	4
T_REC_XTP	3
T_REC_BXX	2
T_REC_HLD	70
T_REC_XHO	0
T_REC_BHO	0
T_REC_BXH	0
T_REC_STR	40
T_REC_BST	2
T_REC_XST	0
T_REC_XBS	2
T_REC_TTP	8
T_REC_THO	0
T_REC_SLD	44
T_REC_BSL	0
T_REC_ALL	445
T_NUM_TAP	321
T_NUM_BRK	10
T_NUM_HLD	70
T_NUM_SLD	44
T_NUM_ALL	445
T_JUDGE_TAP	331
T_JUDGE_HLD	217
T_JUDGE_SLD	44
T_JUDGE_ALL	592
TTM_EACHPAIRS	95
TTM_SCR_TAP	160500
TTM_SCR_BRK	26000
TTM_SCR_HLD	70000
TTM_SCR_SLD	66000
TTM_SCR_ALL	322500
TTM_SCR_S	311900
TTM_SCR_SS	321500
TTM_RAT_ACV	10031

