VERSION	0.00.00	1.04.00
FES_MODE	0
BPM_DEF	142.000	142.000	142.000	142.000
MET_DEF	4	4
RESOLUTION	384
CLK_DEF	384
COMPATIBLE_CODE	MA2

BPM	0	0	142.000
MET	0	0	4	4

NMHLD	1	0	5	624
NMTTP	1	96	4	B	0	M1
NMTTP	1	96	5	B	0	M1
NMTTP	1	288	2	B	0	M1
NMTTP	1	288	3	B	0	M1
NMTTP	2	96	4	B	0	M1
NMTTP	2	96	5	B	0	M1
NMTAP	2	240	3
NMTAP	2	288	3
NMHLD	3	0	2	432
NMTAP	3	0	4
NMTTP	3	96	4	B	0	M1
NMTTP	3	96	5	B	0	M1
NMTTP	3	288	2	B	0	M1
NMTTP	3	288	3	B	0	M1
NMTAP	4	48	6
NMSTR	4	96	6
NMSXL	4	96	6	96	96	7
NMTAP	4	192	3
NMTAP	4	240	3
NMTAP	4	288	3
CNSI_	4	288	7	0	96	4
NMHLD	5	0	1	768
NMTTP	5	96	2	B	0	M1
NMTTP	5	96	3	B	0	M1
NMTTP	5	288	4	B	0	M1
NMTTP	5	288	5	B	0	M1
NMTTP	6	96	2	B	0	M1
NMTTP	6	96	3	B	0	M1
NMTAP	6	240	4
NMTAP	6	288	4
NMHLD	7	0	5	480
NMTTP	7	96	2	B	0	M1
NMTTP	7	96	3	B	0	M1
NMTTP	7	288	4	B	0	M1
NMTTP	7	288	5	B	0	M1
NMTAP	8	48	3
NMSTR	8	96	3
NMSSR	8	96	3	96	144	7
NMTAP	8	192	7
NMTAP	8	240	7
NMTAP	8	288	6
NMTAP	8	336	6
NMSTR	9	0	5
NMSI_	9	0	5	96	48	3
NMTTP	9	96	1	E	0	M1
NMSTR	9	192	2
NMSI_	9	192	2	96	48	4
NMTTP	9	288	7	E	0	M1
NMSTR	10	0	5
NMSI_	10	0	5	96	48	3
NMTTP	10	96	1	E	0	M1
NMTAP	10	192	2
NMTAP	10	240	1
NMTAP	10	240	3
NMTAP	10	288	1
NMTAP	10	288	3
NMSTR	11	0	2
NMSI_	11	0	2	96	48	4
NMTAP	11	0	4
NMTTP	11	96	6	B	0	M1
NMSTR	11	192	5
NMSI_	11	192	5	96	48	3
NMTTP	11	288	1	B	0	M1
NMSTR	12	0	2
BRSCR	12	0	2	96	48	4
NMSTR	12	96	6
NMSXL	12	96	6	96	96	7
NMTAP	12	192	3
NMTAP	12	240	3
NMTAP	12	288	3
CNSI_	12	288	7	0	96	4
NMTAP	13	0	2
NMTAP	13	48	1
NMTAP	13	96	3
NMTAP	13	144	2
NMTAP	13	144	4
NMTAP	13	192	5
NMTAP	13	240	6
NMTAP	13	288	4
NMTAP	13	336	3
NMTAP	13	336	5
NMTAP	14	0	2
NMTAP	14	48	1
NMTAP	14	96	3
NMTAP	14	144	2
NMTAP	14	144	4
NMTAP	14	192	5
NMTAP	14	240	4
NMTAP	14	240	6
NMTAP	14	288	4
NMTAP	14	288	6
NMTAP	14	336	3
NMTAP	15	0	5
NMTAP	15	48	4
NMTAP	15	96	2
NMTAP	15	96	3
NMTAP	15	144	1
NMTAP	15	192	2
NMTAP	15	240	3
NMTAP	15	288	4
NMTAP	15	288	5
NMTAP	15	336	6
NMTAP	16	0	0
NMTAP	16	24	7
NMTAP	16	48	0
NMTAP	16	72	7
NMTAP	16	96	0
NMTAP	16	120	7
NMTAP	16	144	0
NMTAP	16	168	7
EXSTR	16	192	1
NMSCR	16	192	1	96	48	3
EXSTR	16	192	6
NMSCL	16	192	6	96	48	4
BXSTR	16	288	1
NMSLL	16	288	1	96	96	3
BXTAP	16	288	6
EXTAP	17	0	4
NMTAP	17	96	5
NMTAP	17	144	5
NMTAP	17	192	3
NMTAP	17	216	4
NMTAP	17	240	3
NMTAP	17	264	4
NMHLD	17	288	2	96
EXTAP	18	0	7
EXTAP	18	16	6
EXTAP	18	32	5
NMTAP	18	48	1
NMTAP	18	72	1
NMTAP	18	96	3
NMTAP	18	120	3
NMTAP	18	144	2
NMTAP	18	168	2
EXTAP	18	192	4
EXTAP	18	216	3
EXTAP	18	240	5
EXTAP	18	264	4
BXSTR	18	288	6
NMSI_	18	288	6	96	48	0
EXTAP	19	0	4
NMTAP	19	96	2
NMTAP	19	144	2
NMHLD	19	192	1	96
NMTAP	19	192	3
BRTAP	19	288	7
NMHLD	20	0	2	96
NMTAP	20	0	6
NMHLD	20	96	0	96
NMHLD	20	192	7	96
NMTAP	20	288	6
NMTAP	21	0	5
EXTAP	21	48	5
NMTAP	21	96	3
NMTAP	21	144	2
NMTAP	21	144	4
NMTAP	21	192	1
NMTAP	21	216	3
NMTAP	21	240	2
NMTAP	21	264	3
BRTAP	21	288	0
NMTTP	22	0	7	B	0	M1
NMTTP	22	0	7	A	0	M1
NMTTP	22	48	3	D	0	M1
NMTTP	22	64	3	A	0	M1
NMTTP	22	80	4	D	0	M1
NMTTP	22	96	6	B	0	M1
NMTTP	22	120	0	B	0	M1
NMTTP	22	144	4	B	0	M1
NMTTP	22	168	2	B	0	M1
EXTAP	22	192	5
EXTAP	22	216	1
EXTAP	22	240	5
EXTAP	22	264	1
BXSTR	22	288	5
NMSV_	22	288	5	96	72	3
EXTAP	23	0	3
NMTAP	23	96	2
NMTAP	23	144	2
NMHLD	23	192	1	96
NMTAP	23	192	3
BRTAP	23	288	0
NMTAP	24	0	1
NMTAP	24	0	3
NMTAP	24	48	2
NMTAP	24	96	3
NMTAP	24	96	4
NMTAP	24	144	5
NMSTR	24	192	1
NMSCR	24	192	1	96	48	3
NMSTR	24	192	6
NMSCL	24	192	6	96	48	4
NMTAP	24	240	0
NMTAP	24	240	7
NMTAP	24	288	1
NMTAP	24	288	6
NMTAP	25	48	2
NMTAP	25	48	3
BRTAP	25	96	0
BRTAP	25	96	4
NMTAP	25	192	6
NMTAP	25	216	7
NMTAP	25	240	6
NMTAP	25	264	7
NMHLD	25	288	5	96
NMTAP	26	0	0
NMTAP	26	16	1
NMTAP	26	32	2
NMTAP	26	48	6
NMTAP	26	72	6
NMTAP	26	96	4
NMTAP	26	120	4
NMTAP	26	144	5
NMTAP	26	168	5
NMTAP	26	192	3
NMTAP	26	216	4
NMTAP	26	240	2
NMTAP	26	264	3
BRSTR	26	288	1
NMSI_	26	288	1	96	48	4
NMTAP	27	0	1
NMTAP	27	0	4
NMTAP	27	96	5
NMTAP	27	144	6
NMTAP	27	192	7
NMTAP	27	208	3
NMTAP	27	224	7
NMTAP	27	240	3
NMTAP	27	256	7
NMTAP	27	272	3
BRTAP	27	288	7
NMHLD	28	0	4	48
NMHLD	28	0	6	48
NMHLD	28	96	1	48
NMHLD	28	96	3	48
NMHLD	28	192	4	48
NMHLD	28	192	5	48
NMHLD	28	288	2	48
NMHLD	28	288	3	48
NMTAP	29	0	1
EXTAP	29	48	1
NMTAP	29	96	2
NMTAP	29	96	4
NMTAP	29	144	3
NMTAP	29	144	5
NMTAP	29	192	6
NMTAP	29	216	4
NMTAP	29	240	5
NMTAP	29	264	4
BRTAP	29	288	7
NMTTP	30	0	0	B	0	M1
NMTTP	30	0	0	A	0	M1
NMTTP	30	48	5	D	0	M1
NMTTP	30	64	4	A	0	M1
NMTTP	30	80	4	D	0	M1
NMTTP	30	96	1	B	0	M1
NMTTP	30	120	7	B	0	M1
NMTTP	30	144	3	B	0	M1
NMTTP	30	168	5	B	0	M1
NMTAP	30	192	2
NMTAP	30	216	6
NMTAP	30	240	2
NMTAP	30	264	6
BRSTR	30	288	0
NMSI_	30	288	0	96	48	4
NMTAP	31	0	0
NMTAP	31	0	4
NMTAP	31	96	5
NMTAP	31	144	6
NMTAP	31	192	7
NMTAP	31	208	3
NMTAP	31	224	7
NMTAP	31	240	3
NMTAP	31	256	7
NMTAP	31	272	3
BRTAP	31	288	7
NMTAP	32	0	4
NMTAP	32	0	6
NMTAP	32	48	5
NMTAP	32	96	3
NMTAP	32	96	4
NMTAP	32	144	2
NMSTR	32	192	1
BRSCR	32	192	1	96	48	3
NMSTR	32	192	6
BRSCL	32	192	6	96	48	4
NMTAP	32	240	0
NMTAP	32	240	7
NMTAP	32	288	1
NMTAP	32	288	6
NMHLD	33	0	0	288
BRTAP	33	0	6
NMTAP	33	144	4
NMTAP	33	240	2
NMTAP	33	288	2
BRTAP	34	0	1
NMHLD	34	0	6	288
NMTAP	34	144	3
NMTAP	34	240	5
NMTAP	34	288	5
NMHLD	35	0	1	288
BRTAP	35	0	4
NMTAP	35	144	3
NMTAP	35	240	2
NMTAP	35	288	2
BRTAP	36	0	3
NMSTR	36	0	6
NMSI_	36	0	6	96	48	3
NMSTR	36	144	1
NMSI_	36	144	1	96	48	4
CNSI_	36	144	3	0	48	6
NMTAP	36	240	7
CNSI_	36	288	4	0	48	1
NMTAP	36	288	7
NMHLD	37	0	0	240
BRTAP	37	0	6
NMTAP	37	144	4
NMTAP	37	240	2
NMSTR	37	288	2
NMSI_	37	288	2	96	48	4
BRTAP	38	0	2
NMHLD	38	0	7	240
NMTAP	38	144	4
NMTAP	38	240	5
NMSTR	38	288	5
NMSI_	38	288	5	96	48	2
NMHLD	39	0	1	240
BRTAP	39	0	5
NMTAP	39	144	3
NMTAP	39	240	0
NMSTR	39	288	0
NMSI_	39	288	0	96	48	4
BRTAP	40	0	0
BRHLD	40	0	7	240
NMTAP	40	240	4
NMTAP	40	264	4
NMSTR	40	288	7
NMSCL	40	288	7	96	168	4
NMTAP	41	0	2
NMTAP	41	96	2
NMHLD	41	192	1	72
NMTAP	41	264	3
NMSTR	41	288	2
NMSCL	41	288	2	96	168	7
NMTAP	41	336	2
NMTAP	42	0	5
NMTAP	42	96	5
NMHLD	42	192	6	72
NMTAP	42	264	4
NMSTR	42	288	5
NMSCR	42	288	5	96	168	0
NMTAP	42	336	5
NMTAP	43	0	3
NMTAP	43	96	3
NMHLD	43	192	2	72
NMTAP	43	264	0
NMSTR	43	288	1
NMSCR	43	288	1	96	168	4
NMTAP	43	336	1
NMTAP	44	0	7
NMTAP	44	96	7
NMHLD	44	192	6	72
NMTAP	44	264	4
NMTAP	44	288	5
NMTAP	44	336	3
NMTAP	44	336	5
NMHLD	45	0	4	48
NMHLD	45	0	6	48
NMHLD	45	96	4	48
NMHLD	45	96	6	48
NMTAP	45	192	3
NMTAP	45	192	5
NMTAP	45	264	2
NMTAP	45	264	3
NMTAP	45	336	1
NMTAP	45	336	3
NMHLD	46	0	1	48
NMHLD	46	0	3	48
NMHLD	46	96	1	48
NMHLD	46	96	3	48
NMTAP	46	192	2
NMTAP	46	192	4
NMTAP	46	264	4
NMTAP	46	264	5
NMTAP	46	336	4
NMTAP	46	336	6
NMTAP	47	0	5
NMTAP	47	48	5
NMTAP	47	96	4
NMTAP	47	96	5
NMTAP	47	144	4
NMTAP	47	144	5
NMTAP	47	192	3
NMTAP	47	192	4
NMTAP	47	240	3
NMTAP	47	240	4
NMTAP	47	288	2
NMTAP	47	288	3
NMTAP	47	336	2
NMTAP	47	336	3
NMTAP	48	0	1
NMHLD	48	0	5	48
NMTAP	48	48	3
NMHLD	48	96	2	48
NMTAP	48	96	6
NMTAP	48	144	4
NMSTR	48	192	1
NMSCR	48	192	1	96	48	3
NMSTR	48	192	6
NMSCL	48	192	6	96	48	4
NMTAP	48	240	0
NMTAP	48	240	7
BRSTR	48	288	1
NMSLL	48	288	1	96	384	3
BRSTR	48	288	6
NMSLR	48	288	6	96	384	4
BRTAP	50	192	2
BRTAP	50	192	5
BRTAP	50	240	3
BRTAP	50	240	4
BRTAP	50	288	1
BRSTR	50	288	6
NMSI_	50	288	6	96	48	4
NMTAP	51	0	2
NMTAP	51	0	6
NMTAP	51	48	2
NMTAP	51	96	1
NMTAP	51	120	0
NMTAP	51	144	1
NMTAP	51	168	0
NMSTR	51	192	2
NMSI_	51	192	2	96	48	7
NMTAP	51	216	4
NMTAP	51	264	4
NMSTR	51	288	2
NMSI_	51	288	2	96	48	4
NMTAP	51	336	6
NMTAP	51	360	5
NMTAP	52	0	2
NMTAP	52	0	4
NMTAP	52	48	6
NMTAP	52	72	6
EXTAP	52	96	4
NMTAP	52	120	5
NMTAP	52	144	3
NMTAP	52	168	4
NMTAP	52	192	2
NMTAP	52	216	3
NMTAP	52	240	1
NMTAP	52	264	4
NMTAP	52	288	0
NMTAP	52	336	3
NMTAP	52	336	5
NMTAP	53	0	7
NMTAP	53	48	3
NMTAP	53	48	5
NMTAP	53	96	6
NMTAP	53	120	2
NMTAP	53	144	6
NMTAP	53	168	2
NMTAP	53	192	5
NMTAP	53	216	3
NMTAP	53	240	4
NMTAP	53	264	3
NMTAP	53	288	6
NMTAP	53	312	2
NMTAP	53	336	3
NMTAP	53	360	2
NMHLD	54	0	7	48
NMTAP	54	48	0
NMTAP	54	72	0
NMTAP	54	96	6
NMTAP	54	120	6
NMTAP	54	144	1
NMTAP	54	168	1
NMTAP	54	192	3
NMTAP	54	216	2
NMTAP	54	240	4
NMTAP	54	264	1
NMSTR	54	288	3
BRSCL	54	288	3	96	48	0
NMTAP	54	336	4
BRTAP	55	0	3
NMTAP	55	0	5
NMTAP	55	96	6
NMTAP	55	120	7
NMTAP	55	144	6
NMTAP	55	168	7
NMSTR	55	192	5
NMSI_	55	192	5	96	48	0
NMTAP	55	216	3
NMTAP	55	264	3
NMSTR	55	288	5
NMSI_	55	288	5	96	48	3
NMTAP	55	336	1
NMTAP	55	360	2
NMTAP	56	0	3
NMTAP	56	0	5
NMTAP	56	48	1
NMTAP	56	72	1
EXTAP	56	96	3
NMTAP	56	120	2
NMTAP	56	144	4
NMTAP	56	168	3
NMTAP	56	192	5
NMTAP	56	216	4
NMTAP	56	240	6
NMTAP	56	264	3
NMSTR	56	288	7
NMSV_	56	288	7	96	48	2
NMTAP	56	336	0
NMTAP	56	336	1
NMTAP	57	0	2
NMTAP	57	0	7
NMTAP	57	96	1
NMTAP	57	120	1
NMTAP	57	144	3
NMTAP	57	168	3
NMTAP	57	192	2
NMTAP	57	216	2
NMTAP	57	240	4
NMTAP	57	264	4
NMTAP	57	288	3
NMTAP	57	312	3
NMTAP	57	336	5
NMTAP	58	0	4
NMHLD	58	0	6	48
NMTAP	58	48	4
NMHLD	58	96	1	48
NMTAP	58	96	3
NMTAP	58	144	3
NMSTR	58	192	1
NMSCR	58	192	1	96	48	3
NMSTR	58	192	6
NMSCL	58	192	6	96	48	4
NMTAP	58	240	0
NMTAP	58	240	7
BRTAP	58	288	1
BRTAP	58	288	6
NMHLD	59	0	1	48
NMHLD	59	0	7	48
NMHLD	59	72	2	48
NMHLD	59	72	6	48
NMTAP	59	144	3
NMTAP	59	144	5
BRTAP	59	192	2
BRSTR	59	192	6
NMSV_	59	192	6	96	48	3
NMSTR	59	288	1
BRSI_	59	288	1	96	72	3
NMTAP	59	288	6
NMTAP	59	320	0
NMTAP	59	352	0
NMTAP	60	0	1
NMTAP	60	0	4
CNSI_	60	72	3	0	48	5
NMSTR	60	96	0
NMSF_	60	96	0	96	48	4
CNSI_	60	120	5	0	48	7
BRTAP	60	192	0
NMTAP	60	288	1
NMSTR	60	288	6
NMSSL	60	288	6	96	96	2
NMSTR	61	0	2
NMSSL	61	0	2	96	96	6
NMTAP	61	96	6
BRTAP	61	192	0
NMSTR	61	288	1
BRSCR	61	288	1	96	96	7
NMTAP	61	312	7
NMTAP	61	336	1
NMTAP	61	360	7
NMTAP	62	0	1
NMTAP	62	96	0
CNSCL	62	96	7	0	96	1
BRHLD	62	192	7	96
NMTAP	62	288	0
NMTAP	62	300	1
NMTAP	62	300	6
NMTAP	62	312	2
NMTAP	62	312	5
NMTAP	62	324	3
NMTAP	62	324	4
EXSTR	63	0	2
NMSCL	63	0	2	96	96	6
EXTAP	63	24	2
NMTAP	63	96	5
NMTAP	63	168	4
BRSTR	63	192	4
NMSI_	63	192	4	96	48	0
CNSCR	63	192	6	0	96	2
NMSTR	63	288	4
NMSI_	63	288	4	96	24	2
NMSI_	63	288	4	96	24	6
CNSI_	64	24	2	0	48	0
CNSI_	64	24	6	0	48	0
CNSI_	64	72	0	0	48	2
CNSI_	64	72	0	0	48	6
CNSI_	64	120	2	0	24	4
CNSI_	64	120	6	0	24	4
BRTAP	64	192	2
BRTAP	64	192	6
NMTAP	64	288	5
NMTAP	64	312	4
NMTAP	64	336	6
NMTAP	64	360	6
NMTAP	65	0	1
NMTAP	65	24	0
NMTAP	65	48	2
NMTAP	65	72	7
NMSTR	65	96	1
NMSI_	65	96	1	96	48	5
NMTAP	65	120	0
NMTAP	65	144	2
NMTAP	65	168	7
BRTAP	65	192	1
NMTAP	65	288	4
NMTAP	65	288	6
NMTAP	65	320	7
NMTAP	65	352	7
NMHLD	66	0	4	48
NMHLD	66	0	6	48
NMHLD	66	96	1	48
NMHLD	66	96	3	48
BRHLD	66	192	4	48
BRHLD	66	192	5	48
NMHLD	66	288	2	48
NMHLD	66	288	3	48
NMSTR	67	0	0
BRSCR	67	0	0	96	48	3
NMSTR	67	0	7
BRSCL	67	0	7	96	48	4
BRTAP	67	96	0
BRTAP	67	96	7
BRHLD	67	192	2	24
NMHLD	67	216	3	24
NMHLD	67	240	2	24
NMHLD	67	264	3	24
NMHLD	67	288	0	24
NMHLD	67	312	7	24
NMHLD	67	336	1	24
NMHLD	67	360	6	24
NMHLD	68	0	2	24
NMHLD	68	24	3	24
NMHLD	68	48	1	24
NMHLD	68	72	4	24
NMHLD	68	96	0	24
NMHLD	68	120	7	24
NMHLD	68	144	1	24
NMHLD	68	168	6	24
BRHLD	68	192	2	24
NMHLD	68	216	3	24
NMHLD	68	240	1	24
NMHLD	68	264	4	24
NMSTR	68	288	0
NMSSR	68	288	0	96	144	4
NMTAP	68	312	7
NMTAP	68	336	1
NMTAP	68	360	6
NMTAP	69	0	0
BRHLD	69	192	5	24
NMHLD	69	216	4	24
NMHLD	69	240	5	24
NMHLD	69	264	4	24
NMHLD	69	288	7	24
NMHLD	69	312	0	24
NMHLD	69	336	6	24
NMHLD	69	360	1	24
NMHLD	70	0	5	24
NMHLD	70	24	4	24
NMHLD	70	48	6	24
NMHLD	70	72	3	24
NMHLD	70	96	7	24
NMHLD	70	120	0	24
NMHLD	70	144	6	24
NMHLD	70	168	1	24
BRHLD	70	192	5	24
NMHLD	70	216	4	24
NMHLD	70	240	6	24
NMHLD	70	264	3	24
NMHLD	70	288	7	24
NMHLD	70	312	0	24
NMHLD	70	336	6	24
NMHLD	70	360	1	24
NMSTR	71	0	7
BRSI_	71	0	7	96	48	3
BRSUL	71	0	7	96	48	3
BRHLD	71	192	1	24
NMHLD	71	216	0	24
NMHLD	71	240	1	24
NMHLD	71	264	0	24
NMHLD	71	288	3	24
NMHLD	71	312	4	24
NMHLD	71	336	2	24
NMHLD	71	360	5	24
NMHLD	72	0	1	24
NMHLD	72	24	0	24
NMHLD	72	48	2	24
NMHLD	72	72	7	24
NMHLD	72	96	3	24
NMHLD	72	120	4	24
NMHLD	72	144	2	24
NMHLD	72	168	5	24
BRHLD	72	192	1	24
NMHLD	72	216	0	24
NMHLD	72	240	2	24
NMHLD	72	264	7	24
NMSTR	72	288	1
NMSI_	72	288	1	96	48	5
NMTAP	72	312	0
NMTAP	72	336	1
NMTAP	72	360	0
NMTAP	73	0	1
CNSI_	73	48	5	0	72	2
CNSI_	73	120	2	0	48	4
BRHLD	73	192	6	24
NMHLD	73	216	7	24
NMHLD	73	240	6	24
NMHLD	73	264	7	24
NMHLD	73	288	4	24
NMHLD	73	312	3	24
NMHLD	73	336	0	24
NMHLD	73	360	1	24
NMSTR	74	0	7
NMSI_	74	0	7	96	48	3
NMSTR	74	96	2
NMSI_	74	96	2	96	48	7
NMTAP	74	96	7
NMTAP	74	192	2
BRSTR	74	192	5
NMSI_	74	192	5	96	48	1
NMSTR	74	288	0
NMSF_	74	288	0	96	48	4
NMTAP	74	288	5
NMSTR	75	0	0
NMSCR	75	0	0	96	432	7
NMTTP	75	1	0	C	1	M1
NMTAP	76	240	0
NMTAP	76	288	0
NMTAP	76	336	1
NMTAP	76	336	7
NMTAP	77	0	2
NMSTR	77	0	6
NMSCL	77	0	6	96	48	4
NMTAP	77	96	7
NMTAP	77	144	0
NMSTR	77	192	1
NMSI_	77	192	1	96	48	3
NMTAP	77	240	1
NMTAP	77	288	0
NMTAP	77	336	7
NMSTR	78	0	6
NMSXL	78	0	6	96	96	7
NMTAP	78	48	6
NMTAP	78	96	4
NMTAP	78	144	3
NMTAP	78	192	2
CNSI_	78	192	7	0	96	4
NMTAP	78	240	1
NMSTR	78	288	1
NMSI_	78	288	1	96	48	7
NMSTR	79	0	1
NMSCR	79	0	1	96	48	3
NMTAP	79	0	3
NMTAP	79	96	4
NMTAP	79	144	5
NMSTR	79	192	6
NMSI_	79	192	6	96	48	4
NMTAP	79	240	6
NMTAP	79	288	3
NMTAP	79	336	2
NMSTR	80	0	1
NMSI_	80	0	1	96	48	3
NMTAP	80	48	1
NMTAP	80	96	3
NMTAP	80	144	4
NMSTR	80	192	5
NMSI_	80	192	5	96	48	3
NMTAP	80	240	6
NMTAP	80	288	3
NMSTR	80	288	5
NMSCR	80	288	5	96	48	0
NMTAP	81	0	2
NMTAP	81	0	5
NMSTR	81	96	1
NMSI_	81	96	1	96	48	5
NMTAP	81	144	2
NMSTR	81	192	7
NMSI_	81	192	7	96	48	2
NMTAP	81	240	6
NMTAP	81	288	4
NMHLD	81	336	3	240
NMSTR	82	192	7
BRSCL	82	192	7	96	48	4
BRSCR	82	192	7	96	48	2
BRTAP	82	288	7

T_REC_TAP	403
T_REC_BRK	33
T_REC_XTP	19
T_REC_BXX	1
T_REC_HLD	118
T_REC_XHO	0
T_REC_BHO	11
T_REC_BXH	0
T_REC_STR	60
T_REC_BST	8
T_REC_XST	3
T_REC_XBS	3
T_REC_TTP	44
T_REC_THO	0
T_REC_SLD	65
T_REC_BSL	12
T_REC_ALL	780
T_NUM_TAP	529
T_NUM_BRK	68
T_NUM_HLD	118
T_NUM_SLD	65
T_NUM_ALL	780
T_JUDGE_TAP	574
T_JUDGE_HLD	220
T_JUDGE_SLD	77
T_JUDGE_ALL	871
TTM_EACHPAIRS	109
TTM_SCR_TAP	264500
TTM_SCR_BRK	176800
TTM_SCR_HLD	118000
TTM_SCR_SLD	97500
TTM_SCR_ALL	656800
TTM_SCR_S	630500
TTM_SCR_SS	650000
TTM_RAT_ACV	10104

