VERSION	0.00.00	1.04.00
FES_MODE	0
BPM_DEF	142.000	142.000	142.000	142.000
MET_DEF	4	4
RESOLUTION	384
CLK_DEF	384
COMPATIBLE_CODE	MA2

BPM	0	0	142.000
MET	0	0	4	4

NMHLD	1	0	3	1440
NMTTP	1	96	5	E	0	M1
NMTTP	1	288	4	E	0	M1
NMTTP	2	96	3	E	0	M1
EXTAP	2	240	2
EXTAP	2	288	2
EXTAP	3	0	2
NMTTP	3	96	2	E	0	M1
NMTTP	3	288	2	B	0	M1
NMTTP	4	96	3	B	0	M1
EXTAP	4	240	4
EXTAP	4	288	4
NMHLD	5	0	4	1344
NMTTP	5	96	3	E	0	M1
NMTTP	5	288	4	E	0	M1
NMTTP	6	96	5	E	0	M1
EXTAP	6	240	5
EXTAP	6	288	5
EXTAP	7	0	5
NMTTP	7	96	6	E	0	M1
NMTTP	7	288	5	B	0	M1
NMTTP	8	96	4	B	0	M1
EXTAP	8	192	3
EXTAP	8	240	3
EXTAP	8	288	4
EXTAP	8	336	4
NMTAP	9	0	2
NMTAP	9	96	2
NMTAP	9	96	3
NMTAP	9	192	5
NMTAP	9	288	4
NMTAP	9	288	5
NMTAP	10	0	1
NMTAP	10	96	1
NMTAP	10	96	3
NMTAP	10	192	2
NMTAP	10	240	2
NMTAP	10	288	3
NMTAP	11	0	6
NMTAP	11	96	4
NMTAP	11	96	6
NMTAP	11	192	1
NMTAP	11	288	1
NMTAP	11	288	3
NMTAP	12	0	0
NMTAP	12	96	0
NMTAP	12	96	6
EXTAP	12	192	6
EXTAP	12	240	7
EXTAP	12	288	6
EXTAP	12	336	7
EXTAP	13	0	5
NMTAP	13	96	4
NMTAP	13	96	5
NMTAP	13	192	2
NMTAP	13	288	2
NMTAP	13	288	3
NMTAP	14	0	6
NMTAP	14	96	4
NMTAP	14	96	6
NMTAP	14	192	5
NMTAP	14	240	5
NMTAP	14	288	4
NMTAP	15	0	2
NMTAP	15	0	3
NMTAP	15	96	2
NMTAP	15	96	3
NMTAP	15	192	4
NMTAP	15	192	5
NMTAP	15	288	4
NMTAP	15	288	5
BRTAP	16	0	1
BRTAP	16	0	2
BRTAP	16	96	5
BRTAP	16	96	6
BRSTR	16	192	0
BRSI_	16	192	0	96	48	3
BRSTR	16	192	7
BRSI_	16	192	7	96	48	4
EXTAP	17	0	3
EXTAP	17	0	4
NMTAP	17	96	0
NMTAP	17	192	2
NMTAP	17	240	3
NMTAP	17	288	2
NMTAP	17	288	4
NMTAP	18	0	5
NMTAP	18	48	5
NMTAP	18	96	4
NMTAP	18	144	4
NMTAP	18	192	7
NMTAP	18	240	7
NMTAP	18	288	0
NMHLD	19	0	2	96
NMTAP	19	48	3
NMSTR	19	96	3
NMSCR	19	96	3	96	96	7
NMSUR	19	96	3	96	96	0
NMTAP	20	0	0
NMTAP	20	0	1
NMTAP	20	96	2
NMTAP	20	96	3
NMTAP	20	192	4
NMTAP	20	192	5
NMTAP	20	288	6
NMTAP	20	288	7
NMTAP	21	0	0
NMTAP	21	0	1
NMTAP	21	48	2
NMTAP	21	96	2
NMTAP	21	192	6
NMTAP	21	192	7
NMTAP	21	240	5
NMSTR	21	288	5
NMSI_	21	288	5	96	48	2
NMSTR	22	0	1
NMSI_	22	0	1	96	48	6
NMSTR	22	96	4
NMSI_	22	96	4	96	48	7
NMSTR	22	192	0
NMSI_	22	192	0	96	48	3
NMTAP	22	288	4
NMTAP	23	0	2
NMTAP	23	0	3
NMTAP	23	96	1
NMTAP	23	96	4
NMTAP	23	192	4
NMTAP	23	192	5
NMTAP	23	240	4
NMTAP	23	240	5
NMTAP	23	288	3
NMTAP	23	288	6
BRTAP	24	0	1
BRTAP	24	0	2
BRTAP	24	96	5
BRTAP	24	96	6
BRSTR	24	192	0
BRSI_	24	192	0	96	48	3
BRSTR	24	192	7
BRSI_	24	192	7	96	48	4
EXTAP	25	48	3
EXTAP	25	48	4
EXTAP	25	96	3
EXTAP	25	96	4
NMTAP	25	192	6
NMTAP	25	240	7
NMTAP	25	288	0
NMTAP	25	288	6
NMTAP	26	0	1
NMTAP	26	48	1
NMTAP	26	96	0
NMTAP	26	144	0
NMTAP	26	192	3
NMTAP	26	240	3
NMTAP	26	288	4
NMHLD	27	0	6	96
NMTAP	27	48	7
NMSTR	27	96	7
NMSCR	27	96	7	96	96	3
NMSUR	27	96	7	96	96	4
NMTAP	28	0	4
NMTAP	28	0	5
NMTAP	28	96	6
NMTAP	28	96	7
NMTAP	28	192	0
NMTAP	28	192	1
NMTAP	28	288	2
NMTAP	28	288	3
NMSTR	29	0	4
NMSV_	29	0	4	96	48	5
NMTAP	29	192	0
NMTAP	29	240	0
NMSTR	29	288	1
NMSI_	29	288	1	96	48	4
NMSTR	30	0	5
NMSI_	30	0	5	96	48	0
NMSTR	30	96	2
NMSI_	30	96	2	96	48	7
NMSTR	30	192	6
NMSI_	30	192	6	96	48	3
NMTAP	30	288	2
NMTAP	31	0	2
NMTAP	31	0	3
NMTAP	31	96	1
NMTAP	31	96	4
NMTAP	31	192	4
NMTAP	31	192	5
NMTAP	31	240	4
NMTAP	31	240	5
NMTAP	31	288	3
NMTAP	31	288	6
BRTAP	32	0	1
BRTAP	32	0	2
BRTAP	32	96	5
BRTAP	32	96	6
BRSTR	32	192	0
BRSI_	32	192	0	96	48	3
BRSTR	32	192	7
BRSI_	32	192	7	96	48	4
EXHLD	33	0	3	384
EXTAP	33	0	4
NMTAP	33	144	2
NMTAP	33	288	1
EXHLD	34	0	1	384
NMTAP	34	144	0
NMTAP	34	288	7
EXHLD	35	0	7	384
NMTAP	35	144	6
NMTAP	35	288	5
EXHLD	36	0	5	288
NMTAP	36	96	6
NMTAP	36	144	6
NMTAP	36	240	4
NMTAP	36	288	4
NMTAP	37	0	3
EXHLD	37	0	4	384
NMTAP	37	144	5
NMTAP	37	288	6
EXHLD	38	0	6	384
NMTAP	38	144	7
NMTAP	38	288	0
EXHLD	39	0	0	144
NMTAP	39	144	2
NMTAP	39	288	3
NMTAP	39	288	4
BRHLD	40	0	1	288
BRHLD	40	0	6	288
NMTTP	41	0	0	B	0	M1
NMTTP	41	0	0	C	0	M1
NMTTP	41	96	1	B	0	M1
NMTTP	41	192	2	B	0	M1
NMTTP	41	288	3	B	0	M1
NMTTP	42	0	0	C	0	M1
NMTTP	42	0	4	B	0	M1
NMTTP	42	96	5	B	0	M1
NMTTP	42	192	6	B	0	M1
NMTTP	42	288	7	B	0	M1
NMTTP	43	0	0	C	0	M1
NMTTP	43	0	1	E	0	M1
NMTTP	43	96	2	E	0	M1
NMTTP	43	192	3	E	0	M1
NMTTP	43	288	4	E	0	M1
NMTTP	44	0	0	C	0	M1
NMTTP	44	0	5	E	0	M1
NMTTP	44	96	6	E	0	M1
NMTTP	44	192	7	E	0	M1
NMTTP	44	288	0	E	0	M1
NMTTP	45	0	1	E	0	M1
NMTTP	45	0	1	D	0	M1
NMTTP	45	96	2	E	0	M1
NMTTP	45	96	2	D	0	M1
NMTTP	45	192	3	E	0	M1
NMTTP	45	192	3	D	0	M1
NMTTP	45	288	4	E	0	M1
NMTTP	45	288	4	D	0	M1
NMTTP	46	0	5	E	0	M1
NMTTP	46	0	5	D	0	M1
NMTTP	46	96	6	E	0	M1
NMTTP	46	96	6	D	0	M1
NMTTP	46	192	7	E	0	M1
NMTTP	46	192	7	D	0	M1
NMTTP	46	288	0	E	0	M1
NMTTP	46	288	0	D	0	M1
EXTAP	47	0	1
EXTAP	47	48	2
EXTAP	47	96	3
EXTAP	47	144	4
EXTAP	47	192	5
EXTAP	47	240	6
EXTAP	47	288	7
EXTAP	47	336	0
BXTAP	48	0	1
BXTAP	48	0	2
BRTAP	48	96	5
BRTAP	48	96	6
BRSTR	48	192	0
BRSI_	48	192	0	96	48	3
BRSTR	48	192	7
BRSI_	48	192	7	96	48	4
NMTHO	49	0	0	384	C	0	M1
NMTAP	50	192	2
NMTAP	50	192	5
NMTAP	50	240	2
NMTAP	50	240	5
BRTAP	50	288	0
NMTAP	51	0	5
NMTAP	51	48	5
NMTAP	51	96	4
NMTAP	51	144	4
NMTAP	51	192	6
NMTAP	51	240	6
NMTAP	51	288	5
NMTAP	51	336	5
NMTAP	52	0	7
NMTAP	52	48	7
NMTAP	52	96	4
NMTAP	52	144	4
NMTAP	52	192	5
NMTAP	52	240	5
NMTAP	52	288	2
NMTAP	52	336	2
NMTAP	53	0	3
NMTAP	53	48	3
NMTAP	53	96	1
NMTAP	53	144	1
NMTAP	53	192	2
NMTAP	53	240	2
NMTAP	53	288	0
NMTAP	53	336	0
NMTAP	54	0	3
NMTAP	54	48	3
NMTAP	54	96	2
NMTAP	54	144	2
NMTAP	54	192	5
NMTAP	54	240	5
NMSTR	54	288	3
NMSCL	54	288	3	96	288	4
NMTTP	55	0	0	C	1	M1
NMTAP	56	0	3
NMTAP	56	48	3
NMTAP	56	96	5
NMTAP	56	144	5
NMTAP	56	192	1
NMTAP	56	240	1
NMSTR	56	288	7
NMSV_	56	288	7	96	48	2
NMTAP	57	96	0
NMTAP	57	144	0
NMTAP	57	192	3
NMTAP	57	240	3
NMTAP	57	288	1
NMTAP	57	336	1
BRTAP	58	0	1
BRTAP	58	0	2
BRTAP	58	96	5
BRTAP	58	96	6
BRSTR	58	192	0
BRSI_	58	192	0	96	48	3
BRSTR	58	192	7
BRSI_	58	192	7	96	48	4
NMHLD	59	0	3	72
NMHLD	59	72	5	72
NMTAP	59	144	4
NMTAP	59	192	4
NMTAP	59	192	5
EXTAP	59	288	6
EXTAP	59	320	6
EXTAP	59	352	6
EXSTR	60	0	6
NMSI_	60	0	6	96	48	3
NMSTR	60	192	2
NMSI_	60	192	2	96	48	7
NMTAP	61	0	6
NMTAP	61	96	6
NMTAP	61	96	7
NMTAP	61	192	0
NMTAP	61	192	5
EXTAP	61	288	1
EXTAP	61	320	1
EXTAP	61	352	1
EXSTR	62	0	1
NMSUL	62	0	1	96	96	3
BRTAP	62	288	2
BRTAP	62	288	5
EXTAP	63	0	2
EXTAP	63	32	3
EXTAP	63	96	4
EXTAP	63	96	5
EXTAP	63	160	3
EXTAP	63	160	6
EXTAP	63	192	3
EXSTR	63	192	6
NMSI_	63	192	6	96	48	1
NMSTR	64	0	2
NMSI_	64	0	2	96	48	5
NMTAP	64	0	3
NMTAP	64	192	4
NMTAP	64	192	5
EXTAP	64	288	6
EXTAP	64	312	7
EXTAP	64	336	6
EXTAP	64	360	7
EXSTR	65	0	5
NMSCL	65	0	5	96	48	3
NMHLD	65	96	0	96
CNSI_	65	144	3	0	48	7
EXTAP	65	288	0
EXTAP	65	288	7
EXTAP	65	320	0
EXTAP	65	320	7
EXTAP	65	352	0
EXTAP	65	352	7
EXTAP	66	0	0
EXTAP	66	0	7
NMTAP	66	96	5
NMTAP	66	96	6
NMTAP	66	192	3
NMTAP	66	192	4
NMTAP	66	288	1
NMTAP	66	288	2
NMTAP	67	0	0
NMTAP	67	0	7
BRTAP	67	96	2
BRTAP	67	96	5
NMSTR	67	192	3
NMSUL	67	192	3	96	48	7
NMSTR	67	192	4
NMSCR	67	192	4	96	48	6
NMSTR	68	0	3
NMSCL	68	0	3	96	48	1
NMSTR	68	0	4
NMSUR	68	0	4	96	48	0
NMSTR	68	192	3
NMSUL	68	192	3	96	48	7
NMSTR	68	192	4
NMSCR	68	192	4	96	48	6
NMHLD	69	0	0	96
NMHLD	69	0	5	96
NMSTR	69	192	3
NMSCL	69	192	3	96	48	1
NMSTR	69	192	4
NMSUR	69	192	4	96	48	0
NMSTR	70	0	3
NMSUL	70	0	3	96	48	7
NMSTR	70	0	4
NMSCR	70	0	4	96	48	6
NMSTR	70	192	3
NMSCL	70	192	3	96	48	1
NMSTR	70	192	4
NMSUR	70	192	4	96	48	0
NMHLD	71	0	2	96
NMHLD	71	0	7	96
NMSTR	71	192	0
NMSCL	71	192	0	96	48	6
NMSTR	71	192	1
NMSUR	71	192	1	96	48	5
NMSTR	72	0	6
NMSUL	72	0	6	96	48	2
NMSTR	72	0	7
NMSCR	72	0	7	96	48	1
NMSTR	72	192	0
NMSCL	72	192	0	96	48	6
NMSTR	72	192	1
NMSUR	72	192	1	96	48	5
NMTTP	73	0	6	E	0	M1
NMTTP	73	48	3	D	0	M1
NMTTP	73	96	5	D	0	M1
NMTTP	73	144	2	E	0	M1
NMSTR	73	192	0
NMSCR	73	192	0	96	48	3
NMSTR	73	192	7
NMSCL	73	192	7	96	48	4
NMTAP	74	0	2
NMTAP	74	0	3
NMTAP	74	96	6
NMTAP	74	96	7
NMTAP	74	192	4
NMTAP	74	192	5
NMTAP	74	288	0
NMTAP	74	288	1
NMHLD	75	0	2	576
NMTTP	75	96	4	E	0	M1
NMTAP	75	192	3
NMTTP	75	288	2	E	0	M1
NMTAP	76	0	3
NMTTP	76	96	0	E	0	M1
NMTAP	76	192	3
NMTAP	76	240	2
NMTAP	76	240	3
NMTAP	76	288	2
NMTAP	76	288	3
NMHLD	77	0	5	576
NMTTP	77	96	4	E	0	M1
NMTAP	77	192	4
NMTTP	77	288	6	E	0	M1
NMTAP	78	0	4
NMTTP	78	96	0	E	0	M1
NMTAP	78	192	4
NMTAP	78	240	4
NMTAP	78	240	5
NMTAP	78	288	4
NMTAP	78	288	5
NMTAP	79	0	2
NMTAP	79	96	1
NMTAP	79	96	3
NMTAP	79	192	4
NMTAP	79	240	4
NMTAP	79	288	3
NMTAP	79	288	5
NMTAP	80	0	6
NMTAP	80	96	5
NMTAP	80	96	7
NMTAP	80	192	0
NMTAP	80	240	0
NMTAP	80	288	1
NMTAP	80	288	7
NMHLD	81	0	2	96
NMHLD	81	96	3	96
NMHLD	81	192	4	96
NMTAP	81	288	5
NMTAP	81	336	5
NMTAP	82	48	1
NMTAP	82	48	6
NMTAP	82	96	1
NMTAP	82	96	6
NMTAP	82	192	0
NMSTR	82	192	7
NMSI_	82	192	7	96	96	4
NMSLR	82	192	7	96	96	5

T_REC_TAP	238
T_REC_BRK	23
T_REC_XTP	57
T_REC_BXX	2
T_REC_HLD	16
T_REC_XHO	7
T_REC_BHO	2
T_REC_BXH	0
T_REC_STR	36
T_REC_BST	10
T_REC_XST	4
T_REC_XBS	0
T_REC_TTP	59
T_REC_THO	1
T_REC_SLD	43
T_REC_BSL	10
T_REC_ALL	508
T_NUM_TAP	394
T_NUM_BRK	47
T_NUM_HLD	24
T_NUM_SLD	43
T_NUM_ALL	508
T_JUDGE_TAP	429
T_JUDGE_HLD	175
T_JUDGE_SLD	53
T_JUDGE_ALL	657
TTM_EACHPAIRS	104
TTM_SCR_TAP	197000
TTM_SCR_BRK	122200
TTM_SCR_HLD	24000
TTM_SCR_SLD	64500
TTM_SCR_ALL	407700
TTM_SCR_S	390950
TTM_SCR_SS	403000
TTM_RAT_ACV	10116

