VERSION	0.00.00	1.04.00
FES_MODE	0
BPM_DEF	190.000	190.000	216.000	110.400
MET_DEF	4	4
RESOLUTION	384
CLK_DEF	384
COMPATIBLE_CODE	MA2

BPM	0	0	190.000
BPM	1	0	145.000
BPM	1	24	190.000
BPM	53	0	138.000
BPM	53	24	190.000
BPM	71	72	110.400
BPM	71	96	190.000
BPM	84	0	202.000
BPM	84	24	190.000
BPM	102	0	216.000
BPM	102	24	190.000
BPM	106	0	161.000
BPM	106	24	190.000
BPM	108	0	139.600
BPM	108	24	190.000
MET	0	0	4	4

NMHLD	3	0	2	96
NMHLD	3	144	2	96
NMTAP	3	288	2
NMHLD	4	0	3	96
NMHLD	4	144	3	96
NMTAP	4	288	3
NMHLD	5	0	4	96
NMHLD	5	144	4	96
NMTAP	5	288	4
NMHLD	6	0	5	96
NMHLD	6	144	5	96
NMTAP	6	288	5
NMHLD	7	0	4	96
NMHLD	7	144	4	96
NMTAP	7	288	4
NMHLD	8	0	3	96
NMHLD	8	144	3	96
NMTAP	8	288	3
NMHLD	9	0	2	96
NMHLD	9	144	2	96
NMTAP	9	288	2
NMTTP	10	0	1	E	0	M1
NMTTP	10	24	2	E	0	M1
NMTTP	10	48	3	E	0	M1
NMTTP	10	72	4	E	0	M1
NMTTP	10	96	5	E	0	M1
NMTTP	10	120	6	E	0	M1
NMTTP	10	144	7	E	0	M1
NMTTP	10	168	0	E	0	M1
NMTTP	10	192	1	D	0	M1
NMTTP	10	216	2	D	0	M1
NMTTP	10	240	3	D	0	M1
NMTTP	10	264	4	D	0	M1
NMTTP	10	288	5	D	0	M1
NMTTP	10	312	6	D	0	M1
NMTTP	10	336	7	D	0	M1
NMTTP	10	360	0	D	1	M1
BRHLD	11	0	4	1536
NMTAP	11	96	1
NMTAP	11	144	1
NMTAP	11	240	0
NMTAP	11	288	0
NMTTP	12	0	0	E	0	M1
NMTAP	12	96	2
NMTAP	12	144	2
NMTAP	12	240	1
NMTAP	12	288	1
NMTTP	13	0	0	C	0	M1
NMTAP	13	96	3
NMTAP	13	144	3
NMTAP	13	240	2
NMTAP	13	288	2
NMTTP	14	0	4	E	0	M1
NMTAP	14	96	5
NMTAP	14	144	5
NMTTP	14	240	0	C	1	M1
NMHLD	15	0	3	1440
NMTAP	15	96	6
NMTAP	15	144	6
NMTAP	15	240	7
NMTAP	15	288	7
NMTTP	16	0	0	E	0	M1
NMTAP	16	96	5
NMTAP	16	144	5
NMTAP	16	240	6
NMTAP	16	288	6
NMTTP	17	0	4	E	0	M1
NMTAP	17	96	4
NMTAP	17	144	4
NMTAP	17	240	5
NMTHO	17	336	0	336	C	0	M1
BRTAP	19	0	0
BRTAP	19	0	6
NMTAP	19	96	7
EXTAP	19	144	7
NMTAP	19	192	0
NMTAP	19	240	6
EXTAP	19	288	6
NMTAP	19	336	3
NMTAP	19	360	4
NMTAP	20	0	1
EXTAP	20	48	1
NMTAP	20	96	3
NMTAP	20	144	3
NMTAP	20	192	2
NMTAP	20	240	0
NMTAP	20	288	0
NMTAP	20	336	0
EXHLD	21	0	1	96
EXHLD	21	0	7	96
NMHLD	21	144	3	96
NMTAP	21	288	2
NMTAP	21	288	4
NMHLD	22	0	3	96
EXTAP	22	0	5
EXTAP	22	96	5
NMHLD	22	144	2	96
NMHLD	22	144	4	96
NMTAP	22	288	1
NMTAP	22	288	3
NMHLD	23	0	0	144
NMHLD	23	144	1	144
NMTAP	23	288	2
EXTAP	24	0	2
NMTAP	24	0	3
NMTAP	24	48	4
EXTAP	24	96	3
NMTAP	24	96	5
NMHLD	24	144	6	96
NMTAP	24	240	7
NMTAP	24	288	7
NMTAP	24	336	7
EXHLD	25	0	0	96
NMHLD	25	0	6	96
NMHLD	25	144	4	96
NMTAP	25	288	3
NMTAP	25	288	5
NMHLD	26	0	2	96
EXHLD	26	0	4	96
NMHLD	26	144	3	96
NMHLD	26	144	5	96
NMTAP	26	288	4
NMTAP	26	288	6
NMHLD	27	0	7	144
NMHLD	27	144	5	144
NMTAP	27	288	6
NMHLD	27	336	4	96
EXTAP	28	0	6
NMHLD	28	48	7	48
EXHLD	28	96	3	48
NMHLD	28	144	5	48
NMHLD	28	192	2	96
NMTAP	28	240	3
NMTAP	28	288	3
NMTAP	28	336	3
EXHLD	29	0	1	96
NMHLD	29	0	4	96
NMHLD	29	144	5	96
NMTAP	29	288	3
NMTAP	29	288	6
NMHLD	30	0	4	96
EXHLD	30	0	7	96
NMHLD	30	144	3	96
NMTAP	30	144	5
NMTAP	30	240	5
NMTAP	30	288	2
NMTAP	30	288	4
NMHLD	31	0	0	144
NMHLD	31	144	1	144
NMTAP	31	288	3
EXTAP	31	336	3
NMTAP	32	0	2
NMTAP	32	0	4
NMTAP	32	48	5
EXTAP	32	96	6
NMTAP	32	144	3
NMTAP	32	144	7
BRTAP	32	240	0
NMTAP	32	240	4
NMTAP	32	288	4
NMTAP	32	336	4
NMHLD	33	0	3	96
EXHLD	33	0	6	96
NMHLD	33	144	4	96
NMHLD	33	144	5	96
NMTAP	33	288	1
NMTAP	33	288	3
EXHLD	34	0	0	96
NMHLD	34	0	4	96
NMTAP	34	144	2
NMTAP	34	144	3
NMTAP	34	240	5
NMTAP	34	240	6
NMTAP	34	336	0
NMTAP	34	336	1
EXTAP	35	0	7
NMTAP	35	48	2
NMTAP	35	72	3
NMTAP	35	96	2
EXTAP	35	144	7
NMTAP	35	192	2
NMTAP	35	216	3
NMTAP	35	240	2
NMTAP	35	288	1
EXTAP	35	288	4
NMTAP	35	336	5
EXTAP	36	0	0
NMTAP	36	0	6
NMTAP	36	48	1
NMTAP	36	48	5
NMTAP	36	96	2
EXTAP	36	144	3
EXTAP	36	144	4
NMTAP	36	192	5
NMTAP	36	240	2
NMTAP	36	240	6
BRTAP	36	288	1
BRTAP	36	288	7
NMHLD	37	0	0	384
NMTTP	37	96	7	B	0	M1
NMTTP	37	192	0	C	0	M1
NMTTP	37	288	3	B	0	M1
NMHLD	38	0	6	384
NMTTP	38	96	1	E	0	M1
NMTTP	38	192	0	C	0	M1
NMTTP	38	288	5	E	0	M1
NMHLD	39	0	2	384
NMTTP	39	96	7	D	0	M1
NMTTP	39	192	0	C	0	M1
NMTTP	39	288	3	D	0	M1
NMHLD	40	0	4	384
NMTTP	40	96	0	E	0	M1
NMTTP	40	192	6	E	0	M1
NMTTP	40	288	2	E	0	M1
NMHLD	41	0	3	384
NMTAP	41	96	4
NMTTP	41	192	6	E	0	M1
NMTTP	41	192	6	D	0	M1
NMTAP	41	288	4
NMHLD	42	0	5	384
NMTAP	42	96	4
NMTTP	42	192	3	E	0	M1
NMTTP	42	192	3	D	0	M1
NMTAP	42	288	4
NMHLD	43	0	1	384
NMTAP	43	96	3
NMTTP	43	192	5	E	0	M1
NMTTP	43	192	5	D	0	M1
NMTAP	43	288	3
NMHLD	44	0	7	384
NMTAP	44	96	0
NMTTP	44	192	2	E	0	M1
NMTTP	44	192	2	D	0	M1
NMTAP	44	288	0
NMHLD	45	0	3	96
NMTAP	45	48	5
NMTAP	45	96	5
NMHLD	45	144	2	96
NMTAP	45	192	3
NMTAP	45	240	3
NMTAP	45	288	1
NMHLD	46	0	4	96
NMTAP	46	48	2
NMTAP	46	96	2
NMHLD	46	144	5	96
NMTAP	46	192	4
NMTAP	46	240	4
NMTAP	46	288	6
NMHLD	47	0	4	96
NMTAP	47	48	5
NMTAP	47	96	5
NMHLD	47	144	2	96
NMTAP	47	192	3
NMTAP	47	240	3
NMTAP	47	288	1
NMHLD	48	0	3	96
NMTAP	48	48	2
NMTAP	48	96	2
NMHLD	48	144	5	96
NMTAP	48	192	4
NMTAP	48	240	4
NMTAP	48	288	6
NMTAP	49	0	1
NMTAP	49	0	3
NMTAP	49	48	2
NMTAP	49	96	3
NMTAP	49	96	4
NMTAP	49	144	5
NMTAP	49	192	4
NMTAP	49	192	6
NMTAP	49	240	5
NMTAP	49	288	3
NMTAP	49	288	4
NMTAP	50	0	3
NMTAP	50	0	4
NMTAP	50	48	2
NMTAP	50	96	0
NMTAP	50	96	1
NMTAP	50	144	2
NMTAP	50	192	3
NMTAP	50	192	4
NMTAP	50	240	5
NMTAP	50	288	6
NMTAP	50	288	7
NMTAP	51	0	1
NMTAP	51	0	3
NMTAP	51	48	1
NMTAP	51	96	1
NMTAP	51	96	4
NMTAP	51	144	1
NMTAP	51	192	0
NMTAP	51	192	5
NMTAP	51	240	0
NMTAP	51	288	0
NMTAP	51	288	6
NMTAP	51	336	0
NMTAP	52	0	0
NMTAP	52	0	7
NMTAP	52	48	7
NMTAP	52	96	1
NMTAP	52	96	7
NMTAP	52	144	7
NMTAP	52	192	2
NMTAP	52	192	6
NMTAP	52	240	6
NMTAP	52	288	3
NMTAP	52	288	6
NMTAP	52	336	6
EXHLD	53	0	4	96
NMTAP	53	0	5
NMTAP	53	96	6
NMTAP	53	120	4
NMTAP	53	144	6
NMTAP	53	168	4
NMTAP	53	192	7
NMTAP	53	240	7
NMTAP	53	288	7
NMTAP	53	336	2
EXHLD	53	336	3	96
NMTAP	54	48	1
NMTAP	54	72	3
NMTAP	54	96	1
NMTAP	54	120	3
NMTAP	54	144	1
NMTAP	54	168	3
NMTAP	54	192	0
NMTAP	54	240	0
BRTAP	54	288	2
BRTAP	54	288	6
NMHLD	55	0	1	96
NMHLD	55	48	3	96
NMHLD	55	144	2	96
NMTAP	55	192	4
NMTAP	55	240	6
EXTAP	55	288	0
NMTAP	55	288	1
NMHLD	56	0	2	96
NMHLD	56	48	3	96
NMHLD	56	144	1	96
NMTAP	56	192	2
NMTAP	56	240	4
NMTAP	56	288	6
EXTAP	56	288	7
NMHLD	57	0	1	96
NMHLD	57	48	3	96
NMHLD	57	144	2	96
NMTAP	57	192	4
NMTAP	57	240	6
EXTAP	57	288	0
NMTAP	57	288	1
NMHLD	57	336	0	48
NMHLD	57	336	1	48
NMHLD	58	48	4	48
NMHLD	58	48	5	48
NMHLD	58	144	2	48
NMHLD	58	144	3	48
NMTAP	58	240	6
NMTAP	58	240	7
EXTAP	58	288	0
EXTAP	58	288	5
NMHLD	59	0	6	96
NMHLD	59	48	4	96
NMHLD	59	144	5	96
NMTAP	59	192	3
NMTAP	59	240	1
NMTAP	59	288	6
EXTAP	59	288	7
NMHLD	60	0	5	96
NMHLD	60	48	4	96
NMHLD	60	144	6	96
NMTAP	60	192	5
NMTAP	60	240	3
EXTAP	60	288	0
NMTAP	60	288	1
NMHLD	61	0	6	96
NMHLD	61	48	4	96
NMHLD	61	144	5	96
NMTAP	61	192	3
NMTAP	61	240	1
NMTAP	61	288	6
EXTAP	61	288	7
NMHLD	61	336	6	48
NMHLD	61	336	7	48
NMHLD	62	48	2	48
NMHLD	62	48	3	48
NMHLD	62	144	4	48
NMHLD	62	144	5	48
NMTAP	62	240	0
NMTAP	62	240	1
EXTAP	62	288	2
EXTAP	62	288	7
NMTTP	63	0	1	E	0	M1
EXHLD	63	0	5	48
NMTTP	63	16	0	B	0	M1
NMTTP	63	32	7	B	0	M1
NMTTP	63	48	7	E	0	M1
NMTTP	63	96	3	E	0	M1
EXHLD	63	96	6	48
NMTTP	63	112	3	B	0	M1
NMTTP	63	128	4	B	0	M1
NMTTP	63	144	5	E	0	M1
NMTTP	63	192	2	E	0	M1
EXHLD	63	192	5	48
NMTTP	63	216	0	C	0	M1
NMTTP	63	240	6	E	0	M1
BRTAP	63	288	7
NMTTP	64	0	1	E	0	M1
EXHLD	64	0	5	48
NMTTP	64	16	0	B	0	M1
NMTTP	64	32	7	B	0	M1
NMTTP	64	48	7	E	0	M1
NMTTP	64	96	3	E	0	M1
EXHLD	64	96	6	48
NMTTP	64	112	3	B	0	M1
NMTTP	64	128	4	B	0	M1
NMTTP	64	144	5	E	0	M1
NMTTP	64	192	2	E	0	M1
EXHLD	64	192	5	48
NMTTP	64	216	0	C	0	M1
NMTTP	64	240	6	E	0	M1
BRTAP	64	288	7
NMTTP	65	0	1	E	0	M1
NMHLD	65	0	5	48
NMTTP	65	16	0	B	0	M1
NMTTP	65	32	7	B	0	M1
NMTTP	65	48	7	E	0	M1
NMTTP	65	96	3	E	0	M1
NMHLD	65	96	6	48
NMTTP	65	112	3	B	0	M1
NMTTP	65	128	4	B	0	M1
NMTTP	65	144	5	E	0	M1
NMTTP	65	192	1	E	0	M1
NMHLD	65	192	5	48
NMTTP	65	208	0	B	0	M1
NMTTP	65	224	7	B	0	M1
NMTTP	65	240	7	E	0	M1
NMTTP	65	288	3	E	0	M1
NMHLD	65	288	6	48
NMTTP	65	304	3	B	0	M1
NMTTP	65	320	4	B	0	M1
NMTTP	65	336	5	E	0	M1
NMTTP	66	0	1	E	0	M1
NMHLD	66	0	5	48
NMTTP	66	16	0	B	0	M1
NMTTP	66	32	7	B	0	M1
NMTTP	66	48	7	E	0	M1
NMTTP	66	96	3	E	0	M1
NMHLD	66	96	6	48
NMTTP	66	112	3	B	0	M1
NMTTP	66	128	4	B	0	M1
NMTTP	66	144	5	E	0	M1
NMTTP	66	192	2	E	0	M1
NMHLD	66	192	5	48
NMTTP	66	216	0	C	0	M1
NMTTP	66	240	6	E	0	M1
BRTAP	66	288	0
BRTAP	66	288	7
EXHLD	67	0	2	48
NMTTP	67	0	7	E	0	M1
NMTTP	67	16	7	B	0	M1
NMTTP	67	32	0	B	0	M1
NMTTP	67	48	1	E	0	M1
EXHLD	67	96	1	48
NMTTP	67	96	5	E	0	M1
NMTTP	67	112	4	B	0	M1
NMTTP	67	128	3	B	0	M1
NMTTP	67	144	3	E	0	M1
EXHLD	67	192	2	48
NMTTP	67	192	6	E	0	M1
NMTTP	67	216	0	C	0	M1
NMTTP	67	240	2	E	0	M1
BRTAP	67	288	0
EXHLD	68	0	2	48
NMTTP	68	0	7	E	0	M1
NMTTP	68	16	7	B	0	M1
NMTTP	68	32	0	B	0	M1
NMTTP	68	48	1	E	0	M1
EXHLD	68	96	1	48
NMTTP	68	96	5	E	0	M1
NMTTP	68	112	4	B	0	M1
NMTTP	68	128	3	B	0	M1
NMTTP	68	144	3	E	0	M1
EXHLD	68	192	2	48
NMTTP	68	192	6	E	0	M1
NMTTP	68	216	0	C	0	M1
NMTTP	68	240	2	E	0	M1
BRTAP	68	288	0
NMHLD	69	0	2	48
NMTTP	69	0	7	E	0	M1
NMTTP	69	16	7	B	0	M1
NMTTP	69	32	0	B	0	M1
NMTTP	69	48	1	E	0	M1
NMHLD	69	96	1	48
NMTTP	69	96	5	E	0	M1
NMTTP	69	112	4	B	0	M1
NMTTP	69	128	3	B	0	M1
NMTTP	69	144	3	E	0	M1
NMHLD	69	192	2	48
NMTTP	69	192	7	E	0	M1
NMTTP	69	208	7	B	0	M1
NMTTP	69	224	0	B	0	M1
NMTTP	69	240	1	E	0	M1
NMHLD	69	288	1	48
NMTTP	69	288	5	E	0	M1
NMTTP	69	304	4	B	0	M1
NMTTP	69	320	3	B	0	M1
NMTTP	69	336	3	E	0	M1
NMHLD	70	0	2	48
NMTTP	70	0	7	E	0	M1
NMTTP	70	16	7	B	0	M1
NMTTP	70	32	0	B	0	M1
NMTTP	70	48	1	E	0	M1
NMHLD	70	96	1	48
NMTTP	70	96	5	E	0	M1
NMTTP	70	112	4	B	0	M1
NMTTP	70	128	3	B	0	M1
NMTTP	70	144	3	E	0	M1
NMHLD	70	192	2	48
NMTTP	70	192	6	E	0	M1
NMTTP	70	216	0	C	0	M1
NMTTP	70	240	2	E	0	M1
BRTAP	70	288	0
BRTAP	70	288	7
NMTTP	71	0	4	E	0	M1
NMTAP	72	0	3
NMTAP	72	192	4
NMTAP	72	336	3
NMTAP	73	0	3
NMTAP	73	96	4
NMTAP	73	192	3
NMTAP	74	0	4
NMTAP	74	192	3
NMTAP	74	336	4
NMTAP	75	0	4
NMTAP	75	96	3
NMTAP	75	192	4
NMTAP	75	288	4
NMTAP	75	288	5
NMTAP	76	0	2
NMHLD	76	0	3	672
NMTAP	76	192	4
NMTAP	76	336	2
NMTAP	77	0	2
NMTAP	77	96	4
NMTAP	77	192	1
NMHLD	78	0	4	480
NMTAP	78	0	5
NMTAP	78	192	3
NMTAP	78	336	5
NMTAP	79	0	5
NMTAP	79	96	3
NMHLD	79	192	5	48
NMHLD	79	192	6	48
NMHLD	79	288	1	48
NMHLD	79	288	2	48
BRTAP	80	0	0
NMTAP	80	0	7
NMTAP	80	96	7
NMTAP	80	144	7
NMTTP	80	192	1	E	0	M1
NMTAP	80	240	7
NMTAP	81	0	2
NMTAP	81	0	6
NMTAP	81	96	6
NMTAP	81	144	6
NMTTP	81	192	2	E	0	M1
NMTAP	81	240	6
NMTAP	82	0	4
NMTAP	82	0	5
NMTAP	82	96	5
NMTAP	82	144	5
NMTTP	82	192	3	E	0	M1
NMTAP	82	240	5
NMTAP	83	0	3
NMTAP	83	0	4
NMTAP	83	96	4
NMTAP	83	144	4
NMTTP	83	192	4	E	0	M1
NMTAP	83	240	4
NMTAP	84	0	3
NMTAP	84	0	5
NMTAP	84	96	3
NMTAP	84	144	2
NMTTP	84	192	5	E	0	M1
NMTAP	84	240	2
NMTAP	84	288	3
NMTAP	85	0	2
NMTAP	85	0	4
NMTAP	85	96	2
NMTAP	85	144	1
NMTTP	85	192	6	E	0	M1
NMTAP	85	240	1
NMTAP	85	288	2
NMTAP	86	0	1
NMTAP	86	0	5
NMTAP	86	96	1
NMTAP	86	144	0
NMTTP	86	192	7	E	0	M1
NMTAP	86	240	0
NMTAP	86	288	1
NMTAP	87	0	0
NMTAP	87	0	7
NMTAP	87	96	0
NMTAP	87	144	7
NMTTP	87	192	0	E	0	M1
NMTAP	87	240	7
NMTAP	87	288	0
NMHLD	88	0	1	96
NMHLD	88	0	6	96
NMTAP	88	120	3
NMTAP	88	120	4
EXTAP	89	0	3
EXTAP	89	96	4
BRTAP	89	192	0
BRTAP	89	192	1
BRTAP	89	288	6
BRTAP	89	288	7
BXTAP	90	0	0
NMTTP	90	0	0	C	1	M1
NMTAP	90	12	1
NMTAP	90	24	2
NMTAP	90	36	3
NMTAP	90	48	4
NMTAP	90	60	5
NMTAP	90	72	6
NMTAP	90	84	7
EXTAP	90	96	0
NMTAP	90	108	1
NMTAP	90	120	2
NMTAP	90	132	3
NMTAP	90	144	4
NMTAP	90	156	5
NMTAP	90	168	6
NMTAP	90	180	7
EXTAP	90	192	0
NMTAP	90	204	1
NMTAP	90	216	2
NMTAP	90	228	3
NMTAP	90	240	4
NMTAP	90	252	5
NMTAP	90	264	6
NMTAP	90	276	7
EXTAP	90	288	0
NMTAP	90	300	1
NMTAP	90	312	2
NMTAP	90	324	3
NMTAP	90	336	4
NMTAP	90	348	5
NMTAP	90	360	6
NMTAP	90	372	7
BXTAP	91	0	0
NMTTP	91	0	0	C	1	M1
NMTAP	91	12	1
NMTAP	91	24	2
NMTAP	91	36	3
NMTAP	91	48	4
NMTAP	91	60	5
NMTAP	91	72	6
NMTAP	91	84	7
EXTAP	91	96	0
NMTAP	91	108	1
NMTAP	91	120	2
NMTAP	91	132	3
NMTAP	91	144	4
NMTAP	91	156	5
NMTAP	91	168	6
NMTAP	91	180	7
EXTAP	91	192	0
NMTAP	91	204	1
NMTAP	91	216	2
NMTAP	91	228	3
NMTAP	91	240	4
NMTAP	91	252	5
NMTAP	91	264	6
NMTAP	91	276	7
EXTAP	91	288	0
NMTAP	91	300	1
NMTAP	91	312	2
NMTAP	91	324	3
NMTAP	91	336	4
NMTAP	91	348	5
NMTAP	91	360	6
NMTAP	91	372	7
BXTAP	92	0	0
NMTTP	92	0	0	C	1	M1
NMTAP	92	12	1
NMTAP	92	24	2
NMTAP	92	36	3
NMTAP	92	48	4
NMTAP	92	60	5
NMTAP	92	72	6
NMTAP	92	84	7
EXTAP	92	96	0
NMTAP	92	108	1
NMTAP	92	120	2
NMTAP	92	132	3
NMTAP	92	144	4
NMTAP	92	156	5
NMTAP	92	168	6
NMTAP	92	180	7
EXTAP	92	192	0
NMTAP	92	204	1
NMTAP	92	216	2
NMTAP	92	228	3
NMTAP	92	240	4
NMTAP	92	252	5
NMTAP	92	264	6
NMTAP	92	276	7
EXTAP	92	288	0
NMTAP	92	300	1
NMTAP	92	312	2
NMTAP	92	324	3
NMTAP	92	336	4
NMTAP	92	348	5
NMTAP	92	360	6
NMTAP	92	372	7
BXTAP	93	0	0
NMTTP	93	0	0	C	1	M1
NMTAP	93	12	1
NMTAP	93	24	2
NMTAP	93	36	3
NMTAP	93	48	4
NMTAP	93	60	5
NMTAP	93	72	6
NMTAP	93	84	7
EXTAP	93	96	0
NMTAP	93	108	1
NMTAP	93	120	2
NMTAP	93	132	3
NMTAP	93	144	4
NMTAP	93	156	5
NMTAP	93	168	6
NMTAP	93	180	7
EXTAP	93	192	0
NMTAP	93	204	1
NMTAP	93	216	2
NMTAP	93	228	3
NMTAP	93	240	4
NMTAP	93	252	5
NMTAP	93	264	6
NMTAP	93	276	7
EXTAP	93	288	0
NMTAP	93	300	1
NMTAP	93	312	2
NMTAP	93	324	3
NMTAP	93	336	4
NMTAP	93	348	5
NMTAP	93	360	6
NMTAP	93	372	7
BRTAP	94	0	0
NMTTP	94	0	0	C	1	M1
NMTAP	94	96	1
NMTAP	94	96	7
NMTAP	94	192	4
NMTAP	94	192	5
NMTAP	94	240	4
NMTAP	94	240	5
NMTAP	94	288	2
NMTAP	94	288	6
NMTAP	95	0	7
NMTAP	95	48	7
NMTAP	95	96	0
NMTAP	95	96	6
NMTAP	95	144	1
NMTAP	95	192	2
NMTAP	95	192	3
NMTAP	95	240	2
NMTAP	95	240	3
NMTAP	95	288	1
NMTAP	95	288	5
NMTAP	96	0	6
NMTAP	96	0	7
NMTAP	96	48	5
NMTAP	96	96	3
NMTAP	96	144	2
NMTAP	96	144	4
NMTAP	96	192	1
NMTAP	96	240	7
NMTAP	96	288	2
NMTAP	96	288	6
NMTAP	97	0	1
NMTAP	97	0	5
NMTAP	97	48	0
NMTAP	97	96	6
NMTAP	97	144	3
NMTAP	97	144	5
NMTAP	97	192	4
NMTAP	97	240	2
NMTAP	97	288	0
NMTAP	97	288	1
NMTAP	98	0	4
NMTAP	98	0	7
NMHLD	98	48	4	96
NMHLD	98	48	7	48
NMTTP	98	104	7	D	0	M1
NMTTP	98	112	6	A	0	M1
NMTTP	98	120	6	D	1	M1
NMTTP	98	128	5	A	0	M1
NMTTP	98	136	5	D	0	M1
NMTAP	98	192	0
NMTAP	98	192	3
NMHLD	98	240	0	48
NMHLD	98	240	3	96
NMTTP	98	296	1	D	0	M1
NMTTP	98	304	1	A	0	M1
NMTTP	98	312	2	D	1	M1
NMTTP	98	320	2	A	0	M1
NMTTP	98	328	3	D	0	M1
NMTAP	99	0	4
NMTAP	99	0	7
NMHLD	99	48	4	96
NMHLD	99	48	7	48
NMTTP	99	104	7	D	0	M1
NMTTP	99	112	6	A	0	M1
NMTTP	99	120	6	D	1	M1
NMTTP	99	128	5	A	0	M1
NMTTP	99	136	5	D	0	M1
NMTAP	99	192	0
NMTAP	99	192	3
NMHLD	99	240	0	48
NMHLD	99	240	3	96
NMTTP	99	296	1	D	0	M1
NMTTP	99	304	1	A	0	M1
NMTTP	99	312	2	D	1	M1
NMTTP	99	320	2	A	0	M1
NMTTP	99	328	3	D	0	M1
NMTAP	100	0	4
NMTAP	100	0	6
NMTAP	100	48	5
NMTAP	100	96	3
NMTAP	100	144	2
NMTAP	100	144	4
NMTAP	100	192	1
NMTAP	100	240	4
NMTAP	100	288	6
NMTAP	100	288	7
NMTAP	100	336	0
NMTAP	101	0	1
NMTAP	101	0	3
NMTAP	101	48	2
NMTAP	101	96	4
NMTAP	101	144	3
NMTAP	101	144	5
NMTAP	101	192	6
NMTAP	101	240	3
NMTAP	101	288	0
NMTAP	101	288	1
NMTAP	101	336	7
NMTAP	102	0	4
NMTAP	102	0	6
NMTAP	102	48	5
NMTAP	102	96	0
NMTAP	102	144	1
NMTAP	102	144	7
NMTAP	102	192	2
NMTAP	102	240	4
NMTAP	102	288	6
NMTAP	102	288	7
NMTAP	102	336	0
NMTAP	103	0	1
NMTAP	103	0	3
NMTAP	103	48	2
NMTAP	103	96	7
NMTAP	103	144	0
NMTAP	103	144	6
NMTAP	103	192	5
NMTAP	103	240	3
NMTAP	103	288	0
NMTAP	103	288	1
BRHLD	104	0	2	48
BRHLD	104	0	6	48
NMTAP	104	96	1
NMTAP	104	120	7
NMTAP	104	144	1
NMTAP	104	168	7
NMTAP	104	192	2
NMTAP	104	216	6
NMTAP	104	240	2
NMTAP	104	264	6
NMTAP	104	288	3
NMTAP	104	312	5
NMTAP	104	336	3
NMTAP	104	360	5
NMTAP	105	0	2
NMTAP	105	24	4
NMTAP	105	48	1
NMTAP	105	72	3
NMTAP	105	96	0
NMTAP	105	120	7
NMTAP	105	144	0
NMTAP	105	168	7
NMTAP	105	192	4
NMTAP	105	216	6
NMTAP	105	240	3
NMTAP	105	264	5
NMTAP	105	288	2
NMTAP	105	312	4
NMTAP	105	336	1
NMTAP	105	360	3
EXTAP	106	0	0
NMTAP	106	24	5
NMTAP	106	48	4
NMTAP	106	72	5
EXTAP	106	96	0
NMTAP	106	120	5
NMTAP	106	144	4
NMTAP	106	168	5
EXTAP	106	192	0
NMTAP	106	216	5
NMTAP	106	240	4
NMTAP	106	264	5
EXTAP	106	288	0
NMTAP	106	312	5
NMTAP	106	336	4
NMTAP	106	360	5
NMTAP	107	0	2
NMTAP	107	24	3
NMTAP	107	48	2
NMTAP	107	72	3
EXTAP	107	96	0
EXTAP	107	120	0
NMTAP	107	144	7
NMTAP	107	192	3
NMTAP	107	192	4
NMTAP	107	240	3
NMTAP	107	240	4
BRTAP	107	288	1
BRTAP	107	288	6
NMHLD	108	0	0	96
NMTAP	108	0	7
NMTAP	108	96	3
NMTAP	108	144	2
NMTAP	108	144	3
NMTAP	108	240	5
NMTAP	108	288	4
NMTAP	108	288	6
NMTAP	109	0	0
NMHLD	109	0	1	96
NMTAP	109	96	4
NMTAP	109	144	3
NMTAP	109	144	4
NMTAP	109	240	6
NMTAP	109	288	5
NMTAP	109	288	7
NMTAP	110	0	3
NMHLD	110	0	4	96
NMTAP	110	96	7
NMTAP	110	144	6
NMTAP	110	144	7
NMTAP	110	240	1
NMTAP	110	288	0
NMTAP	110	288	2
NMTAP	111	0	4
NMHLD	111	0	5	96
NMTAP	111	96	0
NMTAP	111	144	0
NMTAP	111	144	7
NMTAP	111	240	2
NMTAP	111	288	1
NMTAP	111	288	3
NMHLD	112	0	6	96
NMTAP	112	0	7
NMTAP	112	96	3
NMTAP	112	144	2
NMTAP	112	144	4
NMTAP	112	240	4
NMTAP	112	240	5
NMTAP	112	288	3
NMTAP	112	288	6
NMTAP	113	0	0
NMHLD	113	0	1	96
NMTAP	113	96	4
NMTAP	113	144	3
NMTAP	113	144	5
NMTAP	113	240	2
NMTAP	113	240	3
NMTAP	113	288	1
NMTAP	113	288	4
NMTAP	114	0	3
NMHLD	114	0	6	48
NMTAP	114	48	2
NMTAP	114	96	1
NMHLD	114	96	4	48
NMTAP	114	144	0
NMHLD	114	192	1	48
NMTAP	114	192	7
NMTAP	114	240	6
NMHLD	114	288	3	48
NMTAP	114	288	5
NMTAP	114	336	4
NMTAP	115	0	2
NMTAP	115	0	3
NMTAP	115	48	1
NMTAP	115	96	0
NMTAP	115	96	7
NMTAP	115	144	6
NMTAP	115	192	4
NMTAP	115	192	5
NMTAP	115	240	3
NMTAP	115	288	2
NMTAP	115	288	5
NMTAP	115	336	1
NMTAP	115	336	6
EXHLD	116	0	0	16
EXHLD	116	0	7	16
EXHLD	116	32	0	16
EXHLD	116	32	7	16
EXHLD	116	64	0	16
EXHLD	116	64	7	16
NMTAP	116	96	1
NMTAP	116	96	6
NMTAP	116	144	1
NMTAP	116	144	6
NMTTP	116	240	1	D	0	M1
NMTTP	116	240	4	E	1	M1
NMTTP	116	252	1	A	0	M1
NMTTP	116	264	2	D	0	M1
NMTTP	116	276	2	A	0	M1
NMTTP	116	288	3	D	0	M1
NMTTP	116	336	0	C	1	M1
NMTTP	116	336	7	D	0	M1
NMTTP	116	348	6	A	0	M1
NMTTP	116	360	6	D	0	M1
NMTTP	116	372	5	A	0	M1
NMTTP	117	0	5	D	0	M1
NMSTR	118	0	1
NMSI_	118	0	1	96	48	5

T_REC_TAP	604
T_REC_BRK	23
T_REC_XTP	46
T_REC_BXX	4
T_REC_HLD	129
T_REC_XHO	29
T_REC_BHO	3
T_REC_BXH	0
T_REC_STR	1
T_REC_BST	0
T_REC_XST	0
T_REC_XBS	0
T_REC_TTP	186
T_REC_THO	1
T_REC_SLD	1
T_REC_BSL	0
T_REC_ALL	1027
T_NUM_TAP	837
T_NUM_BRK	30
T_NUM_HLD	159
T_NUM_SLD	1
T_NUM_ALL	1027
T_JUDGE_TAP	864
T_JUDGE_HLD	400
T_JUDGE_SLD	1
T_JUDGE_ALL	1265
TTM_EACHPAIRS	160
TTM_SCR_TAP	418500
TTM_SCR_BRK	78000
TTM_SCR_HLD	159000
TTM_SCR_SLD	1500
TTM_SCR_ALL	657000
TTM_SCR_S	634400
TTM_SCR_SS	654000
TTM_RAT_ACV	10045

