VERSION	0.00.00	1.04.00
FES_MODE	0
BPM_DEF	190.000	190.000	216.000	110.400
MET_DEF	4	4
RESOLUTION	384
CLK_DEF	384
COMPATIBLE_CODE	MA2

BPM	0	0	190.000
BPM	1	0	145.000
BPM	1	24	190.000
BPM	53	0	138.000
BPM	53	24	190.000
BPM	71	72	110.400
BPM	71	96	190.000
BPM	84	0	202.000
BPM	84	24	190.000
BPM	102	0	216.000
BPM	102	24	190.000
BPM	106	0	161.000
BPM	106	24	190.000
BPM	108	0	139.600
BPM	108	24	190.000
MET	0	0	4	4

NMHLD	3	0	2	288
NMHLD	3	0	4	288
NMHLD	4	0	2	288
NMHLD	4	0	4	288
NMHLD	5	0	3	288
NMHLD	5	0	5	288
NMHLD	6	0	3	288
NMHLD	6	0	5	288
NMHLD	7	0	2	288
NMHLD	7	0	3	288
NMHLD	8	0	2	288
NMHLD	8	0	3	288
NMHLD	9	0	4	288
NMHLD	9	0	5	288
NMHLD	10	0	4	192
NMHLD	10	0	5	192
NMTAP	10	288	3
NMTAP	10	288	4
NMHLD	11	0	2	96
NMTAP	11	96	3
NMTAP	11	240	2
NMTAP	11	288	2
NMTAP	11	288	3
NMHLD	12	0	5	96
NMTAP	12	96	4
NMTAP	12	240	5
NMTAP	12	288	4
NMTAP	12	288	5
NMHLD	13	0	1	96
NMTAP	13	96	3
NMTAP	13	240	1
NMTAP	13	288	1
NMTAP	13	288	3
NMHLD	14	0	6	96
NMTAP	14	96	4
NMTAP	14	240	6
NMTAP	14	288	4
NMTAP	14	288	6
NMHLD	15	0	1	96
NMTAP	15	96	0
NMTAP	15	240	1
NMTAP	15	288	0
NMTAP	15	288	1
NMHLD	16	0	6	96
NMTAP	16	96	7
NMTAP	16	240	6
NMTAP	16	288	6
NMTAP	16	288	7
NMHLD	17	0	1	96
NMTAP	17	96	3
EXTAP	17	240	2
EXTAP	17	288	1
EXTAP	17	288	3
NMHLD	18	0	6	96
NMTAP	18	96	4
EXTAP	18	240	5
EXTAP	18	288	4
EXTAP	18	288	6
NMHLD	19	0	2	96
NMTAP	19	96	3
NMTAP	19	192	2
NMTAP	19	192	3
NMTAP	19	288	1
NMTAP	19	288	3
NMTAP	20	0	3
NMTAP	20	0	4
NMTAP	20	96	4
NMTAP	20	96	6
BRTAP	20	192	0
BRTAP	20	192	7
NMHLD	21	0	1	144
NMHLD	21	144	2	144
NMTAP	21	288	3
NMHLD	22	0	4	144
NMHLD	22	144	5	144
NMTAP	22	288	6
NMTAP	23	0	4
NMSTR	23	0	6
NMSI_	23	0	6	96	48	4
EXSTR	23	144	2
NMSI_	23	144	2	96	48	4
NMTAP	23	288	5
NMTAP	24	0	3
NMSTR	24	0	6
NMSXR	24	0	6	96	288	7
NMHLD	25	0	0	144
NMHLD	25	144	1	144
NMTAP	25	288	2
NMHLD	26	0	3	144
NMHLD	26	144	4	144
NMTAP	26	288	5
NMTAP	27	0	3
NMSTR	27	0	5
NMSI_	27	0	5	96	48	7
EXSTR	27	144	0
NMSI_	27	144	0	96	48	2
NMTAP	27	288	3
NMSTR	28	0	1
NMSXL	28	0	1	96	288	4
NMTAP	28	0	4
NMHLD	29	0	6	144
NMHLD	29	144	5	144
NMTAP	29	288	4
NMHLD	30	0	3	144
NMHLD	30	144	2	144
NMTAP	30	288	1
NMSTR	31	0	1
NMSI_	31	0	1	96	48	3
NMTAP	31	0	3
EXSTR	31	144	5
NMSI_	31	144	5	96	48	3
NMTAP	31	288	2
NMSTR	32	0	1
NMSXL	32	0	1	96	288	0
NMTAP	32	0	4
NMHLD	33	0	7	144
NMHLD	33	144	6	144
NMTAP	33	288	5
NMHLD	34	0	4	144
NMHLD	34	144	3	144
NMTAP	34	288	2
NMTAP	35	0	2
NMTAP	35	0	4
EXTAP	35	144	5
EXTAP	35	144	7
NMTAP	35	288	0
NMTAP	35	288	2
NMSTR	36	0	1
NMSI_	36	0	1	96	48	5
NMTAP	36	96	7
EXSTR	36	144	7
NMSI_	36	144	7	96	48	3
BRTAP	36	240	0
NMHLD	37	0	2	192
NMTAP	37	96	3
NMTAP	37	288	2
NMTAP	37	288	4
NMHLD	38	0	1	192
NMTAP	38	96	3
NMTAP	38	288	2
NMTAP	38	288	4
NMHLD	39	0	5	192
NMTAP	39	96	4
NMTAP	39	288	4
NMTAP	39	288	6
NMTAP	40	0	7
NMSTR	40	96	0
NMSCR	40	96	0	96	96	3
NMSTR	40	96	6
NMSCL	40	96	6	96	96	3
NMHLD	41	0	1	192
NMTAP	41	96	3
NMTAP	41	192	3
NMTAP	41	288	2
NMTAP	41	288	4
NMHLD	42	0	6	192
NMTAP	42	96	4
NMTAP	42	192	4
NMTAP	42	288	3
NMTAP	42	288	5
NMHLD	43	0	1	384
NMTAP	43	96	2
NMTAP	43	192	2
NMTAP	43	288	4
NMSTR	44	0	3
NMSXR	44	0	3	96	192	4
NMHLD	45	0	5	144
NMTAP	45	96	4
NMTAP	45	144	4
NMTAP	45	240	3
NMTAP	45	240	5
NMHLD	46	0	2	144
NMTAP	46	96	3
NMTAP	46	144	3
NMTAP	46	240	2
NMTAP	46	240	4
NMHLD	47	0	6	144
NMTAP	47	96	7
NMTAP	47	144	7
NMTAP	47	240	0
NMTAP	47	240	5
NMHLD	48	0	1	144
NMTAP	48	96	0
NMTAP	48	144	0
BRTAP	48	240	2
BRTAP	48	240	7
NMHLD	49	0	1	144
NMTAP	49	96	3
NMTAP	49	144	3
NMTAP	49	240	0
NMTAP	49	240	4
NMHLD	50	0	6	144
NMTAP	50	96	4
NMTAP	50	144	4
NMTAP	50	240	3
NMTAP	50	240	7
NMHLD	51	0	2	144
NMTAP	51	96	4
NMTAP	51	144	4
NMTAP	51	240	1
NMTAP	51	240	5
NMSTR	51	336	2
NMSXR	51	336	2	96	240	3
NMSTR	51	336	4
NMSXL	51	336	4	96	240	3
NMHLD	53	0	2	192
NMTAP	53	96	3
NMTAP	53	144	3
NMTAP	53	192	4
NMTAP	53	288	5
NMHLD	53	336	5	144
NMTAP	54	48	4
NMTAP	54	96	4
NMTAP	54	192	3
NMTAP	54	192	4
NMTAP	54	288	2
NMTAP	54	288	3
NMSTR	55	0	2
NMSI_	55	0	2	96	48	0
NMTAP	55	0	3
NMSTR	55	192	2
BRSI_	55	192	2	96	48	0
NMTAP	55	192	3
NMTAP	56	0	4
NMSTR	56	0	5
NMSI_	56	0	5	96	48	7
NMTAP	56	192	4
NMSTR	56	192	5
BRSI_	56	192	5	96	48	7
NMSTR	57	0	2
NMSI_	57	0	2	96	48	0
NMTAP	57	0	3
NMSTR	57	192	2
BRSI_	57	192	2	96	48	7
NMTAP	57	192	3
NMTAP	58	0	4
NMTAP	58	0	5
NMTAP	58	96	2
NMTAP	58	96	3
NMTAP	58	192	0
NMTAP	58	192	1
NMTAP	58	288	2
NMTAP	58	288	7
NMTAP	59	0	4
NMSTR	59	0	5
NMSI_	59	0	5	96	48	7
NMTAP	59	192	4
NMSTR	59	192	5
BRSI_	59	192	5	96	48	7
NMSTR	60	0	2
NMSI_	60	0	2	96	48	0
NMTAP	60	0	3
NMSTR	60	192	2
BRSI_	60	192	2	96	48	0
NMTAP	60	192	3
NMTAP	61	0	4
NMSTR	61	0	5
NMSI_	61	0	5	96	48	7
NMTAP	61	192	4
NMSTR	61	192	5
BRSI_	61	192	5	96	48	0
NMTAP	62	0	1
NMTAP	62	0	3
NMTAP	62	96	3
NMTAP	62	96	4
NMTAP	62	192	4
NMTAP	62	192	6
NMTAP	62	288	0
NMTAP	62	288	7
NMHLD	63	0	2	48
NMHLD	63	0	3	48
NMHLD	63	96	2	48
NMHLD	63	96	3	48
NMHLD	63	192	2	48
NMHLD	63	192	3	48
BRTAP	63	288	0
BRTAP	63	288	7
NMHLD	64	0	4	48
NMHLD	64	0	5	48
NMHLD	64	96	4	48
NMHLD	64	96	5	48
NMHLD	64	192	4	48
NMHLD	64	192	5	48
BRTAP	64	288	0
BRTAP	64	288	7
NMHLD	65	0	2	48
NMHLD	65	0	3	48
NMHLD	65	96	2	48
NMHLD	65	96	3	48
NMHLD	65	192	0	48
NMHLD	65	192	1	48
NMHLD	65	288	0	48
NMHLD	65	288	1	48
NMHLD	66	0	6	48
NMHLD	66	0	7	48
NMHLD	66	96	4	48
NMHLD	66	96	5	48
NMHLD	66	192	2	48
NMHLD	66	192	3	48
BRTAP	66	288	1
BRTAP	66	288	6
NMHLD	67	0	4	48
NMHLD	67	0	5	48
NMHLD	67	96	4	48
NMHLD	67	96	5	48
NMHLD	67	192	4	48
NMHLD	67	192	5	48
BRTAP	67	288	0
BRTAP	67	288	1
NMHLD	68	0	2	48
NMHLD	68	0	3	48
NMHLD	68	96	2	48
NMHLD	68	96	3	48
NMHLD	68	192	2	48
NMHLD	68	192	3	48
BRTAP	68	288	6
BRTAP	68	288	7
NMHLD	69	0	4	48
NMHLD	69	0	5	48
NMHLD	69	96	3	48
NMHLD	69	96	6	48
NMHLD	69	192	0	48
NMHLD	69	192	1	48
NMHLD	69	288	2	48
NMHLD	69	288	7	48
NMHLD	70	0	5	48
NMHLD	70	0	6	48
NMHLD	70	96	3	48
NMHLD	70	96	4	48
NMHLD	70	192	1	48
NMHLD	70	192	2	48
BRTAP	70	288	0
BRTAP	70	288	7
NMTTP	71	0	0	C	0	M1
NMHLD	72	0	2	192
NMTAP	72	192	3
NMTAP	72	336	2
NMTAP	73	0	2
NMTAP	73	96	1
NMTAP	73	192	1
NMTAP	73	192	3
NMHLD	74	0	5	192
NMTAP	74	192	4
NMTAP	74	336	5
NMTAP	75	0	5
NMTAP	75	96	6
NMTAP	75	192	4
NMTAP	75	192	6
NMHLD	76	0	1	192
NMTAP	76	0	3
NMTAP	76	192	2
NMTAP	76	336	1
NMTAP	77	0	1
NMTAP	77	96	0
NMTAP	77	192	6
NMTAP	77	192	7
NMTAP	78	0	4
NMHLD	78	0	6	192
NMTAP	78	192	3
NMTAP	78	336	2
NMTAP	79	0	2
NMHLD	79	96	1	288
NMTAP	79	96	3
NMTTP	79	192	4	E	0	M1
NMTTP	79	288	5	E	0	M1
NMTAP	80	0	6
NMTAP	80	192	3
NMTAP	80	192	5
NMTAP	81	0	1
NMTAP	81	192	2
NMTAP	81	192	4
NMTAP	82	0	5
NMTAP	82	192	4
NMTAP	82	192	6
NMTAP	83	0	2
NMTAP	83	192	1
NMTAP	83	192	3
NMTAP	84	0	5
NMTAP	84	96	5
NMTAP	84	192	1
NMTAP	84	192	7
NMTAP	84	288	1
NMTAP	84	288	7
NMTAP	85	0	2
NMTAP	85	96	2
NMTAP	85	192	0
NMTAP	85	192	6
NMTAP	85	288	0
NMTAP	85	288	6
NMTAP	86	0	1
NMTAP	86	48	1
NMTAP	86	96	3
NMTAP	86	144	3
NMTAP	86	192	4
NMTAP	86	240	4
NMTAP	86	288	6
NMTAP	86	336	6
NMTAP	87	0	0
NMTAP	87	48	0
NMTAP	87	96	2
NMTAP	87	144	2
NMTAP	87	192	4
NMTAP	87	240	4
NMTAP	87	288	6
NMTAP	87	336	6
NMTHO	88	0	0	144	C	0	M1
BRTAP	89	0	1
BRTAP	89	0	6
BRTAP	89	96	1
BRTAP	89	96	6
NMTAP	89	192	0
NMTAP	89	192	7
NMTAP	89	288	0
NMTAP	89	288	1
NMSTR	90	0	2
NMSI_	90	0	2	96	48	7
NMSTR	90	96	6
NMSI_	90	96	6	96	48	3
NMSTR	90	192	2
NMSI_	90	192	2	96	48	7
NMSTR	90	288	6
NMSI_	90	288	6	96	48	3
NMSTR	91	0	2
NMSI_	91	0	2	96	48	7
NMSTR	91	96	6
NMSI_	91	96	6	96	48	3
NMSTR	91	192	2
NMSI_	91	192	2	96	48	7
NMSTR	91	288	6
NMSI_	91	288	6	96	48	3
NMSTR	92	0	2
NMSI_	92	0	2	96	48	7
NMSTR	92	96	6
NMSI_	92	96	6	96	48	3
NMSTR	92	192	2
NMSI_	92	192	2	96	48	7
NMSTR	92	288	6
NMSI_	92	288	6	96	48	3
NMSTR	93	0	2
NMSI_	93	0	2	96	48	7
NMTAP	93	96	6
NMTAP	93	192	0
NMTAP	93	240	0
NMTAP	93	288	7
NMTAP	94	0	1
NMSTR	94	0	5
NMSI_	94	0	5	96	48	0
NMSTR	94	96	1
NMSI_	94	96	1	96	48	4
NMSTR	94	192	5
NMSI_	94	192	5	96	48	0
NMSTR	94	288	1
NMSI_	94	288	1	96	48	4
NMSTR	95	0	5
NMSI_	95	0	5	96	48	0
NMSTR	95	96	1
NMSI_	95	96	1	96	48	4
NMSTR	95	192	5
NMSI_	95	192	5	96	48	0
NMSTR	95	288	1
NMSI_	95	288	1	96	48	4
NMSTR	96	0	5
NMSI_	96	0	5	96	48	0
NMSTR	96	96	1
NMSI_	96	96	1	96	48	4
NMSTR	96	192	5
NMSI_	96	192	5	96	48	0
NMSTR	96	288	1
NMSI_	96	288	1	96	48	4
NMSTR	97	0	5
NMSI_	97	0	5	96	48	0
NMHLD	97	96	2	96
NMTAP	97	192	6
NMTAP	97	288	0
NMTAP	97	288	7
NMHLD	98	0	4	96
NMHLD	98	0	6	96
NMHLD	98	192	1	96
NMHLD	98	192	3	96
NMTAP	99	0	6
NMTAP	99	0	7
NMHLD	99	48	6	48
NMHLD	99	48	7	48
NMTAP	99	192	0
NMTAP	99	192	1
NMHLD	99	240	0	48
NMHLD	99	240	1	48
NMTAP	100	0	3
NMSTR	100	0	6
NMSI_	100	0	6	96	48	3
NMSTR	100	96	4
NMSI_	100	96	4	96	48	1
NMSTR	100	192	0
NMSI_	100	192	0	96	48	5
NMSTR	100	288	2
NMSI_	100	288	2	96	48	7
NMSTR	101	0	6
NMSI_	101	0	6	96	48	3
NMSTR	101	96	4
NMSI_	101	96	4	96	48	1
NMSTR	101	192	0
NMSI_	101	192	0	96	48	5
NMSTR	101	288	2
NMSI_	101	288	2	96	48	7
NMSTR	102	0	6
NMSI_	102	0	6	96	48	3
NMSTR	102	96	4
NMSI_	102	96	4	96	48	1
NMSTR	102	192	0
NMSI_	102	192	0	96	48	5
NMSTR	102	288	2
NMSI_	102	288	2	96	48	7
NMSTR	103	0	6
NMSI_	103	0	6	96	48	3
NMSTR	103	96	4
NMSI_	103	96	4	96	48	1
NMHLD	103	192	7	96
NMTAP	103	288	0
BRTAP	104	0	3
BRTAP	104	0	5
NMTAP	104	96	4
NMTAP	104	144	4
NMTAP	104	192	2
NMTAP	104	240	2
NMTAP	104	288	3
NMTAP	105	0	1
NMTAP	105	48	1
NMTAP	105	96	2
NMTAP	105	144	2
NMSTR	105	192	0
NMSI_	105	192	0	96	48	3
BRTAP	106	0	2
BRTAP	106	0	4
NMTAP	106	96	3
NMTAP	106	144	3
NMTAP	106	192	5
NMTAP	106	240	5
NMTAP	106	288	4
NMTAP	107	0	6
NMTAP	107	48	6
NMTAP	107	96	5
NMTAP	107	144	5
NMSTR	107	192	7
NMSI_	107	192	7	96	48	3
NMTAP	108	0	2
NMTAP	108	96	1
NMTAP	108	96	3
NMTAP	108	144	1
NMTAP	108	144	3
NMTAP	108	240	0
NMTAP	108	240	6
NMTAP	108	288	0
NMTAP	108	288	6
NMTAP	109	0	5
NMTAP	109	96	4
NMTAP	109	96	6
NMTAP	109	144	4
NMTAP	109	144	6
NMTAP	109	240	1
NMTAP	109	240	7
NMTAP	109	288	1
NMTAP	109	288	7
NMTAP	110	0	3
NMTAP	110	96	2
NMTAP	110	96	4
NMTAP	110	144	2
NMTAP	110	144	4
NMTAP	110	240	0
NMTAP	110	240	6
NMTAP	110	288	0
NMTAP	110	288	6
NMSTR	111	0	1
NMSCR	111	0	1	96	72	3
NMSTR	111	0	5
NMSCR	111	0	5	96	72	7
CNSI_	111	168	3	0	120	0
CNSI_	111	168	7	0	120	4
NMTAP	112	0	0
NMTAP	112	96	1
NMTAP	112	96	3
NMTAP	112	144	1
NMTAP	112	144	3
NMTAP	112	240	3
NMTAP	112	240	5
NMTAP	112	288	3
NMTAP	112	288	5
NMTAP	113	0	7
NMTAP	113	96	4
NMTAP	113	96	6
NMTAP	113	144	4
NMTAP	113	144	6
NMTAP	113	240	2
NMTAP	113	240	4
NMTAP	113	288	2
NMTAP	113	288	4
NMTAP	114	0	0
NMTAP	114	0	1
NMTAP	114	96	2
NMTAP	114	96	4
NMTAP	114	144	2
NMTAP	114	144	4
NMTAP	114	240	3
NMTAP	114	240	5
NMTAP	114	336	4
NMTAP	114	336	5
NMTAP	115	0	3
NMTAP	115	48	2
NMTAP	115	96	1
NMTAP	115	144	0
NMTAP	115	192	7
NMTAP	115	240	6
NMTAP	115	288	5
NMTAP	115	336	4
BRSTR	116	0	3
NMSCL	116	0	3	96	576	3
NMSCR	116	0	3	96	576	3

T_REC_TAP	307
T_REC_BRK	25
T_REC_XTP	8
T_REC_BXX	0
T_REC_HLD	123
T_REC_XHO	0
T_REC_BHO	0
T_REC_BXH	0
T_REC_STR	68
T_REC_BST	1
T_REC_XST	4
T_REC_XBS	0
T_REC_TTP	3
T_REC_THO	1
T_REC_SLD	68
T_REC_BSL	6
T_REC_ALL	614
T_NUM_TAP	390
T_NUM_BRK	32
T_NUM_HLD	124
T_NUM_SLD	68
T_NUM_ALL	614
T_JUDGE_TAP	416
T_JUDGE_HLD	307
T_JUDGE_SLD	74
T_JUDGE_ALL	797
TTM_EACHPAIRS	154
TTM_SCR_TAP	195000
TTM_SCR_BRK	83200
TTM_SCR_HLD	124000
TTM_SCR_SLD	102000
TTM_SCR_ALL	504200
TTM_SCR_S	486000
TTM_SCR_SS	501000
TTM_RAT_ACV	10063

