VERSION	0.00.00	1.04.00
FES_MODE	0
BPM_DEF	190.000	190.000	216.000	110.400
MET_DEF	4	4
RESOLUTION	384
CLK_DEF	384
COMPATIBLE_CODE	MA2

BPM	0	0	190.000
BPM	1	0	145.000
BPM	1	24	190.000
BPM	53	0	138.000
BPM	53	24	190.000
BPM	71	72	110.400
BPM	71	96	190.000
BPM	84	0	202.000
BPM	84	24	190.000
BPM	102	0	216.000
BPM	102	24	190.000
BPM	106	0	161.000
BPM	106	24	190.000
BPM	108	0	139.600
BPM	108	24	190.000
MET	0	0	4	4

NMTAP	3	0	0
NMTAP	3	0	1
NMTAP	4	0	0
NMTAP	4	0	1
NMTAP	5	0	2
NMTAP	5	0	3
NMTAP	6	0	2
NMTAP	6	0	3
NMTAP	7	0	4
NMTAP	7	0	5
NMTAP	8	0	4
NMTAP	8	0	5
NMTAP	9	0	6
NMTAP	9	0	7
NMTAP	10	0	6
NMTAP	10	0	7
NMTAP	11	0	6
NMTAP	11	192	6
NMTAP	12	0	5
NMTAP	12	192	5
NMTAP	13	0	4
NMTAP	13	192	4
NMTAP	14	0	2
NMTAP	14	0	3
NMTAP	15	0	1
NMTAP	15	192	1
NMTAP	16	0	2
NMTAP	16	192	2
NMTAP	17	0	3
NMTAP	17	192	3
NMTAP	18	0	4
NMTAP	18	0	5
NMSTR	19	0	6
NMSUL	19	0	6	96	480	3
NMHLD	21	0	2	192
NMHLD	21	192	3	192
NMHLD	22	0	4	192
NMTAP	22	192	5
NMHLD	23	0	5	192
NMHLD	23	192	4	192
NMHLD	24	0	3	192
NMTAP	24	192	2
NMHLD	25	0	1	192
NMHLD	25	192	2	192
NMHLD	26	0	3	192
NMTAP	26	192	4
NMHLD	27	0	6	192
NMHLD	27	192	5	192
NMHLD	28	0	4	192
NMTAP	28	192	3
NMHLD	29	0	1	192
NMTAP	29	192	0
NMHLD	30	0	6	192
NMTAP	30	192	7
NMHLD	31	0	1	192
NMTAP	31	192	0
NMHLD	32	0	6	192
NMTAP	32	192	7
NMHLD	33	0	5	192
NMTAP	33	192	4
NMHLD	34	0	2	192
NMTAP	34	192	3
NMHLD	35	0	5	192
NMTAP	35	192	4
NMHLD	36	0	2	192
NMTAP	36	192	3
NMTAP	37	0	2
NMTAP	37	96	2
NMTAP	37	192	2
NMTAP	38	0	1
NMTAP	38	96	1
NMTAP	38	192	1
NMTAP	39	0	0
NMTAP	39	96	0
NMTAP	39	192	0
NMTAP	40	0	6
NMTAP	40	0	7
NMTAP	40	96	6
NMTAP	40	96	7
NMTAP	40	192	6
NMTAP	40	192	7
NMTAP	41	0	5
NMTAP	41	96	5
NMTAP	41	192	5
NMTAP	42	0	6
NMTAP	42	96	6
NMTAP	42	192	6
NMTAP	43	0	7
NMTAP	43	96	7
NMTAP	43	192	7
NMTAP	44	0	0
NMTAP	44	0	1
NMTAP	44	96	0
NMTAP	44	96	1
NMTAP	44	192	0
NMTAP	44	192	1
NMTAP	45	0	2
NMTAP	45	96	2
NMTAP	45	192	2
NMTAP	45	192	3
NMTAP	46	0	1
NMTAP	46	96	1
NMTAP	46	192	0
NMTAP	46	192	1
NMTAP	47	0	7
NMTAP	47	96	7
NMTAP	47	192	6
NMTAP	47	192	7
NMTAP	48	0	4
NMTAP	48	0	5
NMTAP	48	96	4
NMTAP	48	96	5
NMTAP	48	192	4
NMTAP	48	192	5
NMTAP	49	0	5
NMTAP	49	96	5
NMTAP	49	192	4
NMTAP	49	192	5
NMTAP	50	0	6
NMTAP	50	96	6
NMTAP	50	192	6
NMTAP	50	192	7
NMTAP	51	0	0
NMTAP	51	96	0
NMTAP	51	192	0
NMTAP	51	192	1
NMTAP	52	0	2
NMTAP	52	0	3
NMTAP	52	96	2
NMTAP	52	96	3
NMTAP	52	192	2
NMTAP	52	192	3
NMSTR	53	0	4
NMSSL	53	0	4	96	384	0
NMSTR	55	0	1
NMSI_	55	0	1	96	192	4
NMSTR	56	0	5
NMSI_	56	0	5	96	192	2
NMSTR	57	0	1
NMSI_	57	0	1	96	192	5
NMTAP	58	0	6
NMTAP	58	96	6
NMTAP	58	192	0
NMTAP	58	192	7
NMSTR	59	0	6
NMSI_	59	0	6	96	192	3
NMSTR	60	0	2
NMSI_	60	0	2	96	192	5
NMSTR	61	0	6
NMSI_	61	0	6	96	192	2
NMTAP	62	0	1
NMTAP	62	96	1
NMTAP	62	192	0
NMTAP	62	192	7
NMTTP	63	0	1	B	0	L1
NMTTP	63	96	2	B	0	L1
NMTTP	63	192	3	B	0	L1
NMTTP	64	0	6	B	0	L1
NMTTP	64	96	5	B	0	L1
NMTTP	64	192	4	B	0	L1
NMTTP	65	0	1	B	0	L1
NMTTP	65	96	2	B	0	L1
NMTTP	65	192	3	B	0	L1
NMTTP	65	288	4	B	0	L1
NMTTP	66	0	5	B	0	L1
NMTTP	66	96	6	B	0	L1
NMTTP	66	192	0	B	0	L1
NMTTP	66	192	7	B	0	L1
NMTTP	67	0	2	B	0	L1
NMTTP	67	96	1	B	0	L1
NMTTP	67	192	0	B	0	L1
NMTTP	68	0	5	B	0	L1
NMTTP	68	96	6	B	0	L1
NMTTP	68	192	7	B	0	L1
NMTTP	69	0	2	B	0	L1
NMTTP	69	96	1	B	0	L1
NMTTP	69	192	0	B	0	L1
NMTTP	69	288	7	B	0	L1
NMTTP	70	0	6	B	0	L1
NMTTP	70	96	5	B	0	L1
NMTTP	70	192	3	B	0	L1
NMTTP	70	192	4	B	0	L1
NMTTP	71	0	0	C	1	L1
NMHLD	72	0	1	192
NMHLD	72	192	0	192
NMHLD	73	0	7	192
NMTAP	73	192	6
NMHLD	74	0	6	192
NMHLD	74	192	7	192
NMHLD	75	0	0	192
NMTAP	75	192	1
NMHLD	76	0	1	192
NMHLD	76	192	2	192
NMHLD	77	0	3	192
NMTAP	77	192	4
NMHLD	78	0	6	192
NMHLD	78	192	5	192
NMHLD	79	0	4	192
EXTAP	79	192	3
NMTAP	80	0	2
NMTAP	80	96	2
NMTAP	80	192	1
NMTAP	80	288	1
NMTAP	81	0	0
NMTAP	81	96	0
NMTAP	81	192	6
NMTAP	81	192	7
NMTAP	82	0	5
NMTAP	82	96	5
NMTAP	82	192	6
NMTAP	82	288	6
NMTAP	83	0	7
NMTAP	83	96	7
NMTAP	83	192	0
NMTAP	83	192	1
NMTAP	84	0	1
NMTAP	84	96	1
NMTAP	84	192	2
NMTAP	84	288	2
NMTAP	85	0	3
NMTAP	85	96	3
NMTAP	85	192	4
NMTAP	85	192	5
NMTAP	86	0	6
NMTAP	86	96	6
NMTAP	86	192	5
NMTAP	86	288	5
NMTAP	87	0	4
NMTAP	87	96	4
NMTAP	87	192	2
NMTAP	87	192	3
NMSTR	88	0	1
NMSUR	88	0	1	96	480	4
NMTAP	90	0	5
NMTAP	90	96	5
NMTAP	90	192	4
NMTAP	90	192	5
NMTAP	90	288	4
NMTAP	90	288	5
NMTAP	91	0	6
NMTAP	91	96	6
NMTAP	91	192	6
NMTAP	91	192	7
NMTAP	91	288	6
NMTAP	91	288	7
NMTAP	92	0	0
NMTAP	92	96	0
NMTAP	92	192	0
NMTAP	92	192	1
NMTAP	92	288	0
NMTAP	92	288	1
NMTAP	93	0	2
NMTAP	93	0	3
NMTAP	93	96	2
NMTAP	93	96	3
NMTAP	93	192	2
NMTAP	93	192	3
NMTAP	94	0	2
NMTAP	94	96	2
NMTAP	94	192	2
NMTAP	94	192	3
NMTAP	94	288	2
NMTAP	94	288	3
NMTAP	95	0	1
NMTAP	95	96	1
NMTAP	95	192	0
NMTAP	95	192	1
NMTAP	95	288	0
NMTAP	95	288	1
NMTAP	96	0	7
NMTAP	96	96	7
NMTAP	96	192	6
NMTAP	96	192	7
NMTAP	96	288	6
NMTAP	96	288	7
NMTAP	97	0	4
NMTAP	97	0	5
NMTAP	97	96	4
NMTAP	97	96	5
NMTAP	97	192	4
NMTAP	97	192	5
EXTAP	98	0	4
EXTAP	98	0	5
EXTAP	98	192	6
EXTAP	98	192	7
EXTAP	99	0	0
EXTAP	99	0	1
EXTAP	99	192	2
EXTAP	99	192	3
NMTAP	100	0	2
NMTAP	100	96	2
NMTAP	100	192	0
NMTAP	100	192	1
NMTAP	100	288	0
NMTAP	100	288	1
NMTAP	101	0	7
NMTAP	101	96	7
NMTAP	101	192	6
NMTAP	101	192	7
NMTAP	102	0	5
NMTAP	102	96	5
NMTAP	102	192	6
NMTAP	102	192	7
NMTAP	102	288	6
NMTAP	102	288	7
NMTAP	103	0	0
NMTAP	103	96	0
NMTAP	103	192	0
NMTAP	103	192	1
NMTAP	104	0	2
NMTAP	104	0	3
NMTAP	104	192	0
NMTAP	104	192	1
NMTAP	105	0	6
NMTAP	105	0	7
NMTAP	105	192	4
NMTAP	105	192	5
NMTAP	106	0	6
NMTAP	106	96	6
NMTAP	106	192	6
NMTAP	106	192	7
NMTAP	107	0	1
NMTAP	107	96	1
NMTAP	107	192	0
NMTAP	107	192	1
NMTAP	108	0	0
NMTAP	108	96	1
NMTAP	108	192	2
NMTAP	108	288	3
NMTAP	109	0	4
NMTAP	109	96	5
NMTAP	109	192	6
NMTAP	109	288	7
NMTAP	110	0	0
NMTAP	110	96	1
NMTAP	110	192	2
NMTAP	110	288	3
NMTAP	111	0	4
NMTAP	111	96	5
NMTAP	111	192	6
NMTAP	111	192	7
NMTAP	112	0	7
NMTAP	112	96	6
NMTAP	112	192	5
NMTAP	112	288	4
NMTAP	113	0	3
NMTAP	113	96	2
NMTAP	113	192	1
NMTAP	113	288	0
NMTAP	114	0	7
NMTAP	114	96	6
NMTAP	114	192	5
NMTAP	114	288	4
NMTAP	115	0	3
NMTAP	115	96	2
NMTAP	115	192	0
NMTAP	115	192	1
BRTAP	116	0	0
BRTAP	116	0	7

T_REC_TAP	269
T_REC_BRK	2
T_REC_XTP	9
T_REC_BXX	0
T_REC_HLD	32
T_REC_XHO	0
T_REC_BHO	0
T_REC_BXH	0
T_REC_STR	9
T_REC_BST	0
T_REC_XST	0
T_REC_XBS	0
T_REC_TTP	29
T_REC_THO	0
T_REC_SLD	9
T_REC_BSL	0
T_REC_ALL	359
T_NUM_TAP	316
T_NUM_BRK	2
T_NUM_HLD	32
T_NUM_SLD	9
T_NUM_ALL	359
T_JUDGE_TAP	318
T_JUDGE_HLD	128
T_JUDGE_SLD	9
T_JUDGE_ALL	455
TTM_EACHPAIRS	71
TTM_SCR_TAP	158000
TTM_SCR_BRK	5200
TTM_SCR_HLD	32000
TTM_SCR_SLD	13500
TTM_SCR_ALL	208700
TTM_SCR_S	202250
TTM_SCR_SS	208500
TTM_RAT_ACV	10009

