VERSION	0.00.00	1.04.00
FES_MODE	0
BPM_DEF	140.000	140.000	140.000	140.000
MET_DEF	4	4
RESOLUTION	384
CLK_DEF	384
COMPATIBLE_CODE	MA2

BPM	0	0	140.000
MET	0	0	4	4

EXSTR	1	48	5
NMSXR	1	48	5	96	96	4
NMHLD	2	0	2	96
NMTAP	2	144	3
NMHLD	2	192	4	96
NMTAP	2	336	3
NMHLD	3	0	2	96
NMTAP	3	144	3
NMTAP	3	192	4
NMTAP	3	288	3
NMTAP	3	288	4
NMTAP	3	336	2
NMHLD	4	0	2	96
NMTAP	4	144	3
NMTAP	4	192	4
NMTAP	4	288	3
NMTAP	4	288	4
NMHLD	5	0	1	96
NMHLD	5	96	2	96
NMHLD	5	192	3	96
NMTAP	5	288	4
NMTAP	5	336	5
NMHLD	6	0	5	96
NMTAP	6	144	4
NMHLD	6	192	3	96
NMTAP	6	336	4
NMHLD	7	0	5	96
NMTAP	7	144	4
NMTAP	7	192	3
NMTAP	7	288	3
NMTAP	7	288	4
NMTAP	7	336	5
NMHLD	8	0	5	96
NMTAP	8	144	4
NMTAP	8	192	3
NMTAP	8	288	3
NMTAP	8	288	4
NMTAP	9	0	2
NMTAP	9	0	5
NMHLD	9	192	3	48
NMHLD	9	192	4	48
NMHLD	9	288	0	48
NMHLD	9	288	7	48
NMSTR	10	0	6
NMSCL	10	0	6	96	48	4
NMTAP	10	96	3
NMTAP	10	144	2
NMSTR	10	192	1
NMSCR	10	192	1	96	48	3
NMTAP	10	288	4
NMTAP	10	336	5
NMSTR	11	0	6
NMSCL	11	0	6	96	48	4
NMTAP	11	96	3
NMTAP	11	144	2
NMSTR	11	192	1
NMSCR	11	192	1	96	48	3
NMTAP	11	288	4
NMTAP	11	336	5
NMSTR	12	0	6
NMSCL	12	0	6	96	48	4
NMTAP	12	96	3
NMTAP	12	144	2
NMTAP	12	192	1
NMSTR	12	288	5
NMSXL	12	288	5	96	192	2
EXTAP	13	240	1
EXTAP	13	288	1
NMTAP	14	0	5
NMTAP	14	48	6
NMTAP	14	96	4
NMTAP	14	96	7
NMTAP	14	144	3
NMTAP	14	192	5
NMTAP	14	240	1
NMTAP	14	288	0
NMTAP	14	288	3
NMTAP	14	336	4
NMTAP	15	0	2
NMTAP	15	48	5
NMTAP	15	96	4
NMTAP	15	96	6
NMTAP	15	144	7
NMTAP	15	192	0
NMTAP	15	240	1
NMTAP	15	288	2
NMTAP	15	288	4
NMTAP	15	336	1
NMTAP	16	0	3
NMTAP	16	48	0
NMTAP	16	96	1
NMTAP	16	96	2
NMTAP	16	144	3
NMTAP	16	192	4
NMTAP	16	240	5
NMTAP	16	288	3
NMTAP	16	288	6
NMTAP	16	336	2
NMTAP	17	0	1
NMTAP	17	48	0
NMTAP	17	96	7
NMTAP	17	144	6
NMTAP	17	192	1
NMTAP	17	192	5
EXTAP	17	240	2
EXTAP	17	240	4
EXSTR	17	288	2
NMSI_	17	288	2	96	48	7
EXTAP	17	288	4
NMSTR	18	0	6
NMSI_	18	0	6	96	48	3
NMSTR	18	96	1
NMSI_	18	96	1	96	48	4
NMSTR	18	192	5
NMSI_	18	192	5	96	48	0
NMSTR	18	288	2
NMSI_	18	288	2	96	48	6
NMSTR	19	0	7
NMSI_	19	0	7	96	48	3
NMSTR	19	96	0
NMSI_	19	96	0	96	48	4
NMSTR	19	192	5
NMSI_	19	192	5	96	48	1
NMSTR	19	288	3
NMSI_	19	288	3	96	48	0
NMSTR	20	0	7
NMSI_	20	0	7	96	48	4
NMSTR	20	96	1
NMSXR	20	96	1	96	144	4
NMHLD	20	192	5	96
NMSTR	21	0	6
NMSUL	21	0	6	96	48	2
NMTAP	21	96	1
NMTAP	21	192	0
NMTAP	21	240	1
NMTAP	21	288	2
NMTAP	21	288	3
NMTAP	22	0	4
NMTAP	22	48	5
NMTAP	22	96	3
NMTAP	22	96	6
NMTAP	22	144	2
NMHLD	22	192	1	96
NMTAP	22	288	3
NMTAP	22	336	3
NMTAP	23	0	0
NMTAP	23	48	0
NMTAP	23	96	4
NMTAP	23	144	5
NMSTR	23	192	2
NMSXR	23	192	2	96	192	5
NMTAP	23	192	6
EXTAP	23	288	5
EXTAP	24	0	6
NMTAP	24	96	7
NMTAP	24	144	7
NMTAP	24	192	4
NMTAP	24	240	3
NMTAP	24	288	5
NMTAP	24	336	6
NMHLD	25	0	1	96
NMHLD	25	96	3	96
NMTAP	25	192	4
EXTAP	25	240	5
EXSTR	25	288	3
NMSXR	25	288	3	96	144	4
EXTAP	25	288	5
NMTAP	26	0	4
NMTAP	26	96	5
NMHLD	26	192	6	96
NMTAP	26	288	4
NMTAP	26	336	4
NMTAP	27	0	5
NMTAP	27	48	5
NMTAP	27	96	3
NMTAP	27	96	4
NMTAP	27	192	2
NMTAP	27	192	3
NMSTR	27	288	1
NMSUR	27	288	1	96	48	6
NMSTR	27	288	2
NMSCR	27	288	2	96	48	5
NMTAP	28	144	7
NMHLD	28	192	7	96
NMTAP	28	288	0
NMTAP	29	0	0
NMTAP	29	0	1
NMTAP	29	96	2
NMTAP	29	96	3
BRHLD	29	192	1	2880
BRTAP	29	192	4
NMHLD	30	0	3	36
NMHLD	30	72	3	36
NMHLD	30	144	3	36
NMTAP	30	216	3
NMHLD	30	252	3	36
NMTAP	31	0	3
NMTAP	31	36	3
NMTAP	31	120	3
NMHLD	31	156	3	36
NMTAP	31	228	3
NMHLD	31	264	3	36
NMTAP	31	336	3
NMHLD	32	36	3	36
NMTAP	32	108	3
NMTAP	32	204	3
NMTAP	32	240	3
NMTAP	32	336	3
NMHLD	32	372	3	36
NMHLD	33	60	3	36
NMHLD	33	132	3	36
NMHLD	33	336	3	36
NMTAP	34	24	3
NMTAP	34	108	3
NMTAP	34	204	3
NMTAP	34	240	3
NMHLD	34	336	3	36
NMTAP	35	24	3
NMHLD	35	60	3	36
NMHLD	35	132	3	36
NMTAP	35	204	3
NMTAP	35	288	3
NMTAP	35	324	3
NMHLD	35	360	3	36
NMHLD	36	48	3	36
NMHLD	36	168	3	36
NMTAP	36	240	3
NMTAP	36	348	3
NMTAP	37	0	3
NMTAP	37	96	4
NMTAP	37	96	6
BXTAP	37	192	0
BXTAP	37	192	7
NMTAP	37	288	2
NMSTR	37	288	3
NMSI_	37	288	3	96	48	6
NMTAP	38	0	1
NMSTR	38	0	3
NMSI_	38	0	3	96	48	0
NMSTR	38	96	3
NMSI_	38	96	3	96	48	6
NMTAP	38	96	5
NMTAP	38	192	1
NMSTR	38	192	3
NMSI_	38	192	3	96	48	0
NMSTR	38	288	3
NMSI_	38	288	3	96	48	6
NMTAP	38	288	5
NMTAP	39	0	1
NMSTR	39	0	3
NMSI_	39	0	3	96	48	0
NMSTR	39	96	3
NMSI_	39	96	3	96	48	6
NMTAP	39	96	5
NMTAP	39	192	1
NMTAP	39	192	3
NMTAP	39	288	3
NMTAP	39	288	5
NMSTR	40	0	6
NMSCL	40	0	6	96	48	3
NMSTR	40	0	7
NMSCR	40	0	7	96	48	2
EXTAP	40	96	6
EXTAP	40	96	7
NMSTR	40	192	0
NMSCL	40	192	0	96	48	5
NMSTR	40	192	1
NMSCR	40	192	1	96	48	4
EXTAP	40	288	0
EXTAP	40	288	1
EXHLD	41	0	4	48
EXHLD	41	0	6	48
NMTTP	41	96	5	A	0	M1
NMTTP	41	112	5	B	0	M1
NMTTP	41	128	4	B	0	M1
NMTTP	41	144	4	E	0	M1
NMTAP	41	192	1
NMTAP	41	240	1
NMTAP	41	288	2
NMSTR	41	288	3
NMSI_	41	288	3	96	48	6
NMTAP	42	0	1
NMSTR	42	0	3
NMSI_	42	0	3	96	48	0
NMSTR	42	96	3
NMSI_	42	96	3	96	48	6
NMTAP	42	96	5
NMTAP	42	192	1
NMSTR	42	192	3
NMSI_	42	192	3	96	48	0
NMSTR	42	288	3
NMSI_	42	288	3	96	48	6
NMTAP	42	288	5
NMTAP	43	0	1
NMSTR	43	0	3
NMSI_	43	0	3	96	48	0
NMSTR	43	96	3
NMSI_	43	96	3	96	48	7
NMTAP	43	96	5
NMTAP	43	192	1
NMTAP	43	192	3
NMSTR	43	288	0
NMSUR	43	288	0	96	144	3
NMSTR	43	288	1
NMSUL	43	288	1	96	144	6
BRTAP	44	192	0
BRTAP	44	192	1
NMTAP	44	240	0
NMTAP	44	240	1
NMTAP	44	288	0
NMTAP	44	288	1
NMHLD	45	0	2	48
NMHLD	45	0	7	48
NMTTP	45	96	6	E	0	M1
NMTTP	45	112	5	B	0	M1
NMTTP	45	128	4	B	0	M1
NMTTP	45	144	4	E	0	M1
NMTAP	45	192	1
NMTAP	45	240	1
NMTAP	45	288	2
NMSTR	45	288	3
NMSI_	45	288	3	96	48	6
NMTAP	46	0	1
NMSTR	46	0	3
NMSI_	46	0	3	96	48	0
NMSTR	46	96	3
NMSCR	46	96	3	96	48	6
NMTAP	46	96	5
NMTAP	46	192	0
NMSTR	46	192	3
NMSCL	46	192	3	96	48	0
NMSTR	46	288	3
NMSI_	46	288	3	96	48	6
NMTAP	46	288	6
NMTAP	47	0	1
NMSTR	47	0	3
NMSI_	47	0	3	96	48	0
NMSTR	47	96	3
NMSI_	47	96	3	96	48	7
NMTAP	47	96	5
NMTAP	47	192	2
NMTAP	47	192	3
NMTAP	47	288	3
NMTAP	47	288	5
NMSTR	48	0	4
NMSCL	48	0	4	96	48	1
NMSTR	48	0	5
NMSCR	48	0	5	96	48	0
EXTAP	48	96	4
EXTAP	48	96	5
NMSTR	48	192	2
NMSCL	48	192	2	96	48	7
NMSTR	48	192	3
NMSCR	48	192	3	96	48	6
EXTAP	48	288	2
EXTAP	48	288	3
EXHLD	49	0	4	48
EXHLD	49	0	6	48
NMTTP	49	96	5	A	0	M1
NMTTP	49	112	5	B	0	M1
NMTTP	49	128	4	B	0	M1
NMTTP	49	144	4	E	0	M1
NMTAP	49	192	1
NMTAP	49	240	1
NMTAP	49	288	2
NMSTR	49	288	3
NMSI_	49	288	3	96	48	6
NMTAP	50	0	1
NMSTR	50	0	3
NMSI_	50	0	3	96	48	0
NMSTR	50	96	3
NMSCR	50	96	3	96	48	6
NMTAP	50	96	5
NMTAP	50	192	0
NMSTR	50	192	3
NMSCL	50	192	3	96	48	0
NMSTR	50	288	3
NMSI_	50	288	3	96	48	6
NMTAP	50	288	6
NMTAP	51	0	1
NMSTR	51	0	3
NMSI_	51	0	3	96	48	0
NMSTR	51	96	3
NMSI_	51	96	3	96	48	7
NMTAP	51	96	5
NMTAP	51	192	2
NMTAP	51	192	3
NMSTR	51	288	0
NMSUR	51	288	0	96	144	3
NMSTR	51	288	1
NMSUL	51	288	1	96	144	6
BRTAP	52	192	0
BRTAP	52	192	1
NMTAP	52	240	0
NMTAP	52	240	1
NMTAP	52	288	0
NMTAP	52	288	1
NMHLD	53	0	2	48
NMHLD	53	0	7	48
NMHLD	53	96	4	48
NMHLD	53	96	5	48
NMHLD	53	192	2	48
NMHLD	53	192	3	48
BRTAP	53	288	1
BRTAP	53	288	4
NMTAP	54	0	3
NMTAP	54	0	5
NMTAP	54	48	3
NMTAP	54	48	5
NMTAP	54	96	6
NMTAP	54	120	4
NMTAP	54	144	5
NMTAP	54	192	2
NMTAP	54	240	2
NMTAP	54	264	3
NMTAP	54	288	1
NMTAP	54	336	5
NMTAP	54	360	4
NMTAP	55	0	6
NMTAP	55	48	2
NMTAP	55	72	3
NMTAP	55	96	1
NMTAP	55	144	5
NMTAP	55	168	4
NMTAP	55	192	6
NMTAP	55	240	7
NMTAP	55	288	3
NMTAP	55	336	2
NMTAP	56	0	1
NMTAP	56	48	0
NMTAP	56	96	0
NMTAP	56	112	1
NMTAP	56	128	2
NMTAP	56	144	3
NMTAP	56	160	4
NMTAP	56	176	5
NMTAP	56	192	6
EXTAP	56	288	0
EXTAP	56	288	7
EXTAP	56	336	0
EXTAP	56	336	7
NMHLD	57	0	0	48
NMHLD	57	0	1	48
NMHLD	57	96	0	48
NMHLD	57	96	7	48
NMTAP	57	192	6
NMTAP	57	192	7
EXTAP	57	240	0
EXTAP	57	240	5
EXSTR	57	288	0
NMSLR	57	288	0	96	96	4
EXTAP	57	288	5
NMTAP	58	0	6
NMTAP	58	96	6
NMTAP	58	144	7
NMTAP	58	192	7
NMTAP	58	240	0
NMTAP	58	240	6
NMSTR	58	288	0
NMSCR	58	288	0	96	96	4
NMTAP	58	288	6
NMSTR	59	0	4
NMSCR	59	0	4	96	96	0
NMTAP	59	96	0
NMTAP	59	192	4
NMTAP	59	288	2
NMTAP	59	288	6
NMHLD	60	0	0	48
NMHLD	60	0	1	48
NMHLD	60	72	2	48
NMHLD	60	72	3	48
NMHLD	60	144	4	48
NMHLD	60	144	5	48
NMHLD	60	216	6	48
NMHLD	60	216	7	48
NMTAP	60	288	0
NMSTR	60	288	1
NMSCR	60	288	1	96	48	4
NMSTR	61	0	7
NMSI_	61	0	7	96	48	4
NMSTR	61	96	2
NMSCL	61	96	2	96	48	7
NMTAP	61	192	5
NMTAP	61	240	5
NMTAP	61	288	4
NMHLD	62	0	2	192
NMTTP	62	96	4	E	0	M1
NMHLD	62	192	5	192
NMTTP	62	288	4	E	0	M1
NMHLD	63	0	3	192
NMTTP	63	96	4	E	0	M1
NMHLD	63	192	4	192
NMTTP	63	288	4	E	0	M1
NMHLD	64	0	2	192
NMTTP	64	96	4	E	0	M1
NMHLD	64	192	5	192
NMTTP	64	288	4	E	0	M1
NMHLD	65	0	2	96
NMHLD	65	96	3	96
NMHLD	65	192	4	96
NMTAP	65	288	5
NMHLD	66	0	5	192
NMTTP	66	96	4	E	0	M1
NMHLD	66	192	3	192
NMTTP	66	288	4	E	0	M1
NMHLD	67	0	4	192
NMTTP	67	96	4	E	0	M1
NMHLD	67	192	2	192
NMTTP	67	288	4	E	0	M1
NMHLD	68	0	5	192
NMTTP	68	96	4	E	0	M1
NMHLD	68	192	1	192
NMTTP	68	288	4	E	0	M1
NMTAP	69	0	6
NMTAP	69	48	6
NMTTP	69	96	5	B	0	M1
NMTTP	69	112	4	B	0	M1
NMTTP	69	128	3	B	0	M1
NMTTP	69	144	3	E	0	M1
EXTAP	69	192	0
EXTAP	69	240	1
EXTAP	69	240	7
EXTAP	69	288	1
EXSTR	69	288	7
NMSI_	69	288	7	96	48	4
NMTAP	69	336	6
EXSTR	70	0	7
NMSI_	70	0	7	96	48	2
NMTAP	70	48	0
EXSTR	70	96	7
NMSCL	70	96	7	96	48	4
NMTAP	70	144	6
EXSTR	70	192	7
NMSCR	70	192	7	96	48	2
NMTAP	70	240	0
EXSTR	70	288	7
NMSI_	70	288	7	96	48	4
NMTAP	70	336	6
EXSTR	71	0	7
NMSI_	71	0	7	96	48	2
NMTAP	71	48	0
EXSTR	71	96	7
NMSI_	71	96	7	96	48	3
NMTAP	71	144	6
EXTAP	71	192	7
NMTAP	71	240	1
NMSTR	71	288	0
NMSCR	71	288	0	96	48	3
NMTAP	71	336	0
NMSTR	72	0	4
NMSI_	72	0	4	96	48	7
NMTAP	72	48	4
EXSTR	72	96	3
NMSCL	72	96	3	96	96	4
NMSUL	72	96	3	96	96	4
NMTAP	72	144	3
BRTAP	73	0	0
BRTAP	73	0	6
NMTAP	73	48	0
NMTAP	73	48	6
NMTTP	73	96	5	A	0	M1
NMTTP	73	112	5	E	0	M1
NMTTP	73	128	4	A	0	M1
NMTTP	73	144	4	D	0	M1
NMTAP	73	192	1
NMTAP	73	240	1
EXSTR	73	288	3
NMSI_	73	288	3	96	48	7
EXSTR	73	288	4
NMSI_	73	288	4	96	48	6
EXSTR	74	0	3
NMSI_	74	0	3	96	48	1
EXSTR	74	0	4
NMSI_	74	0	4	96	48	0
EXSTR	74	96	3
NMSI_	74	96	3	96	48	7
EXSTR	74	96	4
NMSI_	74	96	4	96	48	6
EXSTR	74	192	3
NMSI_	74	192	3	96	48	1
EXSTR	74	192	4
NMSI_	74	192	4	96	48	0
EXSTR	74	288	3
NMSI_	74	288	3	96	48	7
EXSTR	74	288	4
NMSI_	74	288	4	96	48	6
EXTAP	75	0	3
EXTAP	75	0	4
NMTAP	75	96	0
NMTAP	75	128	6
NMTAP	75	160	2
NMTAP	75	192	4
NMSTR	75	288	0
BRSUR	75	288	0	96	144	3
NMSTR	75	288	1
BRSUL	75	288	1	96	144	6
BRTAP	76	192	0
BRTAP	76	192	1
BRTAP	76	240	0
BRTAP	76	240	1
BRTAP	76	288	0
BRTAP	76	288	1
NMHLD	77	0	2	48
NMHLD	77	0	4	48
NMHLD	77	96	2	48
NMHLD	77	96	4	48
NMHLD	77	192	3	48
NMHLD	77	192	5	48
NMTAP	77	288	3
NMTAP	77	288	5
NMTHO	78	0	0	576	C	0	M1
NMTTP	78	0	5	B	0	M1
NMTTP	78	0	5	A	0	M1
NMTTP	78	192	6	B	0	M1
NMTTP	78	192	6	A	0	M1
NMTTP	79	0	7	B	0	M1
NMTTP	79	0	7	A	0	M1
NMTTP	79	192	0	E	0	M1
NMTTP	79	192	0	D	0	M1

T_REC_TAP	263
T_REC_BRK	15
T_REC_XTP	31
T_REC_BXX	2
T_REC_HLD	79
T_REC_XHO	4
T_REC_BHO	1
T_REC_BXH	0
T_REC_STR	69
T_REC_BST	0
T_REC_XST	22
T_REC_XBS	0
T_REC_TTP	40
T_REC_THO	1
T_REC_SLD	90
T_REC_BSL	2
T_REC_ALL	619
T_NUM_TAP	425
T_NUM_BRK	20
T_NUM_HLD	84
T_NUM_SLD	90
T_NUM_ALL	619
T_JUDGE_TAP	442
T_JUDGE_HLD	211
T_JUDGE_SLD	92
T_JUDGE_ALL	745
TTM_EACHPAIRS	120
TTM_SCR_TAP	212500
TTM_SCR_BRK	52000
TTM_SCR_HLD	84000
TTM_SCR_SLD	135000
TTM_SCR_ALL	483500
TTM_SCR_S	467100
TTM_SCR_SS	481500
TTM_RAT_ACV	10041

