VERSION	0.00.00	1.04.00
FES_MODE	0
BPM_DEF	140.000	140.000	140.000	140.000
MET_DEF	4	4
RESOLUTION	384
CLK_DEF	384
COMPATIBLE_CODE	MA2

BPM	0	0	140.000
MET	0	0	4	4

NMTAP	2	0	6
NMTAP	2	96	6
NMTAP	2	96	7
NMTAP	2	288	0
NMTAP	2	288	1
NMTAP	3	96	6
NMTAP	3	96	7
NMTAP	3	288	0
NMTAP	3	288	1
NMTAP	4	96	6
NMTAP	4	96	7
NMTAP	4	288	0
NMTAP	4	288	1
NMTAP	5	96	6
NMTAP	5	96	7
NMTAP	5	288	0
NMTAP	5	288	1
NMTAP	6	96	6
NMTAP	6	96	7
NMTAP	6	288	0
NMTAP	6	288	1
NMTAP	7	96	6
NMTAP	7	96	7
NMTAP	7	288	0
NMTAP	7	288	1
NMTAP	8	96	6
NMTAP	8	96	7
NMTAP	8	288	0
NMTAP	8	288	1
NMTAP	9	96	0
NMTAP	9	96	7
NMTAP	9	192	1
NMTAP	9	192	6
NMHLD	9	288	2	960
NMTAP	9	288	5
NMTAP	10	96	3
NMTAP	10	288	4
NMTAP	11	96	3
NMTAP	11	288	5
NMTAP	12	96	3
NMSTR	12	288	2
NMSCR	12	288	2	96	96	4
NMTAP	12	288	4
CNSI_	13	96	4	0	192	0
BXTAP	14	0	1
BXTAP	14	0	7
NMHLD	14	96	2	96
NMTAP	14	192	3
NMTAP	14	288	2
NMTAP	14	288	4
NMTAP	15	0	3
NMTAP	15	0	4
NMHLD	15	96	5	96
NMTAP	15	192	4
NMTAP	15	288	4
NMTAP	15	288	5
NMHLD	16	0	6	96
NMTAP	16	96	7
NMHLD	16	192	1	96
NMTAP	16	288	0
NMTAP	17	0	7
NMTAP	17	96	0
NMTAP	17	96	6
NMTAP	17	192	1
NMTAP	17	192	5
NMTAP	17	288	1
NMTAP	17	288	5
NMSTR	18	0	2
NMSCR	18	0	2	96	96	5
NMTAP	18	192	6
NMTAP	18	288	6
NMSTR	19	0	5
NMSCL	19	0	5	96	96	2
NMTAP	19	192	1
NMTAP	19	288	1
NMSTR	20	0	0
NMSI_	20	0	0	96	96	4
NMSTR	20	192	7
NMSI_	20	192	7	96	96	3
NMTAP	21	0	1
NMTAP	21	96	1
NMTAP	21	96	3
NMTAP	21	192	2
NMTAP	21	192	4
EXTAP	21	288	3
EXTAP	21	288	5
BXTAP	22	0	2
BXTAP	22	0	6
NMTAP	22	96	5
NMTAP	22	144	5
NMTAP	22	192	4
NMTAP	22	288	3
NMTAP	22	288	5
NMTAP	23	0	3
NMTAP	23	0	4
NMTAP	23	96	2
NMTAP	23	144	2
NMTAP	23	192	3
NMTAP	23	288	2
NMTAP	23	288	4
NMHLD	24	0	1	96
NMTAP	24	96	0
NMHLD	24	192	6	96
NMTAP	24	288	7
NMTAP	25	0	0
NMTAP	25	96	1
NMTAP	25	96	7
NMTAP	25	192	2
NMTAP	25	192	6
NMTAP	25	288	2
NMTAP	25	288	6
NMTAP	26	0	3
NMHLD	26	0	5	96
NMHLD	26	96	4	96
NMTAP	26	192	3
NMTAP	26	288	3
NMHLD	27	0	2	96
NMTAP	27	0	4
NMHLD	27	96	3	96
NMTAP	27	192	4
NMTAP	27	288	4
NMSTR	28	0	5
NMSI_	28	0	5	96	96	0
NMSTR	28	192	1
NMSI_	28	192	1	96	96	4
NMTAP	29	0	5
NMTAP	29	96	4
NMTAP	29	96	5
NMTAP	29	192	3
NMTAP	29	240	4
EXTAP	29	288	2
EXHLD	30	0	0	1152
NMHLD	30	0	6	192
NMSTR	31	0	6
NMSCL	31	0	6	96	192	3
NMTAP	32	0	3
NMTAP	32	192	3
NMSTR	33	0	3
NMSI_	33	0	3	96	192	7
NMSTR	34	0	1
NMSXL	34	0	1	96	288	4
NMSTR	35	0	6
NMSXR	35	0	6	96	288	3
NMHLD	36	0	2	144
EXTAP	36	144	3
EXTAP	36	240	3
EXTAP	36	336	2
EXSTR	36	336	3
NMSI_	36	336	3	96	72	0
NMSI_	36	336	3	96	72	6
EXTAP	37	192	7
EXTAP	37	240	0
EXTAP	37	240	7
EXTAP	37	288	0
EXTAP	37	288	7
BRTAP	38	0	1
BRTAP	38	0	6
NMTAP	38	96	2
NMTAP	38	144	2
NMTAP	38	192	1
NMTAP	38	192	3
NMTAP	38	288	0
NMTAP	38	288	7
NMTAP	39	0	5
NMTAP	39	48	5
NMTAP	39	96	4
NMTAP	39	96	6
NMTAP	39	192	1
EXTAP	39	240	1
EXTAP	39	288	3
EXTAP	39	336	3
NMHLD	40	0	2	96
NMTAP	40	96	4
NMTAP	40	144	4
NMTAP	40	192	3
NMTAP	40	192	5
NMTAP	40	288	2
NMTAP	40	288	4
BRTAP	41	0	1
BRTAP	41	0	5
NMTAP	41	96	6
NMTAP	41	96	7
NMTAP	41	192	0
NMTAP	41	192	1
NMTAP	41	240	0
NMTAP	41	240	1
NMTAP	41	288	2
NMTAP	41	288	7
NMTAP	42	0	4
NMTAP	42	0	5
NMTAP	42	96	2
NMTAP	42	144	2
NMTAP	42	192	1
NMTAP	42	192	3
NMTAP	42	288	0
NMTAP	42	288	7
NMTAP	43	0	5
NMTAP	43	48	5
NMTAP	43	96	4
NMTAP	43	96	6
NMTAP	43	192	2
NMTAP	43	192	3
BRTAP	43	288	0
BRTAP	43	288	1
BRTAP	44	0	3
BRSTR	44	0	7
NMSI_	44	0	7	96	48	3
NMSTR	44	192	1
NMSI_	44	192	1	96	48	5
NMTAP	44	192	5
NMTAP	45	0	6
NMTAP	45	96	6
NMTAP	45	96	7
EXTAP	45	192	0
EXTAP	45	192	7
NMTAP	45	240	0
NMTAP	45	240	7
NMTAP	45	288	1
NMTAP	45	288	6
BRTAP	46	0	2
BRTAP	46	0	3
NMTAP	46	96	5
NMTAP	46	144	5
NMTAP	46	192	4
NMTAP	46	192	6
NMTAP	46	288	0
NMTAP	46	288	7
NMTAP	47	0	2
NMTAP	47	48	2
NMTAP	47	96	1
NMTAP	47	96	3
NMTAP	47	192	6
EXTAP	47	240	6
EXTAP	47	288	4
EXTAP	47	336	4
NMHLD	48	0	5	96
NMTAP	48	96	3
NMTAP	48	144	3
NMTAP	48	192	2
NMTAP	48	192	4
NMTAP	48	288	3
NMTAP	48	288	5
BRTAP	49	0	2
BRTAP	49	0	6
NMTAP	49	96	0
NMTAP	49	96	1
NMTAP	49	192	6
NMTAP	49	192	7
NMTAP	49	240	6
NMTAP	49	240	7
NMTAP	49	288	0
NMTAP	49	288	5
NMTAP	50	0	2
NMTAP	50	0	3
NMTAP	50	96	5
NMTAP	50	144	5
NMTAP	50	192	4
NMTAP	50	192	6
NMTAP	50	288	0
NMTAP	50	288	7
NMTAP	51	0	2
NMTAP	51	48	2
NMTAP	51	96	1
NMTAP	51	96	3
NMTAP	51	192	3
NMTAP	51	192	4
BRTAP	51	288	6
BRTAP	51	288	7
BRTAP	52	0	0
BRTAP	52	0	5
NMTAP	52	96	2
NMTAP	52	144	2
NMTAP	52	192	1
NMTAP	52	192	3
NMSTR	52	288	0
BRSCR	52	288	0	96	120	3
NMSTR	52	288	4
BRSCR	52	288	4	96	120	7
EXTAP	53	288	2
EXTAP	53	288	6
NMHLD	54	0	1	96
NMTAP	54	96	0
NMHLD	54	192	6	96
NMTAP	54	288	7
NMHLD	55	0	2	96
NMTAP	55	96	0
NMHLD	55	192	5	96
NMTAP	55	288	7
NMHLD	56	0	1	96
NMTAP	56	96	3
NMHLD	56	192	6	96
NMTAP	56	288	4
NMTAP	57	0	6
NMTAP	57	0	7
NMTAP	57	96	0
NMTAP	57	96	5
NMTAP	57	192	1
NMTAP	57	192	4
NMTAP	57	288	2
NMTAP	57	288	3
NMTAP	58	0	3
NMHLD	58	0	4	96
NMTAP	58	96	6
NMHLD	58	192	2	96
NMTAP	58	192	3
NMTAP	58	288	1
NMTAP	59	0	4
NMHLD	59	0	5	96
NMTAP	59	96	6
NMTAP	59	192	0
NMHLD	59	192	1	96
NMTAP	59	288	2
NMTAP	60	0	4
NMHLD	60	0	6	96
NMTAP	60	96	5
NMHLD	60	192	1	96
NMTAP	60	192	3
NMTAP	60	288	2
BRTAP	61	0	2
BRTAP	61	0	3
BRTAP	61	96	2
BRTAP	61	96	3
BRTAP	61	192	4
BRTAP	61	192	5
BRTAP	61	288	4
BRTAP	61	288	5
NMSTR	62	0	3
NMSCL	62	0	3	96	288	0
NMSTR	63	0	7
NMSCL	63	0	7	96	288	4
NMSTR	64	0	0
NMSCR	64	0	0	96	288	3
NMSTR	65	0	4
NMSCR	65	0	4	96	288	7
NMSTR	66	0	1
NMSI_	66	0	1	96	288	5
NMSTR	67	0	6
NMSI_	67	0	6	96	288	2
NMHLD	68	0	0	288
NMHLD	68	192	7	96
NMTAP	69	0	0
NMTAP	69	0	7
NMTAP	69	96	1
NMTAP	69	96	6
NMTAP	69	192	2
NMTAP	69	192	5
NMTAP	69	288	3
NMTAP	69	288	4
BRTAP	70	0	1
BRTAP	70	0	7
NMTAP	70	96	5
NMTAP	70	144	4
NMTAP	70	192	3
NMTAP	70	192	6
NMTAP	70	288	0
NMTAP	70	288	1
NMTAP	71	0	2
NMTAP	71	48	3
NMTAP	71	96	1
NMTAP	71	96	4
NMTAP	71	192	5
NMTAP	71	240	5
NMTAP	71	288	4
NMTAP	71	336	4
NMHLD	72	0	7	96
NMTAP	72	96	0
NMTAP	72	192	0
NMTAP	72	192	7
NMTAP	72	240	1
NMTAP	72	240	6
NMTAP	72	288	2
NMTAP	72	288	5
BRTAP	73	0	0
BRTAP	73	0	6
NMTAP	73	96	1
NMTAP	73	96	7
NMTAP	73	192	0
NMTAP	73	192	5
NMTAP	73	288	3
NMTAP	73	288	6
BRTAP	74	0	2
BRTAP	74	0	4
NMTAP	74	96	1
NMTAP	74	144	0
NMTAP	74	192	2
NMTAP	74	192	7
NMTAP	74	288	1
NMTAP	74	288	4
NMTAP	75	0	5
NMTAP	75	48	4
NMTAP	75	96	3
NMTAP	75	96	6
NMTAP	75	192	0
NMTAP	75	192	1
NMTAP	75	288	3
NMTAP	75	288	4
EXSTR	76	0	6
NMSI_	76	0	6	96	48	4
EXSTR	76	0	7
NMSI_	76	0	7	96	48	3
EXSTR	76	192	3
NMSI_	76	192	3	96	48	1
EXSTR	76	192	4
NMSI_	76	192	4	96	48	0
BXTAP	77	0	2
BXHLD	77	0	7	960
NMTTP	78	0	4	D	0	M1
NMTTP	78	192	4	E	0	M1
NMTHO	79	0	0	192	C	0	M1

T_REC_TAP	265
T_REC_BRK	29
T_REC_XTP	21
T_REC_BXX	5
T_REC_HLD	30
T_REC_XHO	1
T_REC_BHO	0
T_REC_BXH	1
T_REC_STR	20
T_REC_BST	1
T_REC_XST	5
T_REC_XBS	0
T_REC_TTP	2
T_REC_THO	1
T_REC_SLD	25
T_REC_BSL	2
T_REC_ALL	408
T_NUM_TAP	313
T_NUM_BRK	38
T_NUM_HLD	32
T_NUM_SLD	25
T_NUM_ALL	408
T_JUDGE_TAP	348
T_JUDGE_HLD	133
T_JUDGE_SLD	27
T_JUDGE_ALL	508
TTM_EACHPAIRS	124
TTM_SCR_TAP	156500
TTM_SCR_BRK	98800
TTM_SCR_HLD	32000
TTM_SCR_SLD	37500
TTM_SCR_ALL	324800
TTM_SCR_S	311400
TTM_SCR_SS	321000
TTM_RAT_ACV	10118

