VERSION	0.00.00	1.04.00
FES_MODE	0
BPM_DEF	260.000	260.000	260.000	235.000
MET_DEF	4	4
RESOLUTION	384
CLK_DEF	384
COMPATIBLE_CODE	MA2

BPM	0	0	260.000
BPM	100	0	235.000
BPM	100	96	260.000
MET	0	0	4	4

NMTAP	3	96	5
NMTAP	3	144	5
NMTAP	3	192	3
NMTAP	3	216	4
NMTAP	3	240	3
NMHLD	3	288	5	48
BRTAP	4	0	1
NMHLD	4	192	2	96
NMHLD	4	192	4	96
NMHLD	5	0	2	96
NMHLD	5	0	4	96
NMHLD	5	192	2	96
NMHLD	5	192	4	96
NMHLD	6	0	2	96
NMHLD	6	0	4	96
NMHLD	6	192	2	96
NMHLD	6	192	4	96
NMHLD	7	0	2	96
NMHLD	7	0	4	96
NMHLD	7	192	3	96
NMHLD	7	192	4	96
NMHLD	8	0	3	96
NMHLD	8	0	5	96
NMHLD	8	192	3	96
NMHLD	8	192	5	96
NMHLD	9	0	3	96
NMHLD	9	0	5	96
NMHLD	9	192	3	96
NMHLD	9	192	5	96
NMHLD	10	0	7	2976
BXTAP	11	0	0
NMTTP	12	0	0	B	0	M1
NMTTP	12	0	1	E	1	M1
NMTTP	12	96	3	B	0	M1
NMTTP	12	96	3	E	1	M1
NMTTP	12	192	0	B	0	M1
NMTTP	12	192	1	E	1	M1
NMTTP	12	288	3	B	0	M1
NMTTP	12	288	3	E	1	M1
NMTTP	13	0	0	B	0	M1
NMTTP	13	0	1	E	1	M1
NMTTP	13	96	3	B	0	M1
NMTTP	13	96	3	E	1	M1
NMTTP	13	192	0	B	0	M1
NMTTP	13	192	1	E	1	M1
NMTTP	13	288	3	B	0	M1
NMTTP	13	288	3	E	1	M1
NMTTP	14	0	0	B	0	M1
NMTTP	14	0	1	E	1	M1
NMTTP	14	96	3	B	0	M1
NMTTP	14	96	3	E	1	M1
NMTTP	14	192	0	B	0	M1
NMTTP	14	192	1	E	1	M1
NMTTP	14	288	3	B	0	M1
NMTTP	14	288	3	E	1	M1
NMTTP	15	0	0	B	0	M1
NMTTP	15	0	1	E	1	M1
NMTTP	15	96	3	B	0	M1
NMTTP	15	96	3	E	1	M1
NMTTP	15	192	0	B	0	M1
NMTTP	15	192	1	E	1	M1
NMTTP	15	288	3	B	0	M1
NMTTP	15	288	3	E	1	M1
NMTTP	16	0	0	B	0	M1
NMTTP	16	0	1	E	1	M1
NMTTP	16	96	3	B	0	M1
NMTTP	16	96	3	E	1	M1
NMTTP	16	192	0	B	0	M1
NMTTP	16	192	1	E	1	M1
NMTTP	16	288	3	B	0	M1
NMTTP	16	288	3	E	1	M1
NMTTP	17	0	0	B	0	M1
NMTTP	17	0	1	E	1	M1
NMTTP	17	96	3	B	0	M1
NMTTP	17	96	3	E	1	M1
NMTTP	17	192	0	B	0	M1
NMTTP	17	192	1	E	1	M1
NMTTP	17	288	3	B	0	M1
NMTTP	17	288	3	E	1	M1
NMTTP	18	0	6	B	0	M1
NMTTP	18	0	7	B	0	M1
NMHLD	19	0	2	672
NMTTP	20	0	4	B	0	M1
NMTTP	20	0	5	E	1	M1
NMTTP	20	96	7	B	0	M1
NMTTP	20	96	7	E	1	M1
NMTTP	20	192	4	B	0	M1
NMTTP	20	192	5	E	1	M1
NMTTP	20	288	7	B	0	M1
NMTTP	20	288	7	E	1	M1
NMHLD	21	0	1	288
NMTTP	21	0	4	B	0	M1
NMTTP	21	0	5	E	1	M1
NMTTP	21	96	7	B	0	M1
NMTTP	21	96	7	E	1	M1
NMTTP	21	192	4	B	0	M1
NMTTP	21	192	5	E	1	M1
NMTTP	21	288	7	B	0	M1
NMTTP	21	288	7	E	1	M1
NMHLD	22	0	2	288
NMTTP	22	0	4	B	0	M1
NMTTP	22	0	5	E	1	M1
NMTTP	22	96	7	B	0	M1
NMTTP	22	96	7	E	1	M1
NMTTP	22	192	4	B	0	M1
NMTTP	22	192	5	E	1	M1
NMTTP	22	288	7	B	0	M1
NMTTP	22	288	7	E	1	M1
NMHLD	23	0	3	288
NMTTP	23	0	4	B	0	M1
NMTTP	23	0	5	E	1	M1
NMTTP	23	96	7	B	0	M1
NMTTP	23	96	7	E	1	M1
NMTTP	23	192	4	B	0	M1
NMTTP	23	192	5	E	1	M1
NMTTP	23	288	7	B	0	M1
NMTTP	23	288	7	E	1	M1
NMHLD	24	0	2	288
NMTTP	24	0	4	B	0	M1
NMTTP	24	0	5	E	1	M1
NMTTP	24	96	7	B	0	M1
NMTTP	24	96	7	E	1	M1
NMTTP	24	192	4	B	0	M1
NMTTP	24	192	5	E	1	M1
NMTTP	24	288	7	B	0	M1
NMTTP	24	288	7	E	1	M1
NMHLD	25	0	1	288
NMTTP	25	0	4	B	0	M1
NMTTP	25	0	5	E	1	M1
NMTTP	25	96	7	B	0	M1
NMTTP	25	96	7	E	1	M1
NMTTP	25	192	4	B	0	M1
NMTTP	25	192	5	E	1	M1
NMTTP	25	288	7	B	0	M1
NMTTP	25	288	7	E	1	M1
NMTAP	26	0	2
NMTAP	26	48	3
NMTAP	26	144	1
NMTAP	26	240	1
NMTAP	26	288	4
NMTAP	27	0	3
NMTAP	27	0	4
NMTAP	27	96	6
NMHLD	27	192	4	96
NMHLD	27	192	5	96
NMTAP	28	0	3
NMTAP	28	0	6
NMSTR	28	96	1
NMSI_	28	96	1	96	48	5
NMTAP	28	192	7
NMTAP	28	288	7
NMTAP	29	0	4
NMTAP	29	0	6
NMSTR	29	96	0
NMSI_	29	96	0	96	48	4
NMTAP	29	192	6
NMTAP	29	288	6
NMTAP	30	0	3
NMTAP	30	0	5
NMTAP	30	96	4
NMTAP	30	192	2
NMTAP	30	240	2
NMTAP	30	288	3
NMTAP	31	0	1
NMSTR	31	96	0
NMSCR	31	96	0	96	96	4
NMTAP	31	192	5
NMSTR	31	288	6
NMSI_	31	288	6	96	48	3
NMTAP	32	0	6
NMTAP	32	0	7
NMSTR	32	96	7
NMSI_	32	96	7	96	48	2
NMTAP	32	192	6
NMTAP	32	192	7
NMSTR	32	288	6
NMSI_	32	288	6	96	48	3
NMTAP	33	0	6
NMTAP	33	0	7
NMSTR	33	96	7
NMSI_	33	96	7	96	48	2
NMTAP	33	192	6
NMTAP	33	192	7
NMTAP	33	288	6
NMSTR	34	0	0
NMSUR	34	0	0	96	288	3
NMTAP	34	96	6
NMTAP	34	192	5
NMHLD	34	288	4	96
BRTAP	35	192	2
BRTAP	35	192	4
NMTAP	36	0	1
NMTAP	36	0	3
NMTAP	36	96	2
NMTAP	36	144	3
NMTAP	36	240	1
NMTAP	36	288	0
NMTAP	37	0	3
NMSTR	37	48	4
NMSI_	37	48	4	96	48	0
NMTAP	37	144	1
NMTAP	37	144	4
NMTAP	37	240	2
NMHLD	37	288	2	96
NMSTR	38	0	0
NMSUL	38	0	0	96	96	4
NMSTR	38	96	2
NMSI_	38	96	2	96	96	6
NMTAP	39	0	0
NMTAP	39	0	5
NMTAP	39	96	0
NMTAP	39	96	5
NMHLD	39	144	0	144
NMHLD	39	144	5	144
NMTAP	40	0	1
NMTAP	40	0	4
NMTAP	40	96	3
NMTAP	40	144	2
NMTAP	40	240	6
NMTAP	40	288	7
NMTAP	41	0	5
NMSTR	41	48	4
NMSI_	41	48	4	96	48	1
NMTAP	41	144	4
NMTAP	41	144	5
NMTAP	41	240	7
NMTAP	41	288	7
NMTAP	42	0	0
NMTAP	42	0	1
NMTAP	42	96	0
NMSTR	42	96	7
NMSI_	42	96	7	96	48	3
NMTAP	42	192	6
NMTAP	42	192	7
NMTAP	43	0	4
NMTAP	43	0	5
NMSTR	43	96	3
NMSV_	43	96	3	96	96	6
NMTAP	43	96	4
NMTAP	43	192	2
NMTAP	43	192	3
NMTAP	44	0	4
NMHLD	44	0	5	384
NMTAP	44	192	7
NMTAP	45	0	4
NMHLD	45	96	4	288
NMTAP	45	192	6
NMHLD	46	0	5	384
NMTAP	46	192	7
NMTAP	47	0	4
NMHLD	47	96	4	288
NMTAP	47	192	6
NMSTR	48	0	6
NMSI_	48	0	6	96	48	2
NMTAP	48	96	0
NMSTR	48	192	1
NMSI_	48	192	1	96	48	5
NMTAP	48	288	7
NMHLD	49	0	4	96
NMHLD	49	0	6	96
NMHLD	49	192	1	96
NMHLD	49	192	3	96
NMSTR	50	0	7
NMSI_	50	0	7	96	48	3
NMTAP	50	96	1
NMSTR	50	192	0
NMSI_	50	192	0	96	48	4
NMTAP	50	288	6
NMHLD	51	0	3	96
NMHLD	51	0	5	96
NMHLD	51	192	1	96
NMHLD	51	192	7	96
NMTAP	52	0	4
NMHLD	52	0	5	384
NMTAP	52	192	7
NMTAP	53	0	4
NMHLD	53	96	4	288
NMTAP	53	192	6
NMHLD	54	0	5	384
NMTAP	54	192	7
NMTAP	55	0	4
NMHLD	55	96	4	288
NMTAP	55	192	6
NMTAP	56	0	7
NMTAP	56	96	3
NMTAP	56	96	7
NMTAP	56	192	2
NMTAP	56	192	7
NMTAP	56	288	1
NMTAP	56	288	7
NMTAP	57	0	0
NMTAP	57	0	7
NMTAP	57	96	0
NMTAP	57	96	6
NMTAP	57	192	0
NMTAP	57	192	5
NMTAP	57	288	0
NMTAP	57	288	4
NMTAP	58	0	0
NMTAP	58	0	3
NMTAP	58	96	0
NMTAP	58	96	3
NMSTR	58	192	3
NMSCR	58	192	3	96	96	6
EXSTR	58	288	3
NMSCL	58	288	3	96	96	0
EXTAP	59	0	3
BXTAP	59	96	7
BXTAP	59	192	7
NMTAP	60	0	0
NMTAP	60	0	1
NMTAP	60	96	6
NMTAP	60	96	7
NMTAP	60	192	5
NMTAP	60	240	4
NMHLD	60	288	6	96
NMTAP	61	0	4
NMTAP	61	96	4
NMTAP	61	144	2
NMTAP	61	240	2
NMSTR	61	288	0
NMSI_	61	288	0	96	48	4
NMTAP	62	0	0
NMTAP	62	0	6
NMSTR	62	96	6
NMSI_	62	96	6	96	48	2
NMTAP	62	192	0
NMTAP	62	192	6
NMSTR	62	288	3
NMSI_	62	288	3	96	48	7
NMTAP	63	0	3
NMTAP	63	0	5
NMSTR	63	96	4
NMSI_	63	96	4	96	48	0
NMTAP	63	192	2
NMTAP	63	192	4
NMSTR	63	288	1
NMSI_	63	288	1	96	48	4
NMSI_	63	288	1	96	48	6
NMTAP	64	0	1
NMTAP	64	192	4
NMTAP	64	192	5
NMTAP	64	288	6
NMTAP	64	288	7
NMTAP	65	0	0
NMTAP	65	0	1
NMTAP	65	96	2
NMTAP	65	96	3
NMTAP	65	192	5
NMTAP	65	240	5
NMTAP	65	288	4
NMSTR	66	0	3
NMSI_	66	0	3	96	48	0
NMSTR	66	0	7
NMSI_	66	0	7	96	48	4
NMSTR	66	192	3
NMSI_	66	192	3	96	48	6
NMSTR	66	192	7
NMSI_	66	192	7	96	48	2
NMSTR	67	0	1
NMSI_	67	0	1	96	48	6
NMSTR	67	0	5
NMSI_	67	0	5	96	48	2
NMHLD	67	192	0	96
NMHLD	67	192	4	96
NMTAP	68	0	4
NMTAP	68	0	5
NMTAP	68	96	0
NMTAP	68	96	1
NMTAP	68	192	2
NMTAP	68	240	3
NMHLD	68	288	1	96
NMTAP	69	0	3
NMTAP	69	96	3
NMTAP	69	144	5
NMTAP	69	240	5
NMSTR	69	288	7
NMSI_	69	288	7	96	48	3
NMTAP	70	0	1
NMTAP	70	0	7
NMSTR	70	96	1
NMSI_	70	96	1	96	48	5
NMTAP	70	192	1
NMTAP	70	192	7
NMSTR	70	288	4
NMSI_	70	288	4	96	48	0
NMTAP	71	0	2
NMTAP	71	0	4
NMSTR	71	96	3
NMSI_	71	96	3	96	48	7
NMTAP	71	192	3
NMTAP	71	192	5
NMSTR	71	288	6
NMSI_	71	288	6	96	48	1
NMSI_	71	288	6	96	48	3
NMTAP	72	0	6
NMTAP	72	192	0
NMTAP	72	192	2
NMTAP	72	288	1
NMTAP	72	288	3
NMTAP	73	0	2
NMTAP	73	0	4
NMTAP	73	96	5
NMTAP	73	144	4
NMTAP	73	240	6
NMTAP	73	288	7
NMHLD	74	0	0	96
NMSTR	74	0	1
NMSI_	74	0	1	96	48	4
NMSTR	74	192	6
NMSI_	74	192	6	96	48	3
NMHLD	74	192	7	96
NMHLD	75	0	4	96
NMSTR	75	0	5
NMSI_	75	0	5	96	48	0
NMSTR	75	192	2
NMSI_	75	192	2	96	48	7
NMHLD	75	192	3	96
NMTTP	76	0	0	C	1	M1
NMTAP	76	192	4
NMTAP	76	192	6
NMTAP	76	288	5
NMTAP	77	0	1
NMTAP	77	0	3
NMTAP	77	96	2
NMTAP	77	192	5
NMTAP	77	240	4
NMTAP	77	288	5
NMSTR	78	0	6
NMSI_	78	0	6	96	48	2
NMSTR	78	0	7
NMSI_	78	0	7	96	48	3
NMSTR	78	192	0
NMSI_	78	192	0	96	48	4
NMSTR	78	192	1
NMSI_	78	192	1	96	48	5
NMSTR	79	0	2
NMSI_	79	0	2	96	48	6
NMSTR	79	0	3
NMSI_	79	0	3	96	48	7
NMHLD	79	192	4	96
NMHLD	79	192	5	96
NMTAP	80	0	2
NMTAP	80	0	3
NMTAP	80	96	2
NMTAP	80	144	3
NMTAP	80	192	1
NMTAP	80	240	4
NMTAP	80	288	0
NMTAP	80	336	5
NMTAP	81	0	7
NMTAP	81	192	6
NMHLD	81	192	7	192
NMTAP	81	288	5
NMHLD	82	0	4	672
EXTAP	82	96	7
EXTAP	82	144	7
EXTAP	82	192	7
EXTAP	82	240	7
EXTAP	82	288	7
EXTAP	82	336	7
EXTAP	83	0	7
EXTAP	83	48	7
EXTAP	83	96	7
EXTAP	83	144	7
EXTAP	83	192	7
NMHLD	83	288	0	192
NMTTP	84	0	4	B	0	M1
NMTTP	84	0	5	E	1	M1
NMTTP	84	96	7	B	0	M1
NMTTP	84	96	7	E	1	M1
NMHLD	84	192	1	96
NMTTP	84	192	4	B	0	M1
NMTTP	84	192	5	E	1	M1
NMTTP	84	288	7	B	0	M1
NMTTP	84	288	7	E	1	M1
NMHLD	85	0	2	96
NMTTP	85	0	4	B	0	M1
NMTTP	85	0	5	E	1	M1
NMTTP	85	96	7	B	0	M1
NMTTP	85	96	7	E	1	M1
NMHLD	85	192	3	96
NMTTP	85	192	4	B	0	M1
NMTTP	85	192	5	E	1	M1
NMTTP	85	288	7	B	0	M1
NMTTP	85	288	7	E	1	M1
NMHLD	86	0	2	96
NMTTP	86	0	4	B	0	M1
NMTTP	86	0	5	E	1	M1
NMTTP	86	96	7	B	0	M1
NMTTP	86	96	7	E	1	M1
NMHLD	86	192	1	96
NMTTP	86	192	4	B	0	M1
NMTTP	86	192	5	E	1	M1
NMTTP	86	288	7	B	0	M1
NMTTP	86	288	7	E	1	M1
NMHLD	87	0	0	96
NMTTP	87	0	4	B	0	M1
NMTTP	87	0	5	E	1	M1
NMTTP	87	96	7	B	0	M1
NMTTP	87	96	7	E	1	M1
NMHLD	87	192	1	96
NMTTP	87	192	4	B	0	M1
NMTTP	87	192	5	E	1	M1
NMTTP	87	288	7	B	0	M1
NMTTP	87	288	7	E	1	M1
NMHLD	88	0	2	96
NMTTP	88	0	4	B	0	M1
NMTTP	88	0	5	E	1	M1
NMTTP	88	96	7	B	0	M1
NMTTP	88	96	7	E	1	M1
NMHLD	88	192	3	96
NMTTP	88	192	4	B	0	M1
NMTTP	88	192	5	E	1	M1
NMTTP	88	288	7	B	0	M1
NMTTP	88	288	7	E	1	M1
NMHLD	89	0	2	96
NMTTP	89	0	4	B	0	M1
NMTTP	89	0	5	E	1	M1
NMTTP	89	96	7	B	0	M1
NMTTP	89	96	7	E	1	M1
NMHLD	89	192	1	96
NMTTP	89	192	4	B	0	M1
NMTTP	89	192	5	E	1	M1
NMTTP	89	288	7	B	0	M1
NMTTP	89	288	7	E	1	M1
BRHLD	91	0	0	288
BRHLD	91	0	7	288
NMSTR	92	0	3
NMSI_	92	0	3	96	1440	0
NMTTP	92	0	4	A	0	M1
NMTTP	92	0	5	E	1	M1
NMTTP	92	0	5	D	0	M1
NMTTP	92	96	7	E	1	M1
NMTTP	92	96	7	A	0	M1
NMTTP	92	96	7	D	0	M1
NMTTP	92	192	4	A	0	M1
NMTTP	92	192	5	E	1	M1
NMTTP	92	192	5	D	0	M1
NMTTP	92	288	7	E	1	M1
NMTTP	92	288	7	A	0	M1
NMTTP	92	288	7	D	0	M1
NMTTP	93	0	4	A	0	M1
NMTTP	93	0	5	E	1	M1
NMTTP	93	0	5	D	0	M1
NMTTP	93	96	7	E	1	M1
NMTTP	93	96	7	A	0	M1
NMTTP	93	96	7	D	0	M1
NMTTP	93	192	4	A	0	M1
NMTTP	93	192	5	E	1	M1
NMTTP	93	192	5	D	0	M1
NMTTP	93	288	7	E	1	M1
NMTTP	93	288	7	A	0	M1
NMTTP	93	288	7	D	0	M1
NMTTP	94	0	4	A	0	M1
NMTTP	94	0	5	E	1	M1
NMTTP	94	0	5	D	0	M1
NMTTP	94	96	7	E	1	M1
NMTTP	94	96	7	A	0	M1
NMTTP	94	96	7	D	0	M1
NMTTP	94	192	4	A	0	M1
NMTTP	94	192	5	E	1	M1
NMTTP	94	192	5	D	0	M1
NMTTP	94	288	7	E	1	M1
NMTTP	94	288	7	A	0	M1
NMTTP	94	288	7	D	0	M1
NMTTP	95	0	4	A	0	M1
NMTTP	95	0	5	E	1	M1
NMTTP	95	0	5	D	0	M1
NMTTP	95	96	7	E	1	M1
NMTTP	95	96	7	A	0	M1
NMTTP	95	96	7	D	0	M1
NMTTP	95	192	4	A	0	M1
NMTTP	95	192	5	E	1	M1
NMTTP	95	192	5	D	0	M1
NMTTP	95	288	7	E	1	M1
NMTTP	95	288	7	A	0	M1
NMTTP	95	288	7	D	0	M1
NMTTP	96	0	4	A	0	M1
NMTTP	96	0	5	E	1	M1
NMTTP	96	0	5	D	0	M1
NMTTP	96	96	7	E	1	M1
NMTTP	96	96	7	A	0	M1
NMTTP	96	96	7	D	0	M1
NMTTP	96	192	4	A	0	M1
NMTTP	96	192	5	E	1	M1
NMTTP	96	192	5	D	0	M1
NMTTP	96	288	7	E	1	M1
NMTTP	96	288	7	A	0	M1
NMTTP	96	288	7	D	0	M1
NMTTP	97	0	4	A	0	M1
NMTTP	97	0	5	E	1	M1
NMTTP	97	0	5	D	0	M1
NMTTP	97	96	7	E	1	M1
NMTTP	97	96	7	A	0	M1
NMTTP	97	96	7	D	0	M1
NMTTP	97	192	4	A	0	M1
NMTTP	97	192	5	E	1	M1
NMTTP	97	192	5	D	0	M1
NMTTP	97	288	7	E	1	M1
NMTTP	97	288	7	A	0	M1
NMTTP	97	288	7	D	0	M1
NMHLD	98	0	1	96
NMHLD	98	0	3	96
NMHLD	98	144	4	96
NMHLD	98	144	6	96
NMHLD	98	288	0	96
NMHLD	98	288	7	96
NMTAP	99	96	0
NMTAP	99	96	7
NMTAP	99	192	0
NMTAP	99	240	7
NMTAP	99	288	0
NMTAP	99	336	7
NMHLD	100	0	1	6048
NMHLD	100	0	6	6048
NMSTR	116	0	1
NMSI_	116	0	1	96	48	5
NMTAP	116	0	6
NMTAP	116	96	7
NMSTR	116	144	7
NMSI_	116	144	7	96	48	3
NMTAP	116	240	0
NMTAP	116	288	0
NMSTR	117	0	1
NMSI_	117	0	1	96	48	4
NMTAP	117	96	1
NMTAP	117	96	7
NMSTR	117	192	5
NMSI_	117	192	5	96	48	0
NMTAP	117	288	2
NMTAP	117	288	5
NMSTR	118	0	3
NMSI_	118	0	3	96	48	0
NMTAP	118	96	3
NMTAP	118	96	6
NMTAP	118	144	6
NMTAP	118	240	5
NMTAP	118	288	5
NMTAP	119	0	3
NMTAP	119	0	4
NMTAP	119	96	4
NMTAP	119	96	5
NMTAP	119	192	5
NMTAP	119	240	4
NMTAP	119	288	5
NMTAP	119	336	4
NMSTR	120	0	5
NMSCR	120	0	5	96	48	0
NMTAP	120	96	1
NMSTR	120	144	1
NMSCR	120	144	1	96	48	4
NMTAP	120	240	6
NMTAP	120	288	6
NMSTR	121	0	0
NMSI_	121	0	0	96	48	4
BRTAP	121	96	0
BRTAP	121	96	5
NMSTR	121	192	7
NMSI_	121	192	7	96	48	3
BRTAP	121	288	2
BRTAP	121	288	7
NMHLD	122	0	2	192
NMTAP	122	96	3
NMTAP	122	144	3
NMTAP	122	192	3
NMHLD	122	288	1	96
NMHLD	122	288	4	96
NMTAP	123	96	5
NMTAP	123	144	0
NMTAP	123	192	5
NMTAP	123	240	0
NMTAP	123	288	5
NMSTR	124	0	5
NMSI_	124	0	5	96	48	3
NMTAP	124	96	2
NMTAP	124	144	2
NMTAP	124	240	0
NMSTR	124	288	0
NMSLL	124	288	0	96	96	4
NMSTR	125	0	4
NMSLL	125	0	4	96	96	0
NMSTR	125	96	0
NMSLL	125	96	0	96	96	4
NMTAP	125	192	4
NMTAP	125	288	0
NMSTR	126	0	7
NMSLL	126	0	7	96	96	3
NMTAP	126	96	2
NMTAP	126	144	2
NMTAP	126	240	0
NMTAP	126	288	0
NMTAP	127	0	6
NMTAP	127	0	7
NMTAP	127	96	4
NMTAP	127	96	5
NMTAP	127	192	2
NMTAP	127	240	3
NMTAP	127	288	2
NMTAP	127	336	3
NMSTR	128	0	2
NMSI_	128	0	2	96	48	4
NMTAP	128	96	6
NMTAP	128	144	6
NMTAP	128	240	7
NMSTR	128	288	7
NMSCL	128	288	7	96	96	3
NMSTR	129	0	3
NMSCL	129	0	3	96	96	7
NMSTR	129	96	7
NMSCL	129	96	7	96	96	3
NMTAP	129	192	3
NMTAP	129	288	7
NMSTR	130	0	6
NMSI_	130	0	6	96	48	2
NMTAP	130	96	1
NMSTR	130	144	1
NMSI_	130	144	1	96	48	5
NMTAP	130	240	3
NMSTR	130	288	3
NMSI_	130	288	3	96	48	7
NMTAP	131	96	2
NMTAP	131	144	6
NMTAP	131	192	1
NMTAP	131	240	5
BRSTR	131	288	0
BRSI_	131	288	0	96	48	4
BRSTR	131	336	4
BRSI_	131	336	4	96	48	0

T_REC_TAP	257
T_REC_BRK	7
T_REC_XTP	12
T_REC_BXX	3
T_REC_HLD	87
T_REC_XHO	0
T_REC_BHO	2
T_REC_BXH	0
T_REC_STR	67
T_REC_BST	2
T_REC_XST	1
T_REC_XBS	0
T_REC_TTP	219
T_REC_THO	0
T_REC_SLD	70
T_REC_BSL	2
T_REC_ALL	729
T_NUM_TAP	556
T_NUM_BRK	16
T_NUM_HLD	87
T_NUM_SLD	70
T_NUM_ALL	729
T_JUDGE_TAP	568
T_JUDGE_HLD	296
T_JUDGE_SLD	72
T_JUDGE_ALL	936
TTM_EACHPAIRS	101
TTM_SCR_TAP	278000
TTM_SCR_BRK	41600
TTM_SCR_HLD	87000
TTM_SCR_SLD	105000
TTM_SCR_ALL	511600
TTM_SCR_S	494700
TTM_SCR_SS	510000
TTM_RAT_ACV	10031

