VERSION	0.00.00	1.04.00
FES_MODE	0
BPM_DEF	260.000	260.000	260.000	235.000
MET_DEF	4	4
RESOLUTION	384
CLK_DEF	384
COMPATIBLE_CODE	MA2

BPM	0	0	260.000
BPM	100	0	235.000
BPM	100	96	260.000
MET	0	0	4	4

NMHLD	4	0	5	384
NMHLD	5	0	4	384
NMHLD	6	0	3	384
NMTAP	7	0	2
NMTAP	8	0	2
NMTAP	8	192	2
NMTAP	8	192	3
NMTAP	9	0	5
NMTAP	9	192	4
NMTAP	9	192	5
NMHLD	10	0	3	192
NMHLD	10	0	4	192
EXTAP	11	0	2
EXTAP	11	0	5
EXTAP	11	96	2
EXTAP	11	96	5
EXTAP	11	192	2
EXTAP	11	192	5
NMTAP	12	0	6
NMTAP	12	0	7
NMTAP	12	96	6
NMTAP	12	96	7
NMTAP	12	192	0
NMTAP	12	192	5
NMTAP	12	288	0
NMTAP	12	288	5
NMTAP	13	0	6
NMTAP	13	0	7
NMTAP	13	96	6
NMTAP	13	96	7
NMTAP	13	192	0
NMTAP	13	192	5
NMTAP	14	0	0
NMTAP	14	0	7
NMTAP	14	96	0
NMTAP	14	96	7
NMTAP	14	192	1
NMTAP	14	192	6
NMTAP	14	288	1
NMTAP	14	288	6
NMTAP	15	0	0
NMTAP	15	0	7
NMTAP	15	96	0
NMTAP	15	96	7
NMTAP	15	192	1
NMTAP	15	192	6
NMTAP	16	0	0
NMTAP	16	0	1
NMTAP	16	96	0
NMTAP	16	96	1
NMTAP	16	192	2
NMTAP	16	192	7
NMTAP	16	288	2
NMTAP	16	288	7
NMTAP	17	0	0
NMTAP	17	0	1
NMTAP	17	96	0
NMTAP	17	96	1
NMTAP	17	192	2
NMTAP	17	192	7
NMSTR	18	0	6
NMSUL	18	0	6	96	384	4
NMTAP	20	0	0
NMTAP	20	0	1
NMTAP	20	96	0
NMTAP	20	96	1
NMTAP	20	192	2
NMTAP	20	192	7
NMTAP	20	288	2
NMTAP	20	288	7
NMTAP	21	0	0
NMTAP	21	0	1
NMTAP	21	96	0
NMTAP	21	96	1
NMTAP	21	192	2
NMTAP	21	192	7
NMTAP	22	0	0
NMTAP	22	0	7
NMTAP	22	96	0
NMTAP	22	96	7
NMTAP	22	192	1
NMTAP	22	192	6
NMTAP	22	288	1
NMTAP	22	288	6
NMTAP	23	0	0
NMTAP	23	0	7
NMTAP	23	96	0
NMTAP	23	96	7
NMTAP	23	192	1
NMTAP	23	192	6
NMTAP	24	0	6
NMTAP	24	0	7
NMTAP	24	96	6
NMTAP	24	96	7
NMTAP	24	192	0
NMTAP	24	192	5
NMTAP	24	288	0
NMTAP	24	288	5
NMTAP	25	0	6
NMTAP	25	0	7
NMTAP	25	96	6
NMTAP	25	96	7
NMTAP	25	192	0
NMTAP	25	192	5
NMSTR	26	0	1
NMSUR	26	0	1	96	384	3
NMHLD	28	0	6	192
NMTAP	28	192	4
NMHLD	29	0	1	192
NMTAP	29	192	3
NMHLD	30	0	6	192
NMHLD	30	192	4	192
NMHLD	31	0	3	192
EXTAP	31	192	1
NMTAP	32	0	0
NMTAP	32	96	0
NMTAP	32	192	1
NMTAP	32	192	3
NMTAP	33	0	7
NMTAP	33	96	7
NMTAP	33	192	4
NMTAP	33	192	6
NMHLD	34	0	1	192
NMHLD	34	192	3	192
NMHLD	35	0	4	192
EXTAP	35	192	6
NMTAP	36	0	7
NMTAP	36	96	7
NMTAP	36	192	0
NMTAP	36	192	6
NMTAP	37	0	2
NMTAP	37	96	2
NMTAP	37	192	1
NMTAP	37	192	3
NMTAP	38	0	5
NMTAP	38	96	5
NMTAP	38	192	4
NMTAP	38	192	6
EXHLD	39	0	0	192
EXHLD	39	0	7	192
NMTAP	40	0	0
NMTAP	40	96	0
NMTAP	40	192	1
NMTAP	40	192	7
NMTAP	41	0	5
NMTAP	41	96	5
NMTAP	41	192	4
NMTAP	41	192	6
NMTAP	42	0	2
NMTAP	42	96	2
NMTAP	42	192	1
NMTAP	42	192	3
NMTAP	43	0	0
NMTAP	43	96	0
BRTAP	43	192	1
BRTAP	43	192	7
NMTTP	44	0	7	E	0	M1
NMTTP	44	192	6	E	0	M1
NMTTP	45	0	0	C	0	M1
NMTTP	45	0	5	E	0	M1
NMTTP	45	192	4	E	0	M1
NMTTP	46	0	3	E	0	M1
NMTTP	46	192	2	E	0	M1
NMTTP	47	0	0	C	0	M1
NMTTP	47	0	1	E	0	M1
NMTTP	47	192	0	E	0	M1
NMTAP	48	0	6
NMTAP	48	96	6
NMTAP	48	192	4
NMTAP	48	192	5
NMTAP	49	0	2
NMTAP	49	96	2
NMTAP	49	192	1
NMTAP	49	192	3
NMTAP	50	0	1
NMTAP	50	96	1
NMTAP	50	192	2
NMTAP	50	192	3
NMTAP	51	0	5
NMTAP	51	96	5
NMTAP	51	192	4
NMTAP	51	192	6
NMTTP	52	0	3	E	0	M1
NMTTP	52	192	2	E	0	M1
NMTTP	53	0	0	C	0	M1
NMTTP	53	0	1	E	0	M1
NMTTP	53	192	0	E	0	M1
NMTTP	54	0	7	E	0	M1
NMTTP	54	192	6	E	0	M1
NMTTP	55	0	0	C	0	M1
NMTTP	55	0	5	E	0	M1
NMTTP	55	192	4	E	0	M1
NMHLD	56	0	1	672
NMTAP	56	192	0
NMTAP	56	288	0
NMTAP	57	0	0
NMTAP	57	96	0
NMTAP	57	192	0
NMTAP	57	288	0
EXTAP	58	0	2
EXTAP	58	0	7
BRTAP	59	96	0
BRTAP	59	96	5
BRTAP	59	192	0
BRTAP	59	192	5
NMTAP	60	0	6
NMTAP	60	96	6
NMTAP	60	96	7
NMTAP	60	192	1
NMTAP	60	288	0
NMTAP	60	288	1
NMTAP	61	0	2
NMTAP	61	96	2
NMTAP	61	96	3
NMTAP	61	192	2
NMTAP	61	192	3
NMTAP	61	288	1
NMTAP	61	288	4
NMTAP	62	0	1
NMTAP	62	0	4
NMTAP	62	96	4
NMTAP	62	96	5
NMTAP	62	192	6
NMTAP	62	288	7
NMTAP	63	0	2
NMTAP	63	0	3
NMTAP	63	96	1
NMTAP	63	192	0
EXTAP	63	288	1
EXTAP	63	288	7
EXTAP	64	0	2
EXTAP	64	0	6
NMSTR	64	192	5
NMSI_	64	192	5	96	96	0
NMSTR	65	0	1
NMSI_	65	0	1	96	96	4
NMSTR	65	192	5
NMSCR	65	192	5	96	96	0
NMSTR	66	0	1
NMSCR	66	0	1	96	96	4
NMTAP	66	192	7
NMTAP	67	0	0
NMTAP	67	0	6
NMTAP	67	96	1
NMTAP	67	96	5
BRTAP	67	192	2
BRTAP	67	192	4
NMTAP	68	0	1
NMTAP	68	96	0
NMTAP	68	96	1
NMTAP	68	192	6
NMTAP	68	288	6
NMTAP	68	288	7
NMTAP	69	0	5
NMTAP	69	96	4
NMTAP	69	96	5
NMTAP	69	192	4
NMTAP	69	192	5
NMTAP	69	288	3
NMTAP	69	288	6
NMTAP	70	0	3
NMTAP	70	0	6
NMTAP	70	96	2
NMTAP	70	96	3
NMTAP	70	192	1
NMTAP	70	288	0
NMTAP	71	0	4
NMTAP	71	0	5
NMTAP	71	96	6
NMTAP	71	192	7
EXTAP	71	288	0
EXTAP	71	288	6
EXTAP	72	0	1
EXTAP	72	0	5
NMSTR	72	192	2
NMSI_	72	192	2	96	96	7
NMSTR	73	0	6
NMSI_	73	0	6	96	96	3
NMSTR	73	192	2
NMSCL	73	192	2	96	96	7
NMSTR	74	0	6
NMSCL	74	0	6	96	96	3
NMHLD	74	192	2	192
NMHLD	75	0	0	192
NMHLD	75	192	7	192
NMTAP	76	0	5
NMTAP	76	192	6
NMTAP	76	288	6
NMTAP	77	0	0
NMTAP	77	96	0
NMTAP	77	192	7
NMTAP	77	288	7
NMHLD	78	0	1	192
NMHLD	78	192	3	192
NMHLD	79	0	4	192
NMHLD	79	192	6	192
NMTAP	80	0	1
NMTAP	80	96	1
NMTAP	80	192	0
NMTAP	80	192	7
NMTAP	80	288	0
NMTAP	80	288	7
BRTAP	81	0	1
BRTAP	81	0	6
NMTAP	81	192	3
NMTAP	81	192	4
NMTAP	82	0	1
NMTAP	82	0	6
EXTAP	82	96	0
EXTAP	82	144	7
EXTAP	82	192	0
EXTAP	82	240	7
EXTAP	82	288	0
EXTAP	82	336	7
EXTAP	83	0	0
EXTAP	83	48	7
EXTAP	83	96	0
EXTAP	83	144	7
EXTAP	83	192	0
NMTAP	84	0	6
NMTAP	84	0	7
NMTAP	84	96	0
NMTAP	84	96	5
NMTAP	84	192	6
NMTAP	84	192	7
NMTAP	84	288	0
NMTAP	84	288	5
NMTAP	85	0	6
NMTAP	85	0	7
NMTAP	85	96	0
NMTAP	85	96	5
NMTAP	85	192	6
NMTAP	85	192	7
NMTAP	85	288	6
NMTAP	85	288	7
NMTAP	86	0	0
NMTAP	86	0	7
NMTAP	86	96	1
NMTAP	86	96	6
NMTAP	86	192	0
NMTAP	86	192	7
NMTAP	86	288	1
NMTAP	86	288	6
NMTAP	87	0	0
NMTAP	87	0	7
NMTAP	87	96	1
NMTAP	87	96	6
NMTAP	87	192	0
NMTAP	87	192	7
NMTAP	87	288	0
NMTAP	87	288	7
NMTAP	88	0	0
NMTAP	88	0	1
NMTAP	88	96	2
NMTAP	88	96	7
NMTAP	88	192	0
NMTAP	88	192	1
NMTAP	88	288	2
NMTAP	88	288	7
NMTAP	89	0	0
NMTAP	89	0	1
NMTAP	89	96	2
NMTAP	89	96	7
NMTAP	89	192	0
NMTAP	89	192	1
NMTAP	89	288	0
NMTAP	89	288	1
NMHLD	90	0	2	96
NMHLD	90	0	3	96
NMHLD	90	192	4	96
NMHLD	90	192	5	96
NMHLD	91	0	2	96
NMHLD	91	0	3	96
BRTAP	91	192	1
BRTAP	91	192	4
NMTAP	92	0	0
NMTAP	92	0	1
NMTAP	92	96	2
NMTAP	92	96	7
NMTAP	92	192	0
NMTAP	92	192	1
NMTAP	92	288	2
NMTAP	92	288	7
NMTAP	93	0	0
NMTAP	93	0	1
NMTAP	93	96	2
NMTAP	93	96	7
NMTAP	93	192	0
NMTAP	93	192	1
NMTAP	93	288	0
NMTAP	93	288	1
NMTAP	94	0	0
NMTAP	94	0	7
NMTAP	94	96	1
NMTAP	94	96	6
NMTAP	94	192	0
NMTAP	94	192	7
NMTAP	94	288	1
NMTAP	94	288	6
NMTAP	95	0	0
NMTAP	95	0	7
NMTAP	95	96	1
NMTAP	95	96	6
NMTAP	95	192	0
NMTAP	95	192	7
NMTAP	95	288	0
NMTAP	95	288	7
NMTAP	96	0	6
NMTAP	96	0	7
NMTAP	96	96	0
NMTAP	96	96	5
NMTAP	96	192	6
NMTAP	96	192	7
NMTAP	96	288	0
NMTAP	96	288	5
NMTAP	97	0	6
NMTAP	97	0	7
NMTAP	97	96	0
NMTAP	97	96	5
NMTAP	97	192	6
NMTAP	97	192	7
NMSTR	98	0	5
NMSXL	98	0	5	96	480	3
NMHLD	99	192	0	5952
NMHLD	100	0	7	5760
EXTAP	115	192	1
EXTAP	115	192	6
NMTAP	116	0	5
NMTAP	116	96	4
NMTAP	116	96	5
NMTAP	116	192	2
NMTAP	116	288	2
NMTAP	116	288	3
NMTAP	117	0	1
NMTAP	117	96	0
NMTAP	117	96	7
NMTAP	117	192	6
NMTAP	117	288	3
NMTAP	117	288	5
NMTAP	118	0	2
NMTAP	118	96	2
NMTAP	118	96	3
NMTAP	118	192	5
NMTAP	118	288	4
NMTAP	118	288	5
NMTAP	119	0	6
NMTAP	119	96	0
NMTAP	119	96	7
NMTAP	119	192	1
NMTAP	119	288	2
NMTAP	119	288	4
NMTAP	120	0	5
NMTAP	120	96	4
NMTAP	120	96	5
NMTAP	120	192	2
NMTAP	120	288	2
NMTAP	120	288	3
NMTAP	121	0	1
NMTAP	121	96	0
NMTAP	121	96	7
NMTAP	121	192	6
NMTAP	121	288	4
NMTAP	121	288	5
NMTAP	122	0	3
NMHLD	122	0	6	192
NMHLD	122	192	4	192
NMHLD	123	0	3	192
NMTAP	123	192	1
NMTAP	124	0	1
NMTAP	124	96	0
NMTAP	124	96	1
NMTAP	124	192	6
NMTAP	124	288	6
NMTAP	124	288	7
NMTAP	125	0	5
NMTAP	125	96	3
NMTAP	125	96	4
NMTAP	125	192	2
NMTAP	125	288	0
NMTAP	125	288	1
NMTAP	126	0	6
NMTAP	126	96	6
NMTAP	126	96	7
NMTAP	126	192	1
NMTAP	126	288	0
NMTAP	126	288	1
NMTAP	127	0	2
NMTAP	127	96	3
NMTAP	127	96	4
NMTAP	127	192	5
NMTAP	127	288	6
NMTAP	127	288	7
NMTAP	128	0	1
NMTAP	128	96	0
NMTAP	128	96	1
NMTAP	128	192	6
NMTAP	128	288	6
NMTAP	128	288	7
NMTAP	129	0	5
NMTAP	129	96	3
NMTAP	129	96	4
NMTAP	129	192	3
NMTAP	129	192	4
NMHLD	130	0	1	144
NMHLD	130	144	3	144
NMTAP	130	288	4
NMTAP	131	0	4
NMTAP	131	192	1
NMTAP	131	192	7
BRTAP	132	0	2
BRTAP	132	0	6

T_REC_TAP	388
T_REC_BRK	14
T_REC_XTP	31
T_REC_BXX	0
T_REC_HLD	34
T_REC_XHO	2
T_REC_BHO	0
T_REC_BXH	0
T_REC_STR	11
T_REC_BST	0
T_REC_XST	0
T_REC_XBS	0
T_REC_TTP	20
T_REC_THO	0
T_REC_SLD	11
T_REC_BSL	0
T_REC_ALL	511
T_NUM_TAP	450
T_NUM_BRK	14
T_NUM_HLD	36
T_NUM_SLD	11
T_NUM_ALL	511
T_JUDGE_TAP	464
T_JUDGE_HLD	197
T_JUDGE_SLD	11
T_JUDGE_ALL	672
TTM_EACHPAIRS	172
TTM_SCR_TAP	225000
TTM_SCR_BRK	36400
TTM_SCR_HLD	36000
TTM_SCR_SLD	16500
TTM_SCR_ALL	313900
TTM_SCR_S	303150
TTM_SCR_SS	312500
TTM_RAT_ACV	10044

