VERSION	0.00.00	1.04.00
FES_MODE	0
BPM_DEF	180.000	180.000	180.000	180.000
MET_DEF	4	4
RESOLUTION	384
CLK_DEF	384
COMPATIBLE_CODE	MA2

BPM	0	0	180.000
MET	0	0	4	4

NMHLD	1	0	1	576
NMHLD	1	0	3	576
NMTAP	2	288	1
NMTAP	2	288	3
NMHLD	3	0	2	576
NMHLD	3	0	4	576
NMTAP	4	288	2
NMTAP	4	288	4
NMTAP	4	336	2
NMTAP	4	336	4
NMHLD	5	0	3	480
NMHLD	5	0	5	480
NMTAP	6	192	3
NMTAP	6	192	5
NMTAP	6	288	4
NMTAP	6	288	6
NMTAP	6	336	4
NMTAP	6	336	6
NMHLD	7	0	4	288
NMHLD	7	0	6	288
EXSTR	8	0	6
NMSSR	8	0	6	96	144	2
EXSTR	8	0	7
NMSSL	8	0	7	96	144	3
EXTAP	9	0	2
EXTAP	9	0	3
NMTAP	9	96	1
NMTAP	9	144	1
NMHLD	9	240	2	96
NMTAP	9	240	3
NMSTR	9	336	1
NMSI_	9	336	1	96	48	3
NMHLD	10	144	0	144
NMTAP	10	240	3
NMTAP	10	288	3
NMTAP	11	0	2
NMTAP	11	0	3
NMTAP	11	96	1
NMTAP	11	96	4
NMTAP	11	144	1
NMTAP	11	144	4
NMSTR	11	240	2
NMSI_	11	240	2	96	48	4
NMTAP	11	240	3
NMHLD	12	144	5	96
NMTAP	12	240	4
NMTAP	12	288	4
NMTAP	13	0	4
NMTAP	13	0	5
NMTAP	13	96	6
NMTAP	13	144	6
NMTAP	13	240	4
NMHLD	13	240	5	96
NMSTR	13	336	6
NMSI_	13	336	6	96	48	4
NMHLD	14	144	7	144
NMTAP	14	240	4
NMTAP	14	288	4
NMHLD	15	0	5	96
NMTAP	15	96	6
NMHLD	15	144	6	96
NMSTR	15	240	7
NMSCL	15	240	7	96	48	4
CNSV_	16	0	4	0	96	2
EXTAP	16	144	0
EXTAP	16	192	0
EXTAP	16	288	1
EXTAP	16	288	7
EXSTR	17	0	1
NMSI_	17	0	1	96	24	3
CNSCL	17	120	3	0	24	2
CNSI_	17	144	2	0	96	7
NMSTR	17	144	7
NMSCL	17	144	7	96	144	3
NMSTR	17	288	3
NMSUL	17	288	3	96	144	1
CNSCL	18	144	1	0	144	7
EXSTR	19	0	5
NMSI_	19	0	5	96	24	7
CNSCL	19	120	7	0	24	6
NMSTR	19	144	3
NMSCL	19	144	3	96	144	7
CNSI_	19	144	6	0	96	3
NMSTR	19	288	7
NMSI_	19	288	7	96	96	5
NMSTR	20	48	3
NMSUL	20	48	3	96	144	1
CNSI_	20	96	5	0	48	3
EXSTR	21	0	0
NMSI_	21	0	0	96	48	4
NMTAP	21	96	6
EXSTR	21	144	6
NMSI_	21	144	6	96	48	2
EXTAP	21	240	4
EXSTR	21	336	3
NMSCL	21	336	3	96	48	7
NMTAP	22	192	5
NMTAP	22	192	7
NMTAP	22	240	5
NMTAP	22	240	7
NMTAP	23	0	1
NMTAP	23	0	4
NMTAP	23	48	2
NMTAP	23	96	3
NMSTR	23	144	1
NMSUR	23	144	1	96	144	3
NMSTR	23	144	4
NMSUL	23	144	4	96	144	2
NMHLD	24	144	0	144
NMHLD	24	144	5	144
NMTAP	25	0	2
NMTAP	25	48	2
NMTAP	25	72	3
NMTAP	25	96	2
NMTAP	25	144	2
NMTAP	25	192	2
NMTAP	25	216	3
NMTAP	25	240	2
NMTAP	25	288	2
NMTAP	25	288	3
NMTAP	26	0	5
NMTAP	26	48	5
NMTAP	26	72	4
NMTAP	26	96	5
NMTAP	26	144	5
NMTAP	26	192	5
NMTAP	26	216	4
NMTAP	26	240	5
NMTAP	26	288	4
NMTAP	26	288	5
NMTAP	27	0	2
NMTAP	27	48	2
NMTAP	27	72	3
NMTAP	27	96	2
NMTAP	27	144	2
NMTAP	27	192	2
NMTAP	27	216	3
NMTAP	27	240	2
NMTAP	27	288	2
NMTAP	27	288	3
NMTAP	28	0	5
NMTAP	28	48	5
NMTAP	28	72	4
NMTAP	28	96	5
NMTAP	28	144	5
NMTAP	28	192	5
NMTAP	28	216	4
NMTAP	28	240	5
NMTAP	28	288	4
NMTAP	28	288	5
NMTAP	29	0	1
NMTAP	29	48	1
NMTAP	29	72	3
NMTAP	29	96	1
NMTAP	29	144	1
NMTAP	29	192	1
NMTAP	29	216	3
NMTAP	29	240	1
NMTAP	29	288	1
NMTAP	29	288	3
NMTAP	30	0	6
NMTAP	30	48	6
NMTAP	30	72	4
NMTAP	30	96	6
NMTAP	30	144	6
NMTAP	30	192	6
NMTAP	30	216	4
NMTAP	30	240	6
NMTAP	30	288	4
NMTAP	30	288	6
NMTAP	31	0	2
NMTAP	31	48	2
NMTAP	31	72	0
NMTAP	31	96	2
NMTAP	31	144	2
NMTAP	31	192	2
NMTAP	31	216	0
NMTAP	31	240	2
NMSTR	31	288	0
NMSV_	31	288	0	96	48	5
NMSTR	31	288	2
NMSV_	31	288	2	96	48	5
BRTAP	32	144	3
BRTAP	32	144	7
NMSTR	32	288	0
NMSI_	32	288	0	96	48	3
NMTAP	32	288	6
EXTAP	33	0	0
NMTAP	33	96	4
NMTAP	33	96	5
NMHLD	33	144	3	96
NMTAP	33	144	7
NMTAP	33	240	2
NMTAP	33	288	1
NMSTR	33	336	0
NMSI_	33	336	0	96	48	4
NMTAP	34	48	0
NMTAP	34	48	5
NMTAP	34	96	6
NMTAP	34	144	7
NMTAP	34	240	3
NMTAP	34	288	2
NMSTR	34	288	4
NMSI_	34	288	4	96	48	1
NMTAP	35	0	4
NMTAP	35	0	5
NMSTR	35	48	5
NMSI_	35	48	5	96	48	0
NMTAP	35	144	2
NMSTR	35	192	2
NMSCL	35	192	2	96	48	6
NMTAP	35	288	3
NMTAP	35	336	3
NMTAP	36	48	5
NMTAP	36	96	4
NMTAP	36	96	5
NMTAP	36	144	3
NMTAP	36	144	7
NMTAP	36	240	2
NMTAP	36	240	3
NMTAP	36	288	0
NMSTR	36	288	4
NMSI_	36	288	4	96	48	7
EXTAP	37	0	4
NMTAP	37	96	0
NMTAP	37	96	1
NMTAP	37	144	3
NMHLD	37	144	7	96
NMTAP	37	240	6
NMTAP	37	288	5
NMSTR	37	336	4
NMSI_	37	336	4	96	48	0
NMTAP	38	48	1
NMTAP	38	48	4
NMTAP	38	96	2
NMTAP	38	144	3
NMTAP	38	240	7
NMSTR	38	288	0
NMSI_	38	288	0	96	48	5
NMTAP	38	288	6
NMTAP	39	0	0
NMTAP	39	0	1
NMSTR	39	48	1
NMSI_	39	48	1	96	48	4
NMTAP	39	144	6
NMSTR	39	192	6
NMSCL	39	192	6	96	48	2
NMTAP	39	288	7
NMTAP	39	336	7
NMTAP	40	48	1
NMTAP	40	96	0
NMTAP	40	96	1
NMHLD	40	144	3	96
NMHLD	40	144	6	96
BRTAP	40	288	0
BRTAP	40	288	1
EXTAP	41	0	1
NMHLD	41	0	7	288
NMTTP	41	12	2	E	0	M1
NMTTP	41	24	2	B	0	M1
NMTTP	41	36	3	B	0	M1
NMTTP	41	48	4	E	0	M1
EXTAP	41	144	1
NMTTP	41	156	1	E	0	M1
NMTTP	41	168	0	B	0	M1
NMTTP	41	180	7	B	0	M1
NMTTP	41	192	7	E	0	M1
EXSTR	41	288	1
NMSCL	41	288	1	96	144	5
NMTTP	41	300	2	E	0	M1
NMTTP	41	312	2	B	0	M1
NMTTP	41	324	3	B	0	M1
NMTTP	41	336	4	E	0	M1
EXTAP	42	240	2
EXTAP	42	240	5
EXTAP	42	288	2
EXTAP	42	288	5
NMHLD	43	0	0	288
EXTAP	43	0	6
NMTTP	43	12	6	E	0	M1
NMTTP	43	24	5	B	0	M1
NMTTP	43	36	4	B	0	M1
NMTTP	43	48	4	E	0	M1
EXTAP	43	144	6
NMTTP	43	156	7	E	0	M1
NMTTP	43	168	7	B	0	M1
NMTTP	43	180	0	B	0	M1
NMTTP	43	192	1	E	0	M1
EXSTR	43	288	6
NMSLR	43	288	6	96	144	3
NMTTP	43	300	6	E	0	M1
NMTTP	43	312	5	B	0	M1
NMTTP	43	324	4	B	0	M1
NMTTP	43	336	4	E	0	M1
EXTAP	44	240	1
EXTAP	44	240	4
EXTAP	44	288	1
EXTAP	44	288	4
EXTAP	45	0	1
NMHLD	45	0	7	288
NMTTP	45	12	2	E	0	M1
NMTTP	45	24	2	B	0	M1
NMTTP	45	36	3	B	0	M1
NMTTP	45	48	4	E	0	M1
EXTAP	45	144	1
NMTTP	45	156	1	E	0	M1
NMTTP	45	168	0	B	0	M1
NMTTP	45	180	7	B	0	M1
NMTTP	45	192	7	E	0	M1
EXSTR	45	288	1
NMSCL	45	288	1	96	144	5
NMTTP	45	300	2	E	0	M1
NMTTP	45	312	2	B	0	M1
NMTTP	45	324	3	B	0	M1
NMTTP	45	336	4	E	0	M1
EXTAP	46	240	2
EXTAP	46	240	5
EXTAP	46	288	2
EXTAP	46	288	5
NMHLD	47	0	0	288
EXTAP	47	0	6
NMTTP	47	12	6	E	0	M1
NMTTP	47	24	5	B	0	M1
NMTTP	47	36	4	B	0	M1
NMTTP	47	48	4	E	0	M1
EXTAP	47	144	6
NMTTP	47	156	7	E	0	M1
NMTTP	47	168	7	B	0	M1
NMTTP	47	180	0	B	0	M1
NMTTP	47	192	1	E	0	M1
EXSTR	47	288	6
NMSLR	47	288	6	96	144	3
NMTTP	47	300	6	E	0	M1
NMTTP	47	312	5	B	0	M1
NMTTP	47	324	4	B	0	M1
NMTTP	47	336	4	E	0	M1
BRTAP	48	240	2
BRTAP	48	240	5
BRTAP	48	288	2
BRTAP	48	288	5
NMHLD	49	0	1	528
NMTAP	49	0	7
NMTTP	49	144	5	E	0	M1
NMTTP	49	144	5	A	0	M1
NMTTP	49	144	6	E	0	M1
NMTTP	49	336	0	E	0	M1
NMTTP	49	336	7	E	0	M1
NMTTP	49	336	7	A	0	M1
NMTTP	50	144	1	E	0	M1
NMTTP	50	144	2	E	0	M1
NMHLD	51	0	6	528
NMTTP	51	144	2	E	0	M1
NMTTP	51	144	2	A	0	M1
NMTTP	51	144	3	E	0	M1
NMTTP	51	336	0	E	0	M1
NMTTP	51	336	0	A	0	M1
NMTTP	51	336	1	E	0	M1
NMTTP	52	144	6	E	0	M1
NMTTP	52	144	7	E	0	M1
NMHLD	53	0	1	528
NMTTP	53	144	0	E	0	M1
NMTTP	53	144	7	E	0	M1
NMTTP	53	144	7	A	0	M1
NMTTP	53	336	1	E	0	M1
NMTTP	53	336	2	E	0	M1
NMTTP	54	144	3	E	0	M1
NMTTP	54	144	3	A	0	M1
NMTTP	54	144	4	E	0	M1
NMHLD	55	0	5	336
NMTTP	55	144	0	E	0	M1
NMTTP	55	144	0	A	0	M1
NMTTP	55	144	1	E	0	M1
NMTHO	55	336	0	192	C	0	M1
NMTTP	56	144	1	B	0	M1
NMTTP	56	144	2	B	0	M1
NMTTP	56	144	5	B	0	M1
NMTTP	56	144	6	B	0	M1
NMTAP	57	0	2
NMTAP	57	0	4
NMTAP	57	48	3
NMTAP	57	96	3
NMTAP	57	144	2
NMTAP	57	144	4
NMTAP	57	192	3
NMTAP	57	240	3
NMTAP	57	288	1
NMTAP	57	288	5
NMTAP	58	0	3
NMTAP	58	0	5
NMTAP	58	48	4
NMTAP	58	96	4
NMTAP	58	144	3
NMTAP	58	144	5
NMTAP	58	192	4
NMTAP	58	240	4
NMTAP	58	288	2
NMTAP	58	288	6
NMTAP	59	0	1
NMTAP	59	0	4
NMTAP	59	48	3
NMTAP	59	96	3
NMTAP	59	144	1
NMTAP	59	144	4
NMTAP	59	192	3
NMTAP	59	240	3
NMTAP	59	288	1
NMTAP	59	288	5
NMTAP	60	0	3
NMTAP	60	0	6
NMTAP	60	48	4
NMTAP	60	96	4
NMTAP	60	144	3
NMTAP	60	144	6
NMTAP	60	192	4
NMTAP	60	240	4
NMTAP	60	288	2
NMTAP	60	288	6
NMTAP	61	0	2
NMTAP	61	0	4
NMTAP	61	48	3
NMTAP	61	72	3
NMTAP	61	96	3
NMTAP	61	144	2
NMTAP	61	144	4
NMTAP	61	192	3
NMTAP	61	216	3
NMTAP	61	240	3
NMTAP	61	288	2
NMTAP	61	288	4
NMTAP	62	0	3
NMTAP	62	0	5
NMTAP	62	48	4
NMTAP	62	72	4
NMTAP	62	96	4
NMTAP	62	144	3
NMTAP	62	144	5
NMTAP	62	192	4
NMTAP	62	216	4
NMTAP	62	240	4
NMTAP	62	288	3
NMTAP	62	288	5
NMTAP	63	0	1
NMTAP	63	0	3
NMTAP	63	48	2
NMTAP	63	72	2
NMTAP	63	96	2
NMTAP	63	144	1
NMTAP	63	144	3
NMTAP	63	192	2
NMTAP	63	216	2
NMTAP	63	240	2
NMTAP	63	288	1
NMTAP	63	288	3
NMTAP	64	0	1
NMTAP	64	0	7
NMTAP	64	48	0
NMTAP	64	72	0
NMTAP	64	96	0
NMTAP	64	144	1
NMSTR	64	144	5
NMSV_	64	144	5	96	48	0
BRTAP	64	240	2
BRTAP	64	288	2
NMTAP	65	0	2
NMHLD	65	0	3	192
NMTAP	65	96	1
NMTAP	65	144	1
NMHLD	65	192	2	192
NMTAP	65	288	0
NMTAP	65	336	0
NMHLD	66	0	3	192
NMTAP	66	96	0
NMTAP	66	144	1
NMTAP	66	192	2
NMTAP	66	288	1
NMTAP	66	288	4
NMHLD	67	0	4	192
NMTAP	67	0	5
NMTAP	67	96	6
NMTAP	67	144	6
NMHLD	67	192	5	192
NMTAP	67	288	7
NMTAP	67	336	7
NMHLD	68	0	4	192
NMTAP	68	96	7
NMTAP	68	144	6
NMTAP	68	192	5
NMTAP	68	288	3
NMTAP	68	288	6
NMHLD	69	0	2	192
NMTAP	69	0	3
NMTAP	69	96	1
NMTAP	69	144	1
NMHLD	69	192	3	192
NMTAP	69	288	4
NMTAP	69	336	4
NMHLD	70	0	2	192
NMTAP	70	96	0
NMTAP	70	144	0
NMHLD	70	192	3	96
NMTAP	70	288	5
NMTAP	71	0	4
NMHLD	71	0	5	192
NMTAP	71	96	6
NMTAP	71	144	6
NMSTR	71	192	4
NMSCR	71	192	4	96	192	3
NMTTP	72	144	0	E	0	M1
NMTTP	72	144	0	A	0	M1
NMTTP	72	144	0	D	1	M1
NMTTP	72	144	1	E	0	M1
NMTTP	72	144	7	E	0	M1
NMTTP	72	144	7	A	0	M1
EXTAP	73	0	2
NMTAP	73	48	2
NMTAP	73	72	3
NMTAP	73	96	2
EXTAP	73	144	2
NMTAP	73	192	2
NMTAP	73	216	1
NMTAP	73	240	2
NMTAP	73	288	2
EXTAP	73	336	3
EXTAP	73	336	4
NMTAP	74	0	5
NMTAP	74	48	5
NMTAP	74	72	4
NMTAP	74	96	5
EXTAP	74	144	5
NMTAP	74	192	5
NMTAP	74	216	6
NMTAP	74	240	5
NMTAP	74	288	5
NMTAP	74	336	3
NMTAP	74	336	4
EXTAP	75	0	1
NMTAP	75	48	1
NMTAP	75	72	3
NMTAP	75	96	1
EXTAP	75	144	1
NMTAP	75	192	1
NMTAP	75	216	0
NMTAP	75	240	1
NMTAP	75	288	1
EXTAP	75	336	3
EXTAP	75	336	4
NMTAP	76	0	6
NMTAP	76	48	6
NMTAP	76	72	4
NMTAP	76	96	6
EXTAP	76	144	6
NMSTR	76	192	6
NMSCL	76	192	6	96	48	3
NMTAP	76	216	7
NMTAP	76	240	6
NMTAP	76	288	4
EXTAP	77	0	1
NMTAP	77	48	1
NMTAP	77	72	0
NMTAP	77	96	1
EXTAP	77	144	1
NMTAP	77	192	1
NMTAP	77	216	2
NMTAP	77	240	1
NMTAP	77	288	1
EXTAP	77	336	7
NMTAP	78	0	6
NMTAP	78	48	6
NMTAP	78	72	7
NMTAP	78	96	6
EXTAP	78	144	6
NMTAP	78	192	6
NMTAP	78	216	5
NMTAP	78	240	6
NMTAP	78	288	7
NMTAP	78	336	0
EXSTR	79	0	1
NMSCR	79	0	1	96	48	3
EXSTR	79	48	3
NMSCR	79	48	3	96	48	5
EXSTR	79	96	5
NMSCR	79	96	5	96	48	7
EXSTR	79	144	7
NMSCR	79	144	7	96	48	1
EXSTR	79	192	1
NMSCR	79	192	1	96	192	1
BRTAP	80	144	2
BRTAP	80	144	6
NMTAP	80	288	7
EXTAP	81	0	0
EXTAP	81	0	5
NMTAP	81	24	1
NMTAP	81	48	2
NMTAP	81	72	3
NMTAP	81	96	4
NMTAP	81	144	6
NMTAP	81	168	7
NMTAP	81	192	6
NMTAP	81	216	7
NMSTR	81	240	6
NMSI_	81	240	6	96	48	4
NMTAP	81	288	0
EXTAP	81	336	6
NMTAP	82	0	7
NMTAP	82	24	0
NMTAP	82	48	1
NMTAP	82	72	2
NMTAP	82	96	3
NMTAP	82	144	5
NMTAP	82	168	1
NMTAP	82	192	5
NMTAP	82	216	1
NMTAP	82	240	5
NMTAP	82	288	0
NMTAP	82	288	6
NMTAP	82	336	0
NMTAP	82	336	6
NMTAP	83	0	2
NMTAP	83	24	0
NMTAP	83	48	2
NMTAP	83	72	0
NMTAP	83	96	2
NMTAP	83	144	5
NMTAP	83	168	7
NMTAP	83	192	5
NMTAP	83	216	7
NMTAP	83	240	5
NMTAP	83	288	0
NMTAP	83	288	1
NMTAP	83	336	2
NMTAP	83	336	7
EXTAP	84	0	1
NMTAP	84	24	2
NMTAP	84	48	3
NMTAP	84	72	4
NMTAP	84	96	5
NMTAP	84	120	6
NMTAP	84	144	7
NMTAP	84	168	0
EXTAP	84	192	1
EXTAP	84	192	5
NMTAP	84	288	2
NMTAP	84	288	4
EXTAP	85	0	2
EXTAP	85	0	7
NMTAP	85	24	6
NMTAP	85	48	5
NMTAP	85	72	4
NMTAP	85	96	3
NMTAP	85	144	1
NMTAP	85	168	0
NMTAP	85	192	1
NMTAP	85	216	0
NMSTR	85	240	1
NMSI_	85	240	1	96	48	3
NMTAP	85	288	7
EXTAP	85	336	1
NMTAP	86	0	0
NMTAP	86	24	7
NMTAP	86	48	6
NMTAP	86	72	5
NMTAP	86	96	4
NMTAP	86	144	2
NMTAP	86	168	6
NMTAP	86	192	2
NMTAP	86	216	6
NMTAP	86	240	2
NMTAP	86	288	1
NMTAP	86	288	7
NMTAP	86	336	1
NMTAP	86	336	7
NMTAP	87	0	5
NMTAP	87	24	7
NMTAP	87	48	5
NMTAP	87	72	7
NMTAP	87	96	5
NMTAP	87	144	2
NMTAP	87	168	0
NMTAP	87	192	2
NMTAP	87	216	0
NMTAP	87	240	2
NMTAP	87	288	1
NMTAP	87	288	6
NMTAP	87	336	1
NMTAP	87	336	6
NMTAP	88	0	2
NMTAP	88	24	4
NMTAP	88	48	2
NMTAP	88	72	4
NMTAP	88	96	1
NMTAP	88	120	5
NMTAP	88	144	1
NMTAP	88	168	5
EXTAP	88	192	0
EXTAP	88	192	6
BRTAP	88	288	1
BRTAP	88	288	5
EXTAP	89	0	0
NMHLD	89	0	7	48
NMTAP	89	16	1
NMTAP	89	32	2
NMTAP	89	48	3
EXTAP	89	144	1
NMHLD	89	144	7	48
NMTAP	89	160	2
NMTAP	89	176	3
NMTAP	89	192	4
EXTAP	89	288	2
NMHLD	89	288	7	240
NMTAP	89	304	3
NMTAP	89	320	4
NMSTR	89	336	5
NMSLL	89	336	5	96	96	1
EXTAP	90	240	2
EXTAP	90	240	6
EXTAP	90	288	2
EXTAP	90	288	6
NMHLD	91	0	0	48
EXTAP	91	0	7
NMTAP	91	16	6
NMTAP	91	32	5
NMTAP	91	48	4
NMHLD	91	144	0	48
EXTAP	91	144	6
NMTAP	91	160	5
NMTAP	91	176	4
NMTAP	91	192	3
NMHLD	91	288	0	48
EXTAP	91	288	5
NMTAP	91	304	4
NMTAP	91	320	3
NMSTR	91	336	2
NMSUR	91	336	2	96	96	7
EXTAP	92	240	1
EXTAP	92	240	5
EXTAP	92	288	1
EXTAP	92	288	5
NMHLD	93	0	0	48
EXTAP	93	0	7
NMTAP	93	16	6
NMTAP	93	32	5
NMTAP	93	48	4
NMHLD	93	144	0	48
EXTAP	93	144	6
NMTAP	93	160	5
NMTAP	93	176	4
NMTAP	93	192	3
NMHLD	93	288	0	240
EXTAP	93	288	5
NMTAP	93	304	4
NMTAP	93	320	3
NMSTR	93	336	2
NMSLR	93	336	2	96	96	6
EXTAP	94	240	1
EXTAP	94	240	5
EXTAP	94	288	1
EXTAP	94	288	5
EXTAP	95	0	0
NMHLD	95	0	7	48
NMTAP	95	16	1
NMTAP	95	32	2
NMTAP	95	48	3
EXTAP	95	144	1
NMHLD	95	144	7	48
NMTAP	95	160	2
NMTAP	95	176	3
NMTAP	95	192	4
EXTAP	95	288	2
NMHLD	95	288	7	48
NMTAP	95	304	3
NMTAP	95	320	4
NMSTR	95	336	5
NMSF_	95	336	5	96	48	1
BRTAP	96	240	3
BRTAP	96	240	7
BRTAP	96	288	3
BRTAP	96	288	7
NMHLD	97	0	0	576
NMHLD	97	0	7	576
NMHLD	99	0	6	96
NMHLD	99	144	6	192
NMHLD	99	336	1	336
NMHLD	100	144	6	144
NMHLD	101	0	2	96
NMHLD	101	144	2	192
NMHLD	101	336	5	336
NMHLD	102	144	2	144
NMHLD	103	0	4	96
NMHLD	103	144	4	192
NMHLD	103	336	3	144
EXTAP	104	192	2
EXTAP	104	192	5
EXTAP	104	224	2
EXTAP	104	224	5
EXTAP	104	256	2
EXTAP	104	256	5
BRTAP	104	288	3
BRTAP	104	288	4
NMTAP	105	0	1
NMTAP	105	0	4
NMTAP	105	48	2
NMTAP	105	72	3
NMTAP	105	96	2
NMTAP	105	144	1
NMTAP	105	144	4
NMTAP	105	192	2
NMTAP	105	216	3
NMTAP	105	240	2
NMTAP	105	288	1
NMTAP	105	288	4
NMTAP	105	336	2
NMTAP	106	0	3
NMTAP	106	0	6
NMTAP	106	48	5
NMTAP	106	72	4
NMTAP	106	96	5
NMTAP	106	144	3
NMTAP	106	144	6
NMTAP	106	192	5
NMTAP	106	216	4
NMTAP	106	240	5
NMTAP	106	288	3
NMTAP	106	288	6
NMTAP	106	336	5
NMTAP	107	0	2
NMTAP	107	0	7
NMTAP	107	48	1
NMTAP	107	72	0
NMTAP	107	96	1
NMTAP	107	144	2
NMTAP	107	144	7
NMTAP	107	192	1
NMTAP	107	216	0
NMTAP	107	240	1
NMTAP	107	288	2
NMTAP	107	288	7
NMTAP	107	336	1
NMTAP	108	0	0
NMTAP	108	0	5
NMTAP	108	48	6
NMTAP	108	72	7
NMTAP	108	96	6
NMTAP	108	144	0
NMTAP	108	144	5
NMTAP	108	192	6
NMTAP	108	216	7
NMTAP	108	240	6
NMTAP	108	288	0
NMTAP	108	288	5
NMTAP	108	336	1
NMTAP	109	0	3
NMTAP	109	0	4
NMTAP	109	48	2
NMTAP	109	72	3
NMTAP	109	96	1
NMTAP	109	144	3
NMTAP	109	144	4
NMTAP	109	192	5
NMTAP	109	216	4
NMTAP	109	240	6
NMTAP	109	288	3
NMTAP	109	288	4
NMTAP	109	336	2
NMTAP	109	336	5
NMTAP	110	0	3
NMTAP	110	0	4
NMTAP	110	48	2
NMTAP	110	72	3
NMTAP	110	96	0
NMTAP	110	144	3
NMTAP	110	144	4
NMTAP	110	192	5
NMTAP	110	216	4
NMTAP	110	240	7
NMTAP	110	288	3
NMTAP	110	288	4
NMTAP	110	336	2
NMTAP	110	336	5
NMTAP	111	0	1
NMTAP	111	24	0
NMTAP	111	48	1
NMTAP	111	72	0
NMTAP	111	96	1
NMTAP	111	144	5
NMTAP	111	168	4
NMTAP	111	192	5
NMTAP	111	216	4
NMTAP	111	240	5
NMTAP	111	288	6
NMTAP	111	288	7
NMTAP	111	336	2
NMTAP	111	336	3
NMTAP	112	0	1
NMTAP	112	24	0
NMTAP	112	48	1
NMTAP	112	72	0
NMTAP	112	96	3
NMTAP	112	120	6
NMTAP	112	144	3
NMTAP	112	168	6
NMTAP	112	192	4
NMTAP	112	216	5
NMTAP	112	240	4
BRSTR	112	288	2
NMSI_	112	288	2	96	48	5
BRSTR	112	288	7
NMSI_	112	288	7	96	48	4

T_REC_TAP	545
T_REC_BRK	20
T_REC_XTP	84
T_REC_BXX	0
T_REC_HLD	65
T_REC_XHO	0
T_REC_BHO	0
T_REC_BXH	0
T_REC_STR	32
T_REC_BST	2
T_REC_XST	16
T_REC_XBS	0
T_REC_TTP	85
T_REC_THO	1
T_REC_SLD	50
T_REC_BSL	0
T_REC_ALL	900
T_NUM_TAP	762
T_NUM_BRK	22
T_NUM_HLD	66
T_NUM_SLD	50
T_NUM_ALL	900
T_JUDGE_TAP	784
T_JUDGE_HLD	305
T_JUDGE_SLD	50
T_JUDGE_ALL	1139
TTM_EACHPAIRS	159
TTM_SCR_TAP	381000
TTM_SCR_BRK	57200
TTM_SCR_HLD	66000
TTM_SCR_SLD	75000
TTM_SCR_ALL	579200
TTM_SCR_S	559700
TTM_SCR_SS	577000
TTM_RAT_ACV	10038

