VERSION	0.00.00	1.04.00
FES_MODE	0
BPM_DEF	180.000	180.000	180.000	180.000
MET_DEF	4	4
RESOLUTION	384
CLK_DEF	384
COMPATIBLE_CODE	MA2

BPM	0	0	180.000
MET	0	0	4	4

NMHLD	1	0	3	672
NMTAP	1	0	4
NMHLD	2	0	5	96
NMHLD	2	144	5	528
NMHLD	3	0	4	96
NMHLD	3	144	4	528
NMHLD	4	0	5	96
NMHLD	4	144	5	528
NMHLD	5	0	2	96
NMHLD	5	144	2	528
NMHLD	6	0	3	96
NMHLD	6	144	3	528
NMHLD	7	0	2	96
NMHLD	7	144	2	432
NMTAP	8	0	3
NMTAP	8	96	3
NMTTP	8	192	0	C	1	M1
NMHLD	9	0	7	240
NMTAP	9	96	4
NMHLD	9	144	4	432
NMTAP	9	288	0
NMHLD	9	336	0	240
NMHLD	10	240	2	96
NMHLD	10	240	6	240
NMHLD	11	0	1	240
NMHLD	11	144	4	624
NMTAP	11	288	7
NMSTR	11	336	7
NMSLL	11	336	7	96	240	3
NMHLD	13	0	1	240
NMTAP	13	96	3
NMHLD	13	144	3	432
NMTAP	13	288	7
NMHLD	13	336	7	240
NMHLD	14	240	1	192
NMHLD	14	240	5	96
NMHLD	15	0	6	144
NMHLD	15	96	4	144
NMHLD	15	192	0	144
NMTAP	15	288	2
NMHLD	15	336	2	96
NMSTR	16	48	7
NMSF_	16	48	7	96	144	3
EXHLD	17	0	2	864
NMTAP	17	144	1
NMSTR	17	240	1
NMSI_	17	240	1	96	168	3
CNSCR	18	120	3	0	24	4
CNSUR	18	144	4	0	144	0
NMHLD	19	0	1	96
NMHLD	19	144	0	96
NMHLD	19	144	3	96
NMHLD	19	288	4	96
NMHLD	19	288	7	96
NMHLD	20	48	5	240
NMHLD	20	48	6	384
NMHLD	21	0	4	96
NMHLD	21	96	5	144
NMHLD	21	144	4	144
NMSTR	21	288	5
NMSLL	21	288	5	96	192	7
NMHLD	21	336	4	480
NMTAP	22	240	6
NMTAP	22	336	5
NMHLD	23	0	5	240
NMTAP	23	96	7
NMHLD	23	144	7	192
NMTAP	23	288	0
NMHLD	23	336	0	96
NMTAP	24	48	1
BRTAP	24	144	2
NMTAP	24	144	6
EXSTR	25	0	3
NMSI_	25	0	3	96	288	0
NMSTR	26	0	7
NMSI_	26	0	7	96	288	4
NMSTR	27	0	3
NMSCL	27	0	3	96	288	0
NMSTR	28	0	7
NMSCL	28	0	7	96	288	4
NMSTR	29	0	3
NMSUR	29	0	3	96	288	0
NMSTR	30	0	7
NMSUR	30	0	7	96	288	4
NMSTR	31	0	3
NMSCL	31	0	3	96	480	4
NMTTP	32	192	0	C	1	M1
EXHLD	33	0	7	768
NMTAP	33	96	0
NMSTR	33	144	0
NMSI_	33	144	0	96	48	2
NMSTR	33	336	0
NMSI_	33	336	0	96	48	5
NMSTR	34	144	4
NMSLR	34	144	4	96	48	0
NMHLD	35	0	0	768
NMTAP	35	96	7
NMSTR	35	144	7
NMSI_	35	144	7	96	48	5
NMSTR	35	336	7
NMSI_	35	336	7	96	48	2
NMSTR	36	144	3
NMSLL	36	144	3	96	72	5
NMHLD	37	0	4	816
NMTAP	37	96	3
NMSTR	37	144	3
NMSI_	37	144	3	96	48	1
NMSTR	37	336	3
NMSI_	37	336	3	96	48	6
NMSTR	38	144	7
NMSLR	38	144	7	96	48	3
NMHLD	39	0	3	144
NMHLD	39	96	2	144
NMHLD	39	192	1	96
NMTAP	39	288	0
NMTAP	40	0	0
NMTAP	40	0	7
NMSTR	40	96	0
NMSI_	40	96	0	96	48	6
NMTAP	40	96	7
CNSI_	40	240	6	0	96	2
CNSI_	40	336	2	0	48	4
NMHLD	41	0	5	864
NMTAP	41	96	6
NMTAP	41	144	6
NMSTR	41	240	7
NMSCR	41	240	7	96	144	3
CNSUL	42	96	3	0	192	6
NMHLD	43	0	6	96
NMHLD	43	144	4	96
NMHLD	43	144	7	96
NMHLD	43	288	0	96
NMHLD	43	288	3	96
NMHLD	44	48	1	288
NMHLD	44	48	2	384
NMHLD	45	0	1	240
NMTAP	45	96	2
NMHLD	45	144	3	576
NMTAP	45	288	4
NMHLD	45	336	4	384
NMHLD	47	0	2	96
NMHLD	47	0	5	96
NMHLD	47	144	1	96
NMHLD	47	144	6	96
NMHLD	47	288	0	96
NMHLD	47	288	7	96
NMSTR	48	48	0
NMSLL	48	48	0	96	144	4
NMSTR	48	48	7
NMSLR	48	48	7	96	144	3
NMTHO	49	0	0	2688	C	0	M1
NMTTP	50	0	1	E	0	M1
NMTTP	50	0	1	A	0	M1
NMTTP	51	0	2	E	0	M1
NMTTP	51	0	2	A	0	M1
NMTTP	52	0	3	E	0	M1
NMTTP	52	0	3	A	0	M1
NMTTP	53	0	4	E	0	M1
NMTTP	53	0	4	A	0	M1
NMTTP	54	0	5	E	0	M1
NMTTP	54	0	5	A	0	M1
NMTTP	55	0	6	E	0	M1
NMTTP	55	0	6	A	0	M1
NMTTP	56	0	0	B	0	M1
NMTTP	56	0	0	E	1	M1
NMTTP	56	0	7	B	0	M1
NMHLD	57	0	3	1536
NMTTP	57	144	4	E	0	M1
NMTTP	57	288	3	E	0	M1
NMTAP	58	0	2
NMTTP	58	144	3	E	0	M1
NMTTP	58	288	2	E	0	M1
NMTAP	59	0	1
NMTTP	59	144	2	E	0	M1
NMTTP	59	288	1	E	0	M1
NMTAP	60	0	0
NMTTP	60	144	1	E	0	M1
NMTTP	60	288	3	E	0	M1
NMHLD	61	0	4	1536
NMTTP	61	144	4	E	0	M1
NMTTP	61	288	5	E	0	M1
NMTAP	62	0	5
NMTTP	62	144	5	E	0	M1
NMTTP	62	288	6	E	0	M1
NMTAP	63	0	6
NMTTP	63	144	6	E	0	M1
NMTTP	63	288	7	E	0	M1
NMTAP	64	0	7
NMTTP	64	144	7	E	0	M1
NMTTP	64	288	0	E	0	M1
NMHLD	65	0	0	1536
NMTTP	65	144	0	E	0	M1
NMTTP	65	288	1	E	0	M1
NMTAP	66	0	1
NMTTP	66	144	1	E	0	M1
NMTTP	66	288	2	E	0	M1
NMTAP	67	0	2
NMTTP	67	144	2	E	0	M1
NMTTP	67	288	3	E	0	M1
NMTAP	68	0	3
NMTTP	68	144	3	E	0	M1
NMTTP	68	288	1	E	0	M1
NMHLD	69	0	7	816
NMTTP	69	144	0	E	0	M1
NMTTP	69	288	6	E	0	M1
NMTAP	70	0	5
NMTTP	70	144	6	E	0	M1
NMTTP	70	288	4	E	0	M1
NMHLD	71	0	3	144
NMHLD	71	96	5	144
NMHLD	71	192	1	144
NMHLD	71	288	7	192
NMHLD	72	0	0	96
BRTAP	72	144	2
NMTAP	72	144	5
NMSTR	73	0	1
NMSUL	73	0	1	96	288	4
NMSTR	74	0	0
NMSUL	74	0	0	96	288	3
NMSTR	75	0	7
NMSUL	75	0	7	96	288	2
NMSTR	76	0	6
NMSUL	76	0	6	96	288	1
NMSTR	77	0	5
NMSUL	77	0	5	96	288	0
NMSTR	78	0	4
NMSUL	78	0	4	96	288	7
NMSTR	79	0	3
NMSCL	79	0	3	96	384	4
EXHLD	80	192	3	24
EXHLD	80	192	4	24
EXHLD	80	240	3	24
EXHLD	80	240	4	24
EXHLD	80	288	3	24
EXHLD	80	288	4	24
EXHLD	80	336	3	24
EXHLD	80	336	4	24
EXTAP	81	0	3
EXTAP	81	0	4
NMTAP	81	96	4
NMTAP	81	96	5
NMTAP	81	144	4
NMSTR	81	144	5
NMSI_	81	144	5	96	48	1
NMSI_	81	144	5	96	48	7
NMSTR	81	336	0
NMSI_	81	336	0	96	48	2
NMSI_	81	336	0	96	48	4
NMSTR	82	144	3
NMSI_	82	144	3	96	48	5
NMSI_	82	144	3	96	48	7
NMTAP	83	0	0
NMTAP	83	0	6
NMTAP	83	96	0
NMTAP	83	96	1
NMTAP	83	144	0
NMSTR	83	144	1
NMSI_	83	144	1	96	48	3
NMSI_	83	144	1	96	48	5
NMSTR	83	336	4
NMSI_	83	336	4	96	48	0
NMSI_	83	336	4	96	48	6
NMSTR	84	144	7
NMSI_	84	144	7	96	48	1
NMSI_	84	144	7	96	48	3
NMTAP	85	0	0
NMTAP	85	0	4
NMTAP	85	96	6
NMTAP	85	96	7
NMSTR	85	144	6
NMSI_	85	144	6	96	48	2
NMSCL	85	144	6	96	48	4
NMTAP	85	144	7
NMSTR	85	336	3
NMSI_	85	336	3	96	48	7
NMSCL	85	336	3	96	48	1
NMSTR	86	144	0
NMSI_	86	144	0	96	48	4
NMSCL	86	144	0	96	48	6
NMTAP	87	0	3
NMTAP	87	0	5
NMTAP	87	96	2
NMTAP	87	96	3
NMSTR	87	144	2
NMSI_	87	144	2	96	48	6
NMSCL	87	144	2	96	48	0
NMTAP	87	144	3
NMSTR	87	336	7
NMSI_	87	336	7	96	48	3
NMSCL	87	336	7	96	48	5
NMTAP	88	144	2
NMTAP	88	144	4
EXTAP	88	192	3
EXTAP	88	216	4
EXTAP	88	240	3
EXTAP	88	264	4
EXTAP	88	288	3
EXTAP	88	312	4
EXTAP	88	336	3
EXTAP	88	360	4
EXHLD	89	0	3	240
NMTAP	89	96	1
NMHLD	89	144	1	1296
NMTAP	89	288	2
NMSTR	89	336	2
NMSUR	89	336	2	96	144	0
NMHLD	91	0	0	96
NMHLD	91	144	2	96
NMHLD	91	288	7	96
NMHLD	92	48	3	384
NMHLD	93	0	4	240
NMTAP	93	96	6
NMHLD	93	144	6	1152
NMTAP	93	288	5
NMSTR	93	336	5
NMSUL	93	336	5	96	144	0
NMHLD	95	0	7	96
NMHLD	95	144	3	96
NMHLD	95	288	1	96
NMHLD	96	48	4	240
NMSTR	96	192	6
NMSI_	96	192	6	96	48	2
NMHLD	97	0	3	672
NMTAP	97	0	4
NMTAP	97	336	5
NMHLD	98	0	5	672
NMTAP	98	336	4
NMHLD	99	0	4	672
NMTAP	99	336	5
NMHLD	100	0	5	672
NMTAP	100	336	2
NMHLD	101	0	2	672
NMTAP	101	336	3
NMHLD	102	0	3	672
NMTAP	102	336	2
NMHLD	103	0	2	528
NMTAP	103	336	5
NMHLD	104	0	5	144
EXTAP	104	192	3
EXTAP	104	216	4
EXTAP	104	240	3
EXTAP	104	264	4
EXTAP	104	288	3
EXTAP	104	312	4
EXTAP	104	336	3
EXTAP	104	360	4
EXHLD	105	0	3	384
NMTTP	105	144	2	E	0	M1
NMTAP	105	288	2
NMHLD	106	0	2	384
NMTTP	106	144	1	E	0	M1
NMTAP	106	288	1
NMHLD	107	0	1	384
NMTTP	107	144	0	E	0	M1
NMTAP	107	288	0
NMHLD	108	0	0	384
NMTTP	108	144	7	E	0	M1
NMTAP	108	288	7
NMHLD	109	0	7	384
NMTTP	109	144	6	E	0	M1
NMTAP	109	288	6
NMHLD	110	0	6	384
NMTTP	110	144	5	E	0	M1
NMTAP	110	288	5
NMHLD	111	0	5	384
NMTTP	111	144	4	E	0	M1
NMTAP	111	288	4
NMHLD	112	0	4	288
NMTTP	112	144	3	E	0	M1
NMTAP	112	288	3
BRTAP	113	0	2
NMTAP	113	0	5

T_REC_TAP	79
T_REC_BRK	3
T_REC_XTP	18
T_REC_BXX	0
T_REC_HLD	100
T_REC_XHO	12
T_REC_BHO	0
T_REC_BXH	0
T_REC_STR	44
T_REC_BST	0
T_REC_XST	1
T_REC_XBS	0
T_REC_TTP	53
T_REC_THO	1
T_REC_SLD	56
T_REC_BSL	0
T_REC_ALL	367
T_NUM_TAP	195
T_NUM_BRK	3
T_NUM_HLD	113
T_NUM_SLD	56
T_NUM_ALL	367
T_JUDGE_TAP	198
T_JUDGE_HLD	814
T_JUDGE_SLD	56
T_JUDGE_ALL	1068
TTM_EACHPAIRS	36
TTM_SCR_TAP	97500
TTM_SCR_BRK	7800
TTM_SCR_HLD	113000
TTM_SCR_SLD	84000
TTM_SCR_ALL	302300
TTM_SCR_S	292950
TTM_SCR_SS	302000
TTM_RAT_ACV	10009

