VERSION	0.00.00	1.04.00
FES_MODE	0
BPM_DEF	220.000	220.000	220.000	 27.500
MET_DEF	4	4
RESOLUTION	384
CLK_DEF	576
COMPATIBLE_CODE	MA2

BPM	0	0	220.000
BPM	16	336	 70.000
BPM	17	96	220.000
BPM	61	144	 27.500
BPM	61	240	 65.000
BPM	65	240	140.000
BPM	71	240	220.000
BPM	85	144	110.000
BPM	85	240	220.000
BPM	117	240	110.000
MET	0	0	4	3
MET	14	96	8	1
MET	17	96	4	3
MET	29	96	4	4
MET	52	96	4	2
MET	52	288	4	4
MET	54	288	8	1
MET	57	144	4	4
MET	61	144	4	1
MET	61	240	4	4
MET	71	240	4	7
MET	85	240	4	4
MET	117	240	4	2
MET	118	48	4	3

NMHLD	2	96	2	288
NMHLD	3	0	3	288
NMHLD	3	288	4	288
NMHLD	4	192	5	288
NMHLD	5	96	2	288
NMHLD	6	0	3	288
NMHLD	6	288	4	288
NMHLD	7	192	5	288
NMTHO	8	96	0	2304	C	0	M1
NMTTP	9	0	5	B	0	M1
NMTTP	9	288	4	B	0	M1
NMTTP	10	192	4	E	0	M1
NMTTP	11	96	3	A	0	M1
NMTTP	12	0	4	E	0	M1
NMTTP	12	288	4	B	0	M1
NMTTP	13	192	5	B	0	M1
NMSTR	14	96	6
BRSI_	14	96	6	96	480	2
NMSTR	14	240	0
NMSSL	14	240	0	96	336	4
CNSI_	15	288	2	0	432	6
NMTHO	16	336	0	60	C	0	M1
NMTAP	17	96	5
NMTAP	17	144	5
NMTAP	17	192	5
NMTAP	17	240	3
NMTAP	17	288	3
NMTAP	17	336	3
NMTAP	18	0	4
NMTAP	18	48	4
NMHLD	18	96	4	96
NMHLD	18	144	2	48
NMTAP	18	288	2
NMTAP	18	336	2
NMTAP	19	0	2
NMTAP	19	48	4
NMTAP	19	96	4
NMTAP	19	144	4
NMTAP	19	192	3
NMTAP	19	240	3
NMHLD	19	288	3	96
NMHLD	19	336	5	48
NMTAP	20	96	1
NMTAP	20	144	1
NMTAP	20	192	3
NMTAP	20	240	2
NMTAP	20	288	2
NMTAP	20	336	2
NMTAP	21	0	6
NMTAP	21	48	6
NMTAP	21	96	4
NMTAP	21	144	5
NMTAP	21	192	5
NMTAP	21	240	5
NMTAP	21	288	1
NMTAP	21	336	1
NMTAP	22	0	3
NMTAP	22	48	2
NMTAP	22	96	2
NMTAP	22	144	2
NMTAP	22	192	5
NMTAP	22	240	5
NMTAP	22	288	3
NMTAP	22	336	4
NMTAP	23	0	4
NMTAP	23	48	4
NMHLD	23	96	1	96
NMTAP	23	144	5
NMTAP	23	192	5
NMHLD	23	240	2	96
NMTAP	23	288	4
NMTAP	23	336	4
NMSTR	24	0	3
NMSLL	24	0	3	96	192	7
NMTAP	24	48	5
NMTAP	24	96	5
NMTAP	24	192	6
NMTAP	24	240	6
CNSLR	24	288	7	0	288	3
NMTAP	24	336	5
NMTAP	25	0	5
NMTAP	25	96	4
NMTAP	25	144	4
NMTAP	25	240	5
NMTAP	25	288	3
NMTAP	25	336	4
NMTAP	26	0	1
NMTAP	26	48	1
NMHLD	26	96	6	96
NMTAP	26	144	2
NMTAP	26	192	2
NMHLD	26	240	5	96
NMTAP	26	288	3
NMTAP	26	336	3
NMSTR	27	0	4
NMSLR	27	0	4	96	192	0
NMTAP	27	48	2
NMTAP	27	96	2
NMTAP	27	192	1
NMTAP	27	240	1
CNSLL	27	288	0	0	288	4
NMTAP	27	336	2
NMTAP	28	0	2
NMTAP	28	96	3
NMTAP	28	144	3
NMTAP	28	240	2
NMTAP	28	288	2
NMTAP	29	0	3
NMTAP	29	0	4
NMTAP	29	96	3
NMTAP	29	96	5
NMTAP	29	144	3
NMTAP	29	144	5
NMTTP	29	240	4	E	0	M1
NMTTP	29	264	3	E	0	M1
NMTTP	29	288	2	E	0	M1
NMTTP	29	336	4	B	0	M1
NMTTP	29	336	4	A	0	M1
NMTTP	30	48	3	B	0	M1
NMTTP	30	48	3	A	0	M1
NMTTP	30	144	2	E	0	M1
NMTTP	30	144	2	A	0	M1
NMTTP	30	240	3	B	0	M1
NMTTP	30	240	3	A	0	M1
NMTTP	30	336	4	A	0	M1
NMTTP	30	336	5	E	0	M1
NMTAP	31	96	3
NMTAP	31	96	5
NMTAP	31	144	3
NMTAP	31	144	5
NMTTP	31	288	5	E	0	M1
NMTTP	31	312	4	B	0	M1
NMTTP	31	336	4	E	0	M1
NMTTP	32	48	2	E	0	M1
NMTTP	32	48	2	A	0	M1
NMTTP	32	144	3	B	0	M1
NMTTP	32	144	3	A	0	M1
NMTTP	32	240	4	B	0	M1
NMTTP	32	240	4	A	0	M1
NMTAP	32	336	5
NMTAP	33	0	5
NMHLD	33	96	2	96
NMHLD	33	96	4	96
NMHLD	33	240	2	96
NMHLD	33	240	4	96
NMTAP	34	0	3
NMHLD	34	48	3	96
NMSTR	34	192	2
NMSV_	34	192	2	96	96	3
NMHLD	34	192	4	96
NMTAP	35	96	4
NMHLD	35	144	4	96
NMTAP	35	288	3
NMTAP	35	288	5
NMHLD	35	336	3	96
NMHLD	35	336	5	96
NMTAP	36	96	2
NMTAP	36	96	6
NMSTR	36	144	2
NMSI_	36	144	2	96	48	4
NMSTR	36	144	6
NMSI_	36	144	6	96	48	4
NMTAP	36	240	2
NMTAP	36	240	6
NMTAP	36	336	0
BRTAP	37	0	0
NMTAP	37	96	1
NMTAP	37	96	7
NMTAP	37	144	1
NMSTR	37	144	7
NMSCL	37	144	7	96	96	4
NMSTR	37	240	4
NMSCL	37	240	4	96	96	1
NMSTR	37	336	1
NMSCL	37	336	1	96	96	6
NMSTR	38	48	6
NMSCL	38	48	6	96	96	3
NMSTR	38	144	3
NMSCL	38	144	3	96	96	0
NMTAP	38	240	0
NMTAP	38	336	7
NMTAP	39	0	7
NMTAP	39	96	0
NMTAP	39	96	6
NMSTR	39	144	0
NMSCR	39	144	0	96	96	3
NMTAP	39	144	6
NMSTR	39	240	3
NMSCR	39	240	3	96	96	6
NMSTR	39	336	6
NMSCR	39	336	6	96	96	1
NMSTR	40	48	1
NMSCR	40	48	1	96	96	4
NMSTR	40	144	4
NMSCR	40	144	4	96	96	7
NMTAP	40	240	7
NMTAP	40	336	0
NMTAP	41	0	0
NMTAP	41	96	2
NMSTR	41	96	6
NMSLL	41	96	6	96	96	2
NMTAP	41	192	0
NMTAP	41	240	0
NMTAP	41	336	1
NMSTR	42	48	2
NMSLR	42	48	2	96	96	6
NMSTR	42	48	6
NMSLL	42	48	6	96	96	2
NMTAP	42	144	2
NMTAP	42	144	6
EXTAP	42	288	1
EXTAP	42	288	7
NMTAP	43	0	2
NMTAP	43	0	6
NMSTR	43	48	2
NMSI_	43	48	2	96	48	4
NMSTR	43	48	6
NMSI_	43	48	6	96	48	4
NMTAP	43	144	2
NMTAP	43	144	6
NMTAP	43	240	0
NMTAP	43	288	1
NMTAP	43	288	7
NMSTR	43	336	2
NMSLR	43	336	2	96	96	6
NMSTR	43	336	6
NMSLL	43	336	6	96	96	2
NMSTR	44	48	2
NMSLL	44	48	2	96	96	6
NMSTR	44	48	6
NMSLR	44	48	6	96	96	2
NMTAP	44	336	3
NMTAP	44	336	4
NMHLD	45	0	3	96
NMSTR	45	0	4
BRSCR	45	0	4	96	288	3
NMTAP	46	96	2
NMTAP	46	96	5
NMSTR	46	144	2
NMSCL	46	144	2	96	48	0
NMSTR	46	144	5
NMSCR	46	144	5	96	48	7
NMSTR	46	240	2
NMSI_	46	240	2	96	48	4
NMSTR	46	240	5
NMSI_	46	240	5	96	48	3
NMTAP	46	336	2
NMTAP	46	336	5
NMTAP	47	96	6
NMSTR	47	144	6
NMSI_	47	144	6	96	48	3
NMTAP	47	240	3
NMSTR	47	240	6
NMSI_	47	240	6	96	48	0
NMTAP	47	336	2
NMTAP	47	336	6
NMSTR	48	48	1
NMSCR	48	48	1	96	48	4
NMTAP	48	96	0
NMTAP	48	144	1
NMTAP	48	240	6
NMTAP	48	240	7
NMTAP	48	336	5
NMTAP	49	0	4
NMSTR	49	0	6
BRSLL	49	0	6	96	96	0
NMTAP	49	96	2
NMSTR	49	144	2
NMSI_	49	144	2	96	48	4
NMSTR	49	240	2
NMSI_	49	240	2	96	48	7
NMTAP	49	240	7
NMTAP	49	336	2
NMTAP	49	336	6
NMSTR	50	48	5
NMSI_	50	48	5	96	48	0
NMTAP	50	144	3
NMSTR	50	144	5
NMSI_	50	144	5	96	48	3
NMTAP	50	240	2
NMTAP	50	240	5
NMTAP	50	336	0
NMTAP	50	336	1
NMTAP	51	0	0
NMSTR	51	0	1
BRSLR	51	0	1	96	96	7
NMTAP	51	96	5
NMHLD	51	144	5	96
NMTAP	51	240	0
NMTAP	51	336	1
NMTAP	51	336	3
NMTAP	52	48	4
NMTAP	52	96	3
NMTAP	52	144	2
NMTAP	52	144	5
NMTAP	52	192	1
NMTAP	52	192	6
NMTAP	52	240	0
NMTAP	52	240	7
NMTAP	52	288	0
NMTAP	52	288	7
NMTAP	52	336	0
NMTAP	52	336	7
NMTAP	53	0	0
NMTAP	53	0	7
NMTAP	53	48	0
NMTAP	53	48	7
NMTAP	53	96	0
NMTAP	53	96	7
NMTAP	53	144	0
NMTAP	53	144	7
NMTAP	53	192	0
NMTAP	53	192	7
NMTAP	53	240	0
NMTAP	53	240	7
NMTAP	53	288	0
NMTAP	53	288	7
NMTAP	53	336	0
NMTAP	53	336	7
NMTAP	54	0	0
NMTAP	54	0	7
NMTAP	54	48	0
NMTAP	54	48	7
NMTAP	54	96	0
NMTAP	54	96	7
NMTAP	54	144	0
NMTAP	54	144	7
NMTAP	54	192	0
NMTAP	54	192	7
NMTAP	54	240	0
NMTAP	54	240	7
NMSTR	54	288	1
BRSI_	54	288	1	96	480	5
NMSTR	55	48	7
NMSSR	55	48	7	96	336	3
CNSI_	56	96	5	0	432	1
NMSTR	57	144	7
NMSCR	57	144	7	96	288	7
CNSCR	58	144	7	0	1152	7
NMTHO	61	240	0	32	C	0	M1
NMHLD	61	240	7	384
NMTHO	62	48	0	32	C	0	M1
NMTHO	62	240	0	32	C	0	M1
NMTHO	63	48	0	32	C	0	M1
NMTHO	63	240	0	32	C	0	M1
NMHLD	63	240	6	384
NMTHO	64	48	0	32	C	0	M1
NMTHO	64	240	0	32	C	0	M1
NMTHO	65	48	0	32	C	0	M1
NMHLD	65	240	4	72
NMHLD	65	240	5	72
NMTTP	66	48	4	E	0	M1
NMTTP	66	48	6	E	0	M1
NMHLD	66	240	3	144
NMHLD	66	240	4	72
NMTTP	67	48	3	E	0	M1
NMTTP	67	48	5	E	0	M1
NMHLD	67	240	2	72
NMHLD	67	240	3	72
NMTTP	68	48	2	E	0	M1
NMTTP	68	48	4	E	0	M1
NMHLD	68	240	3	72
NMHLD	68	240	4	144
NMTTP	69	48	3	E	0	M1
NMTTP	69	48	5	E	0	M1
NMHLD	69	240	4	72
NMSTR	69	240	5
NMSCR	69	240	5	96	240	2
NMTTP	70	48	3	B	0	M1
NMTTP	70	48	4	B	0	M1
NMTTP	70	48	4	E	0	M1
CNSCL	70	192	2	0	360	5
NMTHO	70	240	0	72	C	0	M1
NMTAP	71	240	2
NMTAP	71	288	3
NMTAP	71	336	4
NMTAP	72	0	5
NMTAP	72	48	4
NMTAP	72	96	3
NMTAP	72	144	2
NMTAP	72	192	3
NMTAP	72	240	4
NMTAP	72	288	5
NMTAP	72	336	4
NMHLD	73	0	3	96
NMHLD	73	48	5	96
NMTAP	73	144	2
NMTAP	73	192	3
NMTAP	73	240	4
NMTAP	73	288	5
NMTAP	73	336	4
NMTAP	74	0	3
NMTAP	74	48	2
NMTAP	74	96	3
NMTAP	74	144	4
NMTAP	74	192	5
NMTAP	74	240	4
NMHLD	74	288	3	96
NMHLD	74	336	5	96
NMTAP	75	48	1
NMTAP	75	96	2
NMTAP	75	144	3
NMTAP	75	192	4
NMTAP	75	240	3
NMTAP	75	288	4
NMTAP	75	336	3
NMTAP	75	336	5
NMTAP	76	0	6
NMTAP	76	48	4
NMTAP	76	96	5
NMTAP	76	144	4
NMHLD	76	192	3	96
NMHLD	76	240	5	96
NMTAP	76	336	1
NMTAP	77	0	2
NMTAP	77	48	3
NMTAP	77	96	4
NMTAP	77	144	3
NMTAP	77	192	4
NMTAP	77	240	3
NMTAP	77	240	5
NMTAP	77	288	6
NMTAP	77	336	4
NMTAP	78	0	5
NMTAP	78	48	4
NMTAP	78	96	3
NMTAP	78	144	2
NMTAP	78	144	5
NMTAP	78	192	4
NMTAP	78	240	2
NMTAP	78	240	5
NMTAP	78	288	3
NMHLD	78	336	4	96
NMTAP	79	0	3
NMHLD	79	48	2	96
NMTAP	79	96	3
NMTAP	79	144	4
NMHLD	79	192	5	96
NMTAP	79	240	3
NMTAP	79	288	4
NMHLD	79	336	6	96
NMTAP	80	0	5
NMTAP	80	48	4
NMHLD	80	96	3	96
NMTAP	80	144	5
NMTAP	80	192	4
NMTAP	80	240	2
NMTAP	80	288	3
NMTAP	80	336	2
NMHLD	81	0	1	96
NMTAP	81	48	2
NMTAP	81	96	3
NMHLD	81	144	4	96
NMTAP	81	192	2
NMTAP	81	240	3
NMHLD	81	288	5	96
NMTAP	81	336	3
NMTAP	82	0	2
BRTAP	82	48	1
BRTAP	82	48	4
NMTAP	82	96	0
NMTAP	82	144	7
NMTAP	82	192	6
NMHLD	82	240	6	96
NMHLD	82	288	4	96
NMTAP	83	0	5
NMTAP	83	48	3
NMTAP	83	96	2
NMTAP	83	144	4
NMTAP	83	192	5
NMTAP	83	240	6
NMTAP	83	288	6
NMTAP	83	336	0
NMTAP	83	360	7
NMTAP	84	0	0
NMTAP	84	24	7
NMTAP	84	48	0
NMTAP	84	96	1
NMHLD	84	144	1	96
NMHLD	84	192	3	96
NMTAP	84	288	2
NMHLD	84	336	4	48
NMTAP	85	0	3
NMTAP	85	48	2
NMTAP	85	48	5
NMTAP	85	96	2
NMTAP	85	96	5
BRSTR	85	240	1
NMSI_	85	240	1	96	48	3
NMTAP	85	288	0
NMTAP	85	336	1
NMSTR	86	0	5
NMSI_	86	0	5	96	48	7
NMSTR	86	48	4
BRSCL	86	48	4	96	24	2
NMTAP	86	96	5
NMTAP	86	144	4
CNSI_	86	168	2	0	72	5
NMSTR	86	240	7
NMSI_	86	240	7	96	48	3
NMTAP	86	288	7
NMSTR	86	336	0
NMSCL	86	336	0	96	48	5
NMTAP	87	0	0
NMSTR	87	48	4
NMSI_	87	48	4	96	48	7
NMTAP	87	96	4
NMTAP	87	144	2
NMTAP	87	192	1
NMSTR	87	240	0
NMSI_	87	240	0	96	48	2
NMTAP	87	288	3
NMTAP	87	336	0
NMSTR	88	0	7
NMSI_	88	0	7	96	48	5
NMSTR	88	48	4
BRSCL	88	48	4	96	48	2
NMTAP	88	96	7
NMTAP	88	144	4
CNSI_	88	192	2	0	48	7
NMTAP	88	240	5
NMSTR	88	288	5
NMSCR	88	288	5	96	96	1
NMSTR	89	0	1
NMSCR	89	0	1	96	96	5
NMTAP	89	96	5
NMTAP	89	192	1
NMHLD	89	240	1	96
NMTAP	89	336	3
NMHLD	90	0	3	96
NMTAP	90	96	5
NMSTR	90	144	5
NMSV_	90	144	5	96	48	0
NMTAP	90	240	7
NMHLD	90	288	7	96
NMTAP	91	0	0
NMTAP	91	96	2
NMTAP	91	96	3
NMTAP	91	144	2
NMSTR	91	144	3
NMSI_	91	144	3	96	48	1
NMSI_	91	144	3	96	48	5
NMTAP	91	240	3
NMTAP	91	336	7
NMHLD	92	0	7	96
NMSTR	92	96	4
NMSCR	92	96	4	96	48	7
NMTAP	92	144	3
NMTAP	92	192	2
CNSV_	92	240	7	0	96	2
NMTAP	92	288	0
NMSTR	92	336	0
BRSF_	92	336	0	96	48	4
NMTAP	93	48	0
EXTAP	93	144	1
EXTAP	93	144	7
BRSTR	93	240	6
NMSI_	93	240	6	96	48	4
NMTAP	93	288	7
NMTAP	93	336	6
NMSTR	94	0	2
NMSI_	94	0	2	96	48	0
BRSTR	94	48	3
BRSCR	94	48	3	96	24	5
NMTAP	94	96	2
NMTAP	94	144	3
CNSI_	94	168	5	0	72	1
BRSTR	94	240	0
NMSI_	94	240	0	96	48	4
NMTAP	94	288	0
NMSTR	94	336	7
NMSCR	94	336	7	96	48	2
NMTAP	95	0	7
BRSTR	95	48	3
NMSI_	95	48	3	96	48	0
NMTAP	95	96	3
NMTAP	95	144	5
NMTAP	95	192	6
BRSTR	95	240	7
NMSI_	95	240	7	96	48	5
NMTAP	95	288	4
NMTAP	95	336	7
NMSTR	96	0	0
NMSI_	96	0	0	96	48	2
BRSTR	96	48	3
BRSCR	96	48	3	96	48	5
NMTAP	96	96	0
NMTAP	96	144	3
CNSI_	96	192	5	0	48	0
BRSTR	96	240	2
NMSI_	96	240	2	96	48	4
NMTAP	96	288	2
NMSTR	96	336	7
NMSI_	96	336	7	96	48	3
NMTAP	97	0	7
BRSTR	97	48	1
NMSI_	97	48	1	96	48	5
NMTAP	97	96	1
NMTAP	97	144	7
NMTAP	97	240	4
BRTAP	97	240	6
NMTAP	97	336	5
NMTAP	98	0	4
BRTAP	98	48	5
NMTAP	98	96	6
NMSTR	98	144	5
NMSV_	98	144	5	96	48	2
BRTAP	98	240	0
NMHLD	98	288	0	96
NMTAP	99	0	6
BRTAP	99	48	1
NMTAP	99	96	4
NMSTR	99	144	3
NMSI_	99	144	3	96	48	1
NMSI_	99	144	3	96	48	5
BRTAP	99	240	3
NMTAP	99	336	7
NMTAP	100	0	7
BRTAP	100	48	5
NMSTR	100	96	4
NMSCR	100	96	4	96	48	7
NMTAP	100	144	3
NMTAP	100	192	2
BRTAP	100	240	1
CNSUL	100	240	7	0	144	1
NMTAP	100	288	0
NMSTR	100	336	0
BRSF_	100	336	0	96	48	4
BRTAP	101	48	0
BRTAP	101	240	1
BRTAP	101	240	7
NMHLD	101	336	2	24
NMHLD	101	336	3	24
NMHLD	102	0	2	24
NMHLD	102	0	3	24
NMTAP	102	48	2
NMTAP	102	48	3
NMTAP	102	96	1
NMTAP	102	144	0
NMTAP	102	192	7
NMHLD	102	240	4	24
NMHLD	102	240	6	24
NMHLD	102	288	4	24
NMHLD	102	288	6	24
NMSTR	102	336	4
NMSI_	102	336	4	96	48	1
NMTAP	102	336	6
NMSTR	103	48	5
NMSV_	103	48	5	96	48	0
NMTAP	103	144	0
NMTAP	103	240	1
NMTAP	103	240	7
NMHLD	103	336	3	24
NMHLD	103	336	5	24
NMHLD	104	0	3	24
NMHLD	104	0	5	24
NMTAP	104	48	3
NMTAP	104	48	5
NMTAP	104	96	6
NMTAP	104	144	7
NMTAP	104	192	0
NMHLD	104	240	1	24
NMHLD	104	240	3	24
NMHLD	104	288	1	24
NMHLD	104	288	3	24
NMTAP	104	336	1
NMSTR	104	336	3
NMSI_	104	336	3	96	48	6
NMSTR	105	48	1
NMSV_	105	48	1	96	48	4
NMTAP	105	144	7
BRHLD	105	240	6	96
NMHLD	105	336	4	24
NMHLD	106	0	4	24
NMTAP	106	48	3
NMHLD	106	48	5	96
NMSTR	106	144	7
NMSCR	106	144	7	96	48	2
NMHLD	106	240	4	24
NMHLD	106	288	4	24
NMSTR	106	336	3
NMSI_	106	336	3	96	48	7
NMTAP	106	336	5
NMHLD	107	48	6	96
NMTAP	107	144	0
BRHLD	107	240	1	96
NMTAP	107	240	4
NMHLD	107	336	3	24
NMHLD	108	0	3	24
NMHLD	108	48	2	96
NMTAP	108	48	4
NMSTR	108	144	0
NMSCL	108	144	0	96	48	5
NMHLD	108	240	1	24
NMHLD	108	288	1	24
NMSTR	108	336	0
NMSI_	108	336	0	96	48	2
NMSI_	108	336	0	96	48	6
NMTAP	108	336	4
CNSV_	109	96	2	0	96	4
CNSV_	109	96	6	0	96	4
BRTAP	109	240	3
BRTAP	109	240	5
NMHLD	109	336	4	24
NMHLD	109	336	6	24
NMHLD	110	0	4	24
NMHLD	110	0	6	24
NMTAP	110	48	3
NMSTR	110	48	7
NMSV_	110	48	7	96	72	1
NMHLD	110	144	2	24
NMHLD	110	192	2	24
CNSCL	110	216	1	0	48	0
NMTAP	110	240	2
CNSI_	110	264	0	0	96	4
NMHLD	110	336	3	24
NMHLD	111	0	3	24
NMTAP	111	48	3
NMHLD	111	144	2	24
NMHLD	111	144	4	24
NMHLD	111	192	2	24
NMHLD	111	192	4	24
NMSTR	111	240	1
NMSV_	111	240	1	96	72	7
NMTAP	111	240	5
NMHLD	111	336	6	24
NMHLD	112	0	6	24
CNSCR	112	24	7	0	48	0
NMTAP	112	48	6
CNSI_	112	72	0	0	96	4
NMHLD	112	144	5	24
NMHLD	112	192	5	24
NMSTR	112	240	5
NMSV_	112	240	5	96	72	7
NMHLD	112	336	4	24
NMHLD	113	0	4	24
CNSCL	113	24	7	0	48	6
NMTAP	113	48	4
CNSI_	113	72	6	0	96	2
NMHLD	113	144	3	24
NMHLD	113	192	3	24
BRSTR	113	240	3
NMSV_	113	240	3	96	72	1
NMHLD	113	336	0	24
NMHLD	114	0	0	24
CNSCR	114	24	1	0	48	2
NMTAP	114	48	0
CNSI_	114	72	2	0	96	5
NMHLD	114	144	6	24
NMHLD	114	192	6	24
NMSTR	114	240	6
NMSV_	114	240	6	96	72	4
NMHLD	114	336	3	24
NMHLD	115	0	3	24
CNSCR	115	24	4	0	48	5
NMTAP	115	48	3
CNSI_	115	72	5	0	96	0
NMTAP	115	144	1
NMTAP	115	240	2
NMTAP	115	240	7
NMTAP	115	288	2
NMTAP	115	336	2
NMTAP	116	0	3
NMTAP	116	0	5
NMTAP	116	48	5
NMTAP	116	96	5
NMTAP	116	144	2
NMTAP	116	144	6
NMTAP	116	192	2
NMTAP	116	240	2
NMTAP	116	288	1
NMTAP	116	288	7
NMTAP	116	336	1
NMTAP	116	336	7
NMTAP	117	0	1
NMTAP	117	0	7
NMTAP	117	48	1
NMTAP	117	48	7
NMTAP	117	64	2
NMTAP	117	80	3
NMTAP	117	96	4
NMTAP	117	112	5
NMTAP	117	128	6
NMTAP	117	144	7
NMTAP	117	160	0
NMTAP	117	176	1
NMTAP	117	192	2
NMTAP	117	208	3
NMTAP	117	224	4
NMTAP	117	224	5
NMTHO	118	48	0	48	C	0	M1
NMTTP	118	48	2	E	0	M1
NMTTP	118	192	2	B	0	M1
NMTHO	118	336	0	48	C	0	M1
NMTTP	118	336	3	B	0	M1
NMTTP	119	96	4	E	0	M1
NMTHO	119	240	0	48	C	0	M1
NMTTP	119	240	4	B	0	M1
NMTTP	120	0	5	B	0	M1
NMTHO	120	144	0	48	C	0	M1
NMHLD	120	144	6	48
NMTTP	120	240	7	E	0	M1
NMTTP	120	252	0	E	0	M1
NMTTP	120	264	1	E	0	M1
NMTTP	120	276	2	E	0	M1
NMTTP	120	288	3	E	0	M1
NMTTP	120	300	4	E	0	M1
NMTTP	120	312	5	E	0	M1
NMTTP	120	324	6	E	0	M1
NMTTP	120	336	7	E	0	M1
NMTTP	120	352	0	E	0	M1
NMTTP	120	368	1	E	0	M1
NMTTP	121	0	2	E	0	M1
NMTTP	121	16	3	E	0	M1
NMTTP	121	32	4	E	0	M1
NMTTP	121	48	5	E	0	M1

T_REC_TAP	400
T_REC_BRK	15
T_REC_XTP	4
T_REC_BXX	0
T_REC_HLD	116
T_REC_XHO	0
T_REC_BHO	2
T_REC_BXH	0
T_REC_STR	78
T_REC_BST	10
T_REC_XST	0
T_REC_XBS	0
T_REC_TTP	61
T_REC_THO	15
T_REC_SLD	80
T_REC_BSL	11
T_REC_ALL	792
T_NUM_TAP	543
T_NUM_BRK	38
T_NUM_HLD	131
T_NUM_SLD	80
T_NUM_ALL	792
T_JUDGE_TAP	568
T_JUDGE_HLD	322
T_JUDGE_SLD	91
T_JUDGE_ALL	981
TTM_EACHPAIRS	113
TTM_SCR_TAP	271500
TTM_SCR_BRK	98800
TTM_SCR_HLD	131000
TTM_SCR_SLD	120000
TTM_SCR_ALL	621300
TTM_SCR_S	599000
TTM_SCR_SS	617500
TTM_RAT_ACV	10061

